osu file format v14

[General]
AudioFilename: audio.mp3
AudioLeadIn: 0
PreviewTime: 66198
Countdown: 0
SampleSet: Normal
StackLeniency: 0.7
Mode: 3
LetterboxInBreaks: 0
SpecialStyle: 0
WidescreenStoryboard: 0

[Editor]
Bookmarks: 87970
DistanceSpacing: 1
BeatDivisor: 4
GridSize: 8
TimelineZoom: 1.6

[Metadata]
Title:Load of the Ciel
TitleUnicode:Load of the Ciel
Artist:sky_delta vs Street
ArtistUnicode:sky_delta vs Street
Creator:Dr_Marc
Version:HD
Source:
Tags:drum'n'bass dnb endorfin. side appleeaterx load of ciel sky_delta
BeatmapID:1327882
BeatmapSetID:629070

[Difficulty]
HPDrainRate:7
CircleSize:4
OverallDifficulty:8
ApproachRate:5
SliderMultiplier:1.4
SliderTickRate:1

[Events]
//Background and Video events
0,0,"lotcBG.png",0,0
//Break Periods
//Storyboard Layer 0 (Background)
//Storyboard Layer 1 (Fail)
//Storyboard Layer 2 (Pass)
//Storyboard Layer 3 (Foreground)
//Storyboard Sound Samples

[TimingPoints]
713,342.857142857143,4,1,1,10,1,0
9627,-100,4,3,1,75,0,0
11513,-100,4,1,1,60,0,0
22655,-100,4,1,1,75,0,0
44513,-83.3333333333333,4,1,1,75,0,0
44599,-125,4,2,1,40,0,0
55570,-83.3333333333333,4,1,1,75,0,0
55655,-100,4,1,1,75,0,0
66198,-100,4,1,1,75,0,1
91227,-66.6666666666667,4,1,1,75,0,1
91313,-200,4,1,1,75,0,1
91484,-100,4,1,1,75,0,1
99455,-66.6666666666667,4,1,1,75,0,1
99541,-200,4,1,1,75,0,1
99713,-100,4,1,1,75,0,1
110427,-83.3333333333333,4,3,1,75,0,0
110515,-125,4,2,1,15,0,0
129627,-125,4,3,1,50,0,0
130141,-125,4,2,1,15,0,0

[HitObjects]
320,192,9627,128,0,11341:0:0:0:0:
448,192,11513,1,0,0:0:0:0:
320,192,11570,1,0,0:0:0:0:
192,192,11627,1,0,0:0:0:0:
64,192,11684,1,0,0:0:0:0:
448,192,11684,128,0,13913:0:0:0:0:
192,192,11855,1,0,0:0:0:0:
64,192,12027,1,0,0:0:0:0:
192,192,12198,1,0,0:0:0:0:
320,192,12370,1,0,0:0:0:0:
192,192,12541,1,0,0:0:0:0:
320,192,12713,1,0,0:0:0:0:
192,192,12884,1,0,0:0:0:0:
320,192,13055,1,0,0:0:0:0:
192,192,13227,1,0,0:0:0:0:
64,192,13398,1,0,0:0:0:0:
192,192,13570,1,0,0:0:0:0:
64,192,13741,1,0,0:0:0:0:
320,192,13913,128,0,14084:0:0:0:0:
64,192,14084,128,0,14255:0:0:0:0:
192,192,14255,128,0,14770:0:0:0:0:
448,192,14427,1,0,0:0:0:0:
320,192,14598,1,0,0:0:0:0:
448,192,14770,1,0,0:0:0:0:
64,192,14941,1,0,0:0:0:0:
192,192,15027,1,0,0:0:0:0:
448,192,15113,1,0,0:0:0:0:
320,192,15198,1,0,0:0:0:0:
192,192,15284,1,0,0:0:0:0:
64,192,15455,1,0,0:0:0:0:
192,192,15627,128,0,15970:0:0:0:0:
64,192,15798,1,0,0:0:0:0:
320,192,15970,128,0,16313:0:0:0:0:
448,192,16141,1,0,0:0:0:0:
64,192,16313,128,0,16655:0:0:0:0:
192,192,16484,1,0,0:0:0:0:
448,192,16655,128,0,16998:0:0:0:0:
192,192,16827,1,0,0:0:0:0:
64,192,16998,1,0,0:0:0:0:
192,192,17084,1,0,0:0:0:0:
320,192,17170,1,0,0:0:0:0:
448,192,17170,128,0,18198:0:0:0:0:
192,192,17341,1,0,0:0:0:0:
64,192,17513,1,0,0:0:0:0:
192,192,17684,1,0,0:0:0:0:
320,192,17855,1,0,0:0:0:0:
192,192,18027,1,0,0:0:0:0:
64,192,18198,1,0,0:0:0:0:
320,192,18370,128,0,18884:0:0:0:0:
64,192,18541,1,0,0:0:0:0:
192,192,18713,1,0,0:0:0:0:
64,192,18884,1,0,0:0:0:0:
448,192,19055,128,0,19398:0:0:0:0:
192,192,19227,1,0,0:0:0:0:
320,192,19398,128,0,19741:0:0:0:0:
64,192,19570,1,0,0:0:0:0:
192,192,19741,128,0,21113:0:0:0:0:
448,192,19913,1,0,0:0:0:0:
448,192,20084,1,0,0:0:0:0:
64,192,20255,1,0,0:0:0:0:
448,192,20427,1,0,0:0:0:0:
320,192,20598,1,0,0:0:0:0:
320,192,20770,1,0,0:0:0:0:
320,192,20941,1,0,0:0:0:0:
320,192,21113,1,0,0:0:0:0:
64,192,21113,1,0,0:0:0:0:
448,192,21284,1,0,0:0:0:0:
64,192,21455,1,0,0:0:0:0:
192,192,21627,1,0,0:0:0:0:
448,192,21798,1,0,0:0:0:0:
320,192,21798,1,0,0:0:0:0:
192,192,21970,1,0,0:0:0:0:
64,192,22055,1,0,0:0:0:0:
320,192,22141,1,0,0:0:0:0:
192,192,22227,1,0,0:0:0:0:
448,192,22313,128,0,22655:0:0:0:0:
64,192,22484,128,0,22655:0:0:0:0:
192,192,22655,1,0,0:0:0:0:
320,192,22655,1,4,0:0:0:0:
320,192,22827,1,0,0:0:0:0:
448,192,22998,1,8,0:0:0:0:
192,192,22998,1,0,0:0:0:0:
192,192,23170,1,0,0:0:0:0:
64,192,23170,1,0,0:0:0:0:
448,192,23341,1,0,0:0:0:0:
192,192,23513,1,0,0:0:0:0:
448,192,23513,1,0,0:0:0:0:
64,192,23684,128,8,23855:0:0:0:0:
320,192,23684,1,0,0:0:0:0:
192,192,23855,1,0,0:0:0:0:
320,192,23941,1,0,0:0:0:0:
448,192,24027,128,4,24198:0:0:0:0:
320,192,24198,1,0,0:0:0:0:
320,192,24370,1,0,0:0:0:0:
64,192,24370,1,8,0:0:0:0:
448,192,24541,1,0,0:0:0:0:
64,192,24713,1,0,0:0:0:0:
448,192,24884,128,0,25055:0:0:0:0:
192,192,24884,1,0,0:0:0:0:
320,192,24970,1,0,0:0:0:0:
64,192,25055,1,8,0:0:0:0:
192,192,25055,1,0,0:0:0:0:
320,192,25141,1,0,0:0:0:0:
448,192,25227,1,0,0:0:0:0:
320,192,25313,1,0,0:0:0:0:
64,192,25398,1,4,0:0:0:0:
192,192,25398,1,0,0:0:0:0:
448,192,25398,128,0,25570:0:0:0:0:
320,192,25570,1,0,0:0:0:0:
192,192,25741,1,8,0:0:0:0:
448,192,25741,1,0,0:0:0:0:
64,192,25913,1,0,0:0:0:0:
192,192,25913,1,0,0:0:0:0:
448,192,26084,1,0,0:0:0:0:
192,192,26255,1,0,0:0:0:0:
320,192,26255,1,0,0:0:0:0:
64,192,26427,1,0,0:0:0:0:
192,192,26427,1,8,0:0:0:0:
448,192,26427,128,0,26598:0:0:0:0:
320,192,26598,1,0,0:0:0:0:
64,192,26684,1,0,0:0:0:0:
192,192,26770,128,4,26941:0:0:0:0:
448,192,26770,1,0,0:0:0:0:
64,192,26941,1,0,0:0:0:0:
448,192,27113,1,8,0:0:0:0:
192,192,27113,1,0,0:0:0:0:
64,192,27284,1,0,0:0:0:0:
192,192,27370,1,0,0:0:0:0:
320,192,27455,1,0,0:0:0:0:
448,192,27627,1,0,0:0:0:0:
192,192,27627,1,0,0:0:0:0:
64,192,27798,1,8,0:0:0:0:
192,192,27798,1,0,0:0:0:0:
448,192,27798,128,0,27970:0:0:0:0:
320,192,27970,1,0,0:0:0:0:
64,192,28141,1,4,0:0:0:0:
192,192,28141,1,0,0:0:0:0:
448,192,28141,128,0,28313:0:0:0:0:
320,192,28313,1,0,0:0:0:0:
192,192,28484,1,8,0:0:0:0:
448,192,28484,1,0,0:0:0:0:
64,192,28655,1,0,0:0:0:0:
192,192,28655,1,0,0:0:0:0:
448,192,28827,1,0,0:0:0:0:
320,192,28998,1,0,0:0:0:0:
64,192,29170,1,8,0:0:0:0:
192,192,29170,1,0,0:0:0:0:
448,192,29170,128,0,29341:0:0:0:0:
320,192,29341,1,0,0:0:0:0:
64,192,29427,1,0,0:0:0:0:
192,192,29513,128,4,29684:0:0:0:0:
448,192,29513,1,0,0:0:0:0:
64,192,29684,1,0,0:0:0:0:
64,192,29855,1,8,0:0:0:0:
320,192,29855,1,0,0:0:0:0:
192,192,30027,1,0,0:0:0:0:
320,192,30113,1,0,0:0:0:0:
64,192,30198,1,0,0:0:0:0:
192,192,30198,1,0,0:0:0:0:
448,192,30198,128,0,30370:0:0:0:0:
320,192,30370,1,0,0:0:0:0:
192,192,30541,128,8,30713:0:0:0:0:
320,192,30541,1,0,0:0:0:0:
64,192,30713,1,0,0:0:0:0:
320,192,30798,1,0,0:0:0:0:
64,192,30884,1,4,0:0:0:0:
192,192,30884,1,0,0:0:0:0:
448,192,30884,128,0,31055:0:0:0:0:
320,192,31055,1,0,0:0:0:0:
192,192,31227,1,8,0:0:0:0:
320,192,31227,1,0,0:0:0:0:
448,192,31398,1,0,0:0:0:0:
320,192,31484,1,0,0:0:0:0:
192,192,31570,1,0,0:0:0:0:
64,192,31741,1,0,0:0:0:0:
320,192,31741,1,0,0:0:0:0:
448,192,31913,1,8,0:0:0:0:
320,192,31913,1,0,0:0:0:0:
448,192,32084,1,0,0:0:0:0:
320,192,32170,1,0,0:0:0:0:
64,192,32255,1,4,0:0:0:0:
192,192,32255,1,0,0:0:0:0:
448,192,32255,128,0,32427:0:0:0:0:
320,192,32427,1,0,0:0:0:0:
64,192,32598,1,8,0:0:0:0:
320,192,32598,1,0,0:0:0:0:
448,192,32770,1,0,0:0:0:0:
320,192,32855,1,0,0:0:0:0:
192,192,32941,1,0,0:0:0:0:
64,192,33027,1,0,0:0:0:0:
192,192,33113,1,0,0:0:0:0:
448,192,33113,1,8,0:0:0:0:
320,192,33198,1,0,0:0:0:0:
64,192,33284,1,0,0:0:0:0:
448,192,33284,1,8,0:0:0:0:
192,192,33370,1,0,0:0:0:0:
320,192,33455,1,0,0:0:0:0:
192,192,33541,1,0,0:0:0:0:
64,192,33627,1,4,0:0:0:0:
448,192,33627,128,0,33798:0:0:0:0:
320,192,33627,1,0,0:0:0:0:
320,192,33798,1,0,0:0:0:0:
64,192,33970,1,8,0:0:0:0:
192,192,33970,1,0,0:0:0:0:
64,192,34141,1,0,0:0:0:0:
192,192,34141,1,0,0:0:0:0:
448,192,34313,1,0,0:0:0:0:
192,192,34484,1,0,0:0:0:0:
64,192,34484,1,0,0:0:0:0:
448,192,34655,1,8,0:0:0:0:
192,192,34655,1,0,0:0:0:0:
64,192,34827,1,0,0:0:0:0:
192,192,34827,1,0,0:0:0:0:
320,192,34913,1,0,0:0:0:0:
448,192,34998,128,4,35170:0:0:0:0:
64,192,34998,1,0,0:0:0:0:
64,192,35170,1,0,0:0:0:0:
192,192,35170,1,0,0:0:0:0:
448,192,35341,1,8,0:0:0:0:
192,192,35341,1,0,0:0:0:0:
64,192,35513,1,0,0:0:0:0:
192,192,35513,1,0,0:0:0:0:
448,192,35684,1,0,0:0:0:0:
64,192,35855,1,0,0:0:0:0:
192,192,35855,1,0,0:0:0:0:
320,192,35941,1,0,0:0:0:0:
448,192,36027,1,8,0:0:0:0:
192,192,36027,1,0,0:0:0:0:
320,192,36113,1,0,0:0:0:0:
64,192,36198,128,0,36370:0:0:0:0:
192,192,36370,128,4,36541:0:0:0:0:
320,192,36370,1,0,0:0:0:0:
448,192,36541,1,0,0:0:0:0:
64,192,36713,1,8,0:0:0:0:
192,192,36713,1,0,0:0:0:0:
64,192,36884,1,0,0:0:0:0:
192,192,36884,1,0,0:0:0:0:
320,192,37055,1,0,0:0:0:0:
64,192,37227,1,0,0:0:0:0:
192,192,37227,1,0,0:0:0:0:
448,192,37398,1,8,0:0:0:0:
320,192,37398,1,0,0:0:0:0:
64,192,37570,1,0,0:0:0:0:
192,192,37570,1,0,0:0:0:0:
320,192,37655,1,0,0:0:0:0:
448,192,37741,128,4,37913:0:0:0:0:
192,192,37741,1,0,0:0:0:0:
192,192,37913,1,0,0:0:0:0:
64,192,37913,1,0,0:0:0:0:
320,192,38084,1,8,0:0:0:0:
448,192,38084,1,0,0:0:0:0:
64,192,38255,1,0,0:0:0:0:
192,192,38255,1,0,0:0:0:0:
320,192,38427,1,0,0:0:0:0:
64,192,38598,1,0,0:0:0:0:
192,192,38598,1,0,0:0:0:0:
320,192,38684,1,0,0:0:0:0:
192,192,38770,1,8,0:0:0:0:
448,192,38770,1,0,0:0:0:0:
320,192,38855,1,0,0:0:0:0:
448,192,38941,1,0,0:0:0:0:
320,192,39027,1,0,0:0:0:0:
448,192,39113,128,0,39284:0:0:0:0:
64,192,39113,1,4,0:0:0:0:
192,192,39113,1,0,0:0:0:0:
320,192,39284,1,0,0:0:0:0:
64,192,39455,1,8,0:0:0:0:
320,192,39455,1,0,0:0:0:0:
448,192,39627,1,0,0:0:0:0:
320,192,39713,1,0,0:0:0:0:
192,192,39798,1,0,0:0:0:0:
448,192,39970,128,0,40141:0:0:0:0:
192,192,39970,1,0,0:0:0:0:
64,192,40141,1,8,0:0:0:0:
192,192,40141,1,0,0:0:0:0:
64,192,40313,1,0,0:0:0:0:
192,192,40313,1,0,0:0:0:0:
448,192,40484,128,4,40655:0:0:0:0:
64,192,40484,1,0,0:0:0:0:
320,192,40655,1,0,0:0:0:0:
64,192,40827,1,8,0:0:0:0:
320,192,40827,1,0,0:0:0:0:
64,192,40998,1,0,0:0:0:0:
192,192,40998,1,0,0:0:0:0:
320,192,41170,1,0,0:0:0:0:
448,192,41341,128,0,41513:0:0:0:0:
192,192,41341,1,0,0:0:0:0:
320,192,41513,1,0,0:0:0:0:
64,192,41513,128,8,41684:0:0:0:0:
192,192,41684,128,8,41855:0:0:0:0:
448,192,41855,128,4,44255:0:0:0:0:
64,192,41855,1,0,0:0:0:0:
320,192,42198,128,0,42713:0:0:0:0:
192,192,42713,128,0,43227:0:0:0:0:
320,192,43227,128,0,43741:0:0:0:0:
64,192,43741,128,0,44255:0:0:0:0:
320,192,44255,1,8,0:0:0:0:
192,192,44341,1,0,0:0:0:0:
64,192,44427,1,0,0:0:0:0:
192,192,44513,1,0,0:0:0:0:
448,192,44598,128,0,44770:0:0:0:0:
192,192,44770,128,0,44941:0:0:0:0:
448,192,44941,1,0,0:0:0:0:
64,192,44998,1,0,0:0:0:0:
320,192,45055,1,0,0:0:0:0:
192,192,45113,128,0,45455:0:0:0:0:
64,192,45455,128,0,45798:0:0:0:0:
320,192,45798,128,0,46141:0:0:0:0:
192,192,46141,128,0,46484:0:0:0:0:
320,192,46484,128,0,46827:0:0:0:0:
448,192,46827,128,0,47170:0:0:0:0:
320,192,47170,1,0,0:0:0:0:
192,192,47255,1,0,0:0:0:0:
448,192,47341,128,0,47513:0:0:0:0:
192,192,47513,128,0,47684:0:0:0:0:
448,192,47684,1,0,0:0:0:0:
64,192,47741,1,0,0:0:0:0:
320,192,47798,1,0,0:0:0:0:
448,192,47855,128,0,48198:0:0:0:0:
320,192,48198,128,0,48370:0:0:0:0:
64,192,48370,128,0,48541:0:0:0:0:
448,192,48541,128,0,48884:0:0:0:0:
320,192,48884,1,0,0:0:0:0:
192,192,48927,1,0,0:0:0:0:
64,192,48970,1,0,0:0:0:0:
448,192,49227,128,0,49570:0:0:0:0:
192,192,49570,128,0,49913:0:0:0:0:
448,192,49913,128,0,50084:0:0:0:0:
192,192,50084,128,0,50255:0:0:0:0:
448,192,50255,1,0,0:0:0:0:
64,192,50313,1,0,0:0:0:0:
320,192,50370,1,0,0:0:0:0:
192,192,50427,128,0,50598:0:0:0:0:
448,192,50598,128,0,50941:0:0:0:0:
320,192,50941,128,0,51284:0:0:0:0:
192,192,51284,128,0,51627:0:0:0:0:
320,192,51627,128,0,51970:0:0:0:0:
448,192,51970,128,0,52313:0:0:0:0:
320,192,52313,128,0,52655:0:0:0:0:
64,192,52655,128,0,52827:0:0:0:0:
320,192,52827,128,0,52998:0:0:0:0:
64,192,53084,1,0,0:0:0:0:
192,192,53127,1,0,0:0:0:0:
320,192,53170,1,0,0:0:0:0:
192,192,53341,128,0,53684:0:0:0:0:
64,192,53684,128,0,54027:0:0:0:0:
192,192,54027,128,0,54370:0:0:0:0:
320,192,54370,128,0,54713:0:0:0:0:
192,192,54713,128,0,55055:0:0:0:0:
448,192,55055,128,0,55570:0:0:0:0:
64,192,55398,1,0,0:0:0:0:
320,192,55484,1,0,0:0:0:0:
64,192,55570,1,0,0:0:0:0:
192,192,55570,1,0,0:0:0:0:
320,192,55741,1,0,0:0:0:0:
192,192,55913,1,0,0:0:0:0:
448,192,56084,1,0,0:0:0:0:
64,192,56255,1,0,0:0:0:0:
320,192,56255,1,0,0:0:0:0:
192,192,56427,1,0,0:0:0:0:
320,192,56770,1,0,0:0:0:0:
64,192,57113,1,0,0:0:0:0:
64,192,57455,1,0,0:0:0:0:
320,192,57455,128,0,57970:0:0:0:0:
192,192,57541,1,0,0:0:0:0:
448,192,57627,1,0,0:0:0:0:
192,192,57798,1,0,0:0:0:0:
448,192,57970,128,0,58313:0:0:0:0:
64,192,57970,1,0,0:0:0:0:
64,192,58141,1,0,0:0:0:0:
320,192,58227,1,0,0:0:0:0:
192,192,58313,1,0,0:0:0:0:
64,192,58484,1,0,0:0:0:0:
192,192,58655,1,0,0:0:0:0:
448,192,58827,1,0,0:0:0:0:
320,192,58827,1,0,0:0:0:0:
192,192,58998,1,0,0:0:0:0:
64,192,58998,1,0,0:0:0:0:
448,192,59170,1,0,0:0:0:0:
320,192,59341,1,0,0:0:0:0:
320,192,59513,128,0,59855:0:0:0:0:
64,192,59855,1,0,0:0:0:0:
192,192,59898,1,0,0:0:0:0:
320,192,59941,1,0,0:0:0:0:
320,192,60198,1,0,0:0:0:0:
64,192,60284,1,0,0:0:0:0:
448,192,60370,1,0,0:0:0:0:
192,192,60541,1,0,0:0:0:0:
320,192,60627,1,0,0:0:0:0:
448,192,60713,1,0,0:0:0:0:
64,192,60798,1,0,0:0:0:0:
192,192,60884,1,0,0:0:0:0:
320,192,60970,1,0,0:0:0:0:
448,192,61055,1,8,0:0:0:0:
64,192,61055,1,0,0:0:0:0:
320,192,61227,1,0,0:0:0:0:
64,192,61398,1,0,0:0:0:0:
320,192,61398,1,8,0:0:0:0:
192,192,61398,1,0,0:0:0:0:
448,192,61570,1,0,0:0:0:0:
64,192,61741,1,0,0:0:0:0:
320,192,61741,1,8,0:0:0:0:
192,192,61741,1,0,0:0:0:0:
64,192,61913,1,0,0:0:0:0:
448,192,62084,1,0,0:0:0:0:
192,192,62084,1,0,0:0:0:0:
320,192,62084,1,8,0:0:0:0:
192,192,62255,1,0,0:0:0:0:
320,192,62427,1,8,0:0:0:0:
448,192,62427,1,0,0:0:0:0:
64,192,62427,1,0,0:0:0:0:
320,192,62598,1,0,0:0:0:0:
64,192,62770,1,8,0:0:0:0:
448,192,62770,1,0,0:0:0:0:
192,192,62770,1,0,0:0:0:0:
192,192,62941,128,0,63284:0:0:0:0:
320,192,63113,1,0,0:0:0:0:
448,192,63113,1,8,0:0:0:0:
64,192,63113,1,0,0:0:0:0:
448,192,63284,1,0,0:0:0:0:
320,192,63455,1,8,0:0:0:0:
192,192,63455,1,0,0:0:0:0:
64,192,63455,1,0,0:0:0:0:
64,192,63627,1,0,0:0:0:0:
448,192,63798,1,8,0:0:0:0:
320,192,63798,1,0,0:0:0:0:
64,192,63884,1,4,0:0:0:0:
192,192,63884,1,0,0:0:0:0:
320,192,63970,1,0,0:0:0:0:
448,192,63970,1,8,0:0:0:0:
192,192,64055,1,0,0:0:0:0:
64,192,64055,1,4,0:0:0:0:
320,192,64141,1,0,0:0:0:0:
448,192,64141,1,8,0:0:0:0:
192,192,64227,1,0,0:0:0:0:
64,192,64227,1,4,0:0:0:0:
320,192,64313,1,0,0:0:0:0:
448,192,64313,1,8,0:0:0:0:
192,192,64398,1,0,0:0:0:0:
64,192,64398,1,4,0:0:0:0:
448,192,64484,1,8,0:0:0:0:
320,192,64484,1,0,0:0:0:0:
192,192,64570,1,4,0:0:0:0:
448,192,64655,1,8,0:0:0:0:
64,192,64655,1,0,0:0:0:0:
192,192,64741,1,4,0:0:0:0:
320,192,64741,1,0,0:0:0:0:
64,192,64827,1,0,0:0:0:0:
448,192,64827,1,8,0:0:0:0:
192,192,64913,1,4,0:0:0:0:
320,192,64913,1,0,0:0:0:0:
64,192,64998,1,0,0:0:0:0:
448,192,64998,1,8,0:0:0:0:
192,192,65084,1,4,0:0:0:0:
320,192,65084,1,0,0:0:0:0:
64,192,65170,128,0,66198:0:0:0:0:
192,192,65684,128,0,66198:0:0:0:0:
448,192,66198,1,8,0:0:0:0:
320,192,66284,1,0,0:0:0:0:
192,192,66370,1,0,0:0:0:0:
64,192,66455,1,0,0:0:0:0:
192,192,66541,1,0,0:0:0:0:
448,192,66541,128,0,67570:0:0:0:0:
320,192,66713,1,0,0:0:0:0:
64,192,66884,1,8,0:0:0:0:
192,192,66884,1,0,0:0:0:0:
320,192,67055,1,0,0:0:0:0:
192,192,67227,1,0,0:0:0:0:
64,192,67398,1,0,0:0:0:0:
320,192,67398,1,0,0:0:0:0:
320,192,67570,1,8,0:0:0:0:
192,192,67570,1,0,0:0:0:0:
64,192,67655,1,0,0:0:0:0:
320,192,67741,128,0,68084:0:0:0:0:
448,192,67913,1,4,0:0:0:0:
64,192,67913,1,0,0:0:0:0:
192,192,68084,128,0,68427:0:0:0:0:
448,192,68255,1,8,0:0:0:0:
320,192,68255,1,0,0:0:0:0:
448,192,68427,128,0,68770:0:0:0:0:
64,192,68770,128,0,68941:0:0:0:0:
320,192,68770,1,0,0:0:0:0:
192,192,68941,1,8,0:0:0:0:
320,192,68941,1,0,0:0:0:0:
448,192,69027,1,0,0:0:0:0:
320,192,69113,1,0,0:0:0:0:
192,192,69198,1,0,0:0:0:0:
320,192,69284,128,0,69455:0:0:0:0:
448,192,69284,1,4,0:0:0:0:
64,192,69541,1,0,0:0:0:0:
192,192,69627,1,8,0:0:0:0:
320,192,69627,1,0,0:0:0:0:
448,192,69627,128,0,69798:0:0:0:0:
320,192,69798,128,0,69970:0:0:0:0:
64,192,69970,128,0,70141:0:0:0:0:
192,192,70141,1,0,0:0:0:0:
320,192,70227,1,0,0:0:0:0:
448,192,70313,1,8,0:0:0:0:
320,192,70398,1,0,0:0:0:0:
192,192,70484,1,0,0:0:0:0:
64,192,70570,1,0,0:0:0:0:
448,192,70655,1,4,0:0:0:0:
320,192,70741,1,0,0:0:0:0:
192,192,70827,1,0,0:0:0:0:
64,192,70913,1,0,0:0:0:0:
192,192,70998,1,8,0:0:0:0:
320,192,71084,1,0,0:0:0:0:
448,192,71170,1,0,0:0:0:0:
320,192,71255,1,0,0:0:0:0:
64,192,71341,1,0,0:0:0:0:
192,192,71427,1,0,0:0:0:0:
320,192,71513,1,0,0:0:0:0:
448,192,71513,1,0,0:0:0:0:
192,192,71684,1,8,0:0:0:0:
320,192,71770,1,0,0:0:0:0:
448,192,71855,1,0,0:0:0:0:
320,192,71941,1,0,0:0:0:0:
192,192,72027,1,4,0:0:0:0:
64,192,72027,128,0,73055:0:0:0:0:
320,192,72198,1,0,0:0:0:0:
448,192,72370,1,8,0:0:0:0:
320,192,72370,1,0,0:0:0:0:
192,192,72541,1,0,0:0:0:0:
448,192,72713,1,0,0:0:0:0:
320,192,72884,1,0,0:0:0:0:
192,192,72884,1,0,0:0:0:0:
448,192,73055,1,8,0:0:0:0:
192,192,73055,1,0,0:0:0:0:
320,192,73227,128,0,73913:0:0:0:0:
64,192,73398,1,0,0:0:0:0:
448,192,73398,1,4,0:0:0:0:
192,192,73570,1,0,0:0:0:0:
64,192,73741,1,8,0:0:0:0:
192,192,73741,1,0,0:0:0:0:
64,192,73913,1,0,0:0:0:0:
448,192,73913,128,0,74255:0:0:0:0:
320,192,74255,1,0,0:0:0:0:
64,192,74255,1,0,0:0:0:0:
192,192,74341,1,0,0:0:0:0:
320,192,74427,1,8,0:0:0:0:
448,192,74513,1,0,0:0:0:0:
64,192,74598,1,0,0:0:0:0:
192,192,74684,1,0,0:0:0:0:
320,192,74770,1,0,0:0:0:0:
448,192,74770,1,4,0:0:0:0:
192,192,74941,1,0,0:0:0:0:
64,192,75113,1,0,0:0:0:0:
320,192,75113,1,8,0:0:0:0:
448,192,75284,1,0,0:0:0:0:
320,192,75455,1,0,0:0:0:0:
192,192,75627,1,0,0:0:0:0:
64,192,75627,1,0,0:0:0:0:
320,192,75798,1,0,0:0:0:0:
448,192,75798,1,8,0:0:0:0:
192,192,75884,1,0,0:0:0:0:
64,192,75970,1,0,0:0:0:0:
192,192,76055,1,0,0:0:0:0:
320,192,76141,128,0,76655:0:0:0:0:
448,192,76141,1,4,0:0:0:0:
64,192,76313,1,0,0:0:0:0:
64,192,76484,1,8,0:0:0:0:
192,192,76484,1,0,0:0:0:0:
448,192,76655,128,0,76998:0:0:0:0:
64,192,76998,1,0,0:0:0:0:
320,192,76998,1,0,0:0:0:0:
192,192,77084,1,0,0:0:0:0:
320,192,77170,1,8,0:0:0:0:
448,192,77255,1,0,0:0:0:0:
320,192,77341,1,0,0:0:0:0:
192,192,77427,1,0,0:0:0:0:
64,192,77513,1,4,0:0:0:0:
320,192,77513,128,0,77855:0:0:0:0:
192,192,77855,1,8,0:0:0:0:
448,192,77855,1,0,0:0:0:0:
64,192,77941,1,0,0:0:0:0:
448,192,78027,128,0,78541:0:0:0:0:
320,192,78198,1,0,0:0:0:0:
192,192,78370,1,0,0:0:0:0:
64,192,78370,1,0,0:0:0:0:
64,192,78541,1,8,0:0:0:0:
320,192,78541,1,0,0:0:0:0:
192,192,78627,1,0,0:0:0:0:
320,192,78713,1,0,0:0:0:0:
448,192,78798,1,0,0:0:0:0:
64,192,78884,1,4,0:0:0:0:
192,192,78970,1,0,0:0:0:0:
448,192,79055,1,0,0:0:0:0:
320,192,79141,1,0,0:0:0:0:
64,192,79227,1,8,0:0:0:0:
192,192,79313,1,0,0:0:0:0:
320,192,79398,1,0,0:0:0:0:
448,192,79484,1,0,0:0:0:0:
64,192,79570,1,0,0:0:0:0:
192,192,79655,1,0,0:0:0:0:
448,192,79741,1,0,0:0:0:0:
320,192,79827,1,0,0:0:0:0:
192,192,79913,1,8,0:0:0:0:
64,192,79998,1,0,0:0:0:0:
448,192,80084,1,0,0:0:0:0:
320,192,80170,1,0,0:0:0:0:
64,192,80255,128,0,80598:0:0:0:0:
192,192,80255,1,4,0:0:0:0:
448,192,80598,1,0,0:0:0:0:
320,192,80598,1,8,0:0:0:0:
64,192,80770,1,0,0:0:0:0:
192,192,80941,1,0,0:0:0:0:
320,192,81113,1,0,0:0:0:0:
448,192,81113,1,0,0:0:0:0:
320,192,81284,1,0,0:0:0:0:
64,192,81284,1,8,0:0:0:0:
192,192,81455,1,0,0:0:0:0:
320,192,81627,128,4,81970:0:0:0:0:
64,192,81627,1,0,0:0:0:0:
192,192,81970,1,0,0:0:0:0:
448,192,81970,1,8,0:0:0:0:
448,192,82141,1,0,0:0:0:0:
320,192,82313,128,0,82484:0:0:0:0:
64,192,82484,1,0,0:0:0:0:
192,192,82484,1,0,0:0:0:0:
448,192,82570,1,0,0:0:0:0:
192,192,82655,1,0,0:0:0:0:
320,192,82655,1,8,0:0:0:0:
64,192,82827,1,0,0:0:0:0:
448,192,82998,128,0,83341:0:0:0:0:
192,192,82998,1,4,0:0:0:0:
320,192,83341,1,8,0:0:0:0:
64,192,83341,1,0,0:0:0:0:
320,192,83513,1,0,0:0:0:0:
192,192,83684,1,0,0:0:0:0:
448,192,83855,1,0,0:0:0:0:
320,192,83855,1,0,0:0:0:0:
64,192,84027,1,8,0:0:0:0:
320,192,84027,1,0,0:0:0:0:
448,192,84198,1,0,0:0:0:0:
192,192,84370,1,4,0:0:0:0:
320,192,84370,128,0,84541:0:0:0:0:
64,192,84541,1,0,0:0:0:0:
192,192,84627,1,0,0:0:0:0:
448,192,84713,1,8,0:0:0:0:
320,192,84798,1,0,0:0:0:0:
192,192,84884,1,0,0:0:0:0:
64,192,84970,1,0,0:0:0:0:
448,192,85055,1,0,0:0:0:0:
320,192,85141,1,0,0:0:0:0:
192,192,85227,1,0,0:0:0:0:
64,192,85313,1,0,0:0:0:0:
448,192,85398,1,8,0:0:0:0:
320,192,85484,1,0,0:0:0:0:
192,192,85570,1,0,0:0:0:0:
64,192,85655,1,0,0:0:0:0:
320,192,85741,128,4,86084:0:0:0:0:
448,192,85741,1,0,0:0:0:0:
448,192,86084,1,8,0:0:0:0:
192,192,86084,1,0,0:0:0:0:
320,192,86255,1,0,0:0:0:0:
64,192,86427,1,0,0:0:0:0:
448,192,86598,1,0,0:0:0:0:
320,192,86598,1,0,0:0:0:0:
64,192,86770,1,8,0:0:0:0:
320,192,86770,1,0,0:0:0:0:
192,192,86941,1,0,0:0:0:0:
448,192,87113,1,4,0:0:0:0:
320,192,87113,1,0,0:0:0:0:
192,192,87284,1,0,0:0:0:0:
448,192,87455,1,8,0:0:0:0:
320,192,87455,1,0,0:0:0:0:
64,192,87627,128,0,87970:0:0:0:0:
192,192,87627,1,0,0:0:0:0:
448,192,87970,1,0,0:0:0:0:
320,192,88055,1,0,0:0:0:0:
64,192,88141,1,8,0:0:0:0:
192,192,88227,1,0,0:0:0:0:
448,192,88313,1,0,0:0:0:0:
320,192,88398,1,0,0:0:0:0:
64,192,88484,1,4,0:0:0:0:
192,192,88484,1,0,0:0:0:0:
320,192,88570,1,0,0:0:0:0:
448,192,88655,1,8,0:0:0:0:
320,192,88741,1,0,0:0:0:0:
64,192,88827,128,0,88998:0:0:0:0:
192,192,88998,128,0,89170:0:0:0:0:
320,192,89084,1,0,0:0:0:0:
448,192,89170,1,0,0:0:0:0:
320,192,89255,1,0,0:0:0:0:
192,192,89341,1,0,0:0:0:0:
64,192,89341,1,0,0:0:0:0:
448,192,89513,1,0,0:0:0:0:
320,192,89513,1,0,0:0:0:0:
64,192,89684,1,0,0:0:0:0:
192,192,89684,1,0,0:0:0:0:
448,192,89684,1,0,0:0:0:0:
192,192,89855,1,0,0:0:0:0:
320,192,90027,1,0,0:0:0:0:
448,192,90027,1,0,0:0:0:0:
192,192,90113,1,0,0:0:0:0:
64,192,90198,1,8,0:0:0:0:
320,192,90198,1,0,0:0:0:0:
448,192,90370,1,0,0:0:0:0:
320,192,90370,1,0,0:0:0:0:
192,192,90541,1,0,0:0:0:0:
448,192,90713,1,0,0:0:0:0:
320,192,90713,1,0,0:0:0:0:
448,192,90884,1,8,0:0:0:0:
320,192,91055,1,0,0:0:0:0:
64,192,91227,1,0,0:0:0:0:
448,192,91227,1,4,0:0:0:0:
320,192,91227,1,0,0:0:0:0:
64,192,91570,1,0,0:0:0:0:
192,192,91570,1,0,0:0:0:0:
320,192,91570,1,0,0:0:0:0:
448,192,91570,1,8,0:0:0:0:
448,192,91741,1,0,0:0:0:0:
320,192,91741,1,0,0:0:0:0:
448,192,91913,1,0,0:0:0:0:
320,192,92084,1,0,0:0:0:0:
192,192,92255,1,0,0:0:0:0:
64,192,92255,1,8,0:0:0:0:
448,192,92427,1,0,0:0:0:0:
64,192,92513,1,0,0:0:0:0:
320,192,92598,1,0,0:0:0:0:
192,192,92598,1,4,0:0:0:0:
448,192,92684,1,0,0:0:0:0:
320,192,92770,1,0,0:0:0:0:
192,192,92855,1,0,0:0:0:0:
448,192,92941,1,8,0:0:0:0:
320,192,92941,1,0,0:0:0:0:
64,192,93113,1,0,0:0:0:0:
192,192,93198,1,0,0:0:0:0:
320,192,93284,1,0,0:0:0:0:
448,192,93455,1,0,0:0:0:0:
192,192,93455,1,0,0:0:0:0:
64,192,93627,1,8,0:0:0:0:
320,192,93627,1,0,0:0:0:0:
192,192,93798,1,0,0:0:0:0:
448,192,93970,1,4,0:0:0:0:
320,192,93970,1,0,0:0:0:0:
192,192,94141,1,0,0:0:0:0:
320,192,94313,1,0,0:0:0:0:
64,192,94313,1,8,0:0:0:0:
448,192,94484,1,0,0:0:0:0:
320,192,94484,1,0,0:0:0:0:
64,192,94655,1,0,0:0:0:0:
448,192,94827,1,0,0:0:0:0:
192,192,94827,1,0,0:0:0:0:
64,192,94998,1,8,0:0:0:0:
320,192,94998,1,0,0:0:0:0:
192,192,95170,1,0,0:0:0:0:
320,192,95341,1,0,0:0:0:0:
192,192,95341,1,4,0:0:0:0:
64,192,95513,1,0,0:0:0:0:
448,192,95684,1,8,0:0:0:0:
320,192,95684,1,0,0:0:0:0:
192,192,95855,1,0,0:0:0:0:
64,192,96027,1,0,0:0:0:0:
320,192,96198,1,0,0:0:0:0:
448,192,96198,1,0,0:0:0:0:
192,192,96370,1,8,0:0:0:0:
64,192,96370,1,0,0:0:0:0:
448,192,96455,1,0,0:0:0:0:
320,192,96455,1,0,0:0:0:0:
64,192,96541,1,0,0:0:0:0:
192,192,96713,1,0,0:0:0:0:
448,192,96713,1,4,0:0:0:0:
320,192,96884,1,0,0:0:0:0:
64,192,97055,1,8,0:0:0:0:
320,192,97055,1,0,0:0:0:0:
192,192,97227,1,0,0:0:0:0:
448,192,97398,1,0,0:0:0:0:
192,192,97570,1,0,0:0:0:0:
64,192,97570,1,0,0:0:0:0:
320,192,97741,1,8,0:0:0:0:
64,192,97741,1,0,0:0:0:0:
448,192,97913,1,0,0:0:0:0:
320,192,98084,1,0,0:0:0:0:
448,192,98084,1,4,0:0:0:0:
192,192,98255,1,0,0:0:0:0:
64,192,98427,1,8,0:0:0:0:
192,192,98427,1,0,0:0:0:0:
64,192,98598,1,0,0:0:0:0:
448,192,98770,5,0,0:0:0:0:
320,192,98941,1,0,0:0:0:0:
64,192,98941,1,0,0:0:0:0:
192,192,99113,1,0,0:0:0:0:
448,192,99113,1,8,0:0:0:0:
320,192,99284,1,0,0:0:0:0:
64,192,99455,5,0,0:0:0:0:
192,192,99455,1,0,0:0:0:0:
448,192,99455,1,4,0:0:0:0:
64,192,99798,5,0,0:0:0:0:
192,192,99798,1,0,0:0:0:0:
320,192,99798,1,0,0:0:0:0:
448,192,99798,1,8,0:0:0:0:
320,192,99970,1,0,0:0:0:0:
448,192,99970,1,0,0:0:0:0:
192,192,100141,1,0,0:0:0:0:
64,192,100313,1,0,0:0:0:0:
320,192,100313,1,0,0:0:0:0:
320,192,100484,1,0,0:0:0:0:
448,192,100484,1,8,0:0:0:0:
192,192,100655,1,0,0:0:0:0:
64,192,100827,1,4,0:0:0:0:
192,192,100827,1,0,0:0:0:0:
448,192,100998,1,0,0:0:0:0:
192,192,101170,1,8,0:0:0:0:
320,192,101170,1,0,0:0:0:0:
192,192,101341,1,0,0:0:0:0:
64,192,101513,1,0,0:0:0:0:
320,192,101684,1,0,0:0:0:0:
448,192,101684,1,0,0:0:0:0:
64,192,101855,1,8,0:0:0:0:
320,192,101855,1,0,0:0:0:0:
192,192,102027,1,0,0:0:0:0:
320,192,102198,1,0,0:0:0:0:
448,192,102198,1,4,0:0:0:0:
192,192,102370,1,0,0:0:0:0:
64,192,102541,1,8,0:0:0:0:
320,192,102541,1,0,0:0:0:0:
320,192,102713,1,0,0:0:0:0:
448,192,102713,1,0,0:0:0:0:
192,192,102884,1,0,0:0:0:0:
64,192,103055,1,0,0:0:0:0:
192,192,103055,1,0,0:0:0:0:
64,192,103227,1,8,0:0:0:0:
320,192,103227,1,0,0:0:0:0:
192,192,103398,1,0,0:0:0:0:
192,192,103570,1,0,0:0:0:0:
448,192,103570,1,4,0:0:0:0:
320,192,103741,1,0,0:0:0:0:
320,192,103913,1,0,0:0:0:0:
64,192,103913,1,8,0:0:0:0:
320,192,104084,1,0,0:0:0:0:
448,192,104084,1,0,0:0:0:0:
192,192,104255,1,0,0:0:0:0:
320,192,104427,1,0,0:0:0:0:
448,192,104427,1,0,0:0:0:0:
64,192,104598,1,8,0:0:0:0:
320,192,104598,1,0,0:0:0:0:
192,192,104770,1,0,0:0:0:0:
320,192,104941,1,0,0:0:0:0:
448,192,104941,1,4,0:0:0:0:
192,192,105113,1,0,0:0:0:0:
64,192,105284,1,8,0:0:0:0:
320,192,105284,1,0,0:0:0:0:
448,192,105455,1,0,0:0:0:0:
320,192,105455,1,0,0:0:0:0:
192,192,105627,1,0,0:0:0:0:
64,192,105798,1,0,0:0:0:0:
320,192,105798,1,0,0:0:0:0:
320,192,105970,1,0,0:0:0:0:
448,192,105970,1,8,0:0:0:0:
192,192,106141,1,0,0:0:0:0:
64,192,106313,1,4,0:0:0:0:
320,192,106313,1,0,0:0:0:0:
192,192,106484,1,0,0:0:0:0:
448,192,106655,1,8,0:0:0:0:
64,192,106655,1,0,0:0:0:0:
192,192,106827,1,0,0:0:0:0:
64,192,106998,1,0,0:0:0:0:
320,192,107170,1,0,0:0:0:0:
448,192,107170,1,0,0:0:0:0:
64,192,107341,1,8,0:0:0:0:
320,192,107341,1,0,0:0:0:0:
192,192,107513,1,0,0:0:0:0:
320,192,107684,1,0,0:0:0:0:
448,192,107684,1,4,0:0:0:0:
192,192,107855,1,0,0:0:0:0:
64,192,108027,1,8,0:0:0:0:
448,192,108027,1,0,0:0:0:0:
320,192,108198,1,0,0:0:0:0:
448,192,108198,1,0,0:0:0:0:
192,192,108370,1,0,0:0:0:0:
448,192,108541,1,0,0:0:0:0:
64,192,108541,1,0,0:0:0:0:
320,192,108713,1,0,0:0:0:0:
448,192,108713,1,8,0:0:0:0:
192,192,108884,1,0,0:0:0:0:
64,192,109055,1,0,0:0:0:0:
448,192,109055,1,4,0:0:0:0:
192,192,109227,1,0,0:0:0:0:
192,192,109398,1,0,0:0:0:0:
448,192,109398,1,8,0:0:0:0:
64,192,109570,1,0,0:0:0:0:
320,192,109570,1,0,0:0:0:0:
192,192,109741,1,0,0:0:0:0:
64,192,109913,1,0,0:0:0:0:
320,192,109913,1,0,0:0:0:0:
192,192,109913,1,0,0:0:0:0:
448,192,109998,1,0,0:0:0:0:
64,192,110084,1,8,0:0:0:0:
192,192,110084,1,0,0:0:0:0:
320,192,110427,128,0,111284:0:0:0:0:
448,192,110427,128,0,111284:0:0:0:0:
64,192,110427,1,0,0:0:0:0:
64,192,111284,1,0,0:0:0:0:
192,192,111455,1,0,0:0:0:0:
320,192,111627,1,0,0:0:0:0:
320,192,111970,1,0,0:0:0:0:
448,192,112313,1,0,0:0:0:0:
320,192,112655,128,0,113170:0:0:0:0:
448,192,113170,1,0,0:0:0:0:
192,192,113513,1,0,0:0:0:0:
320,192,113684,128,0,115055:0:0:0:0:
448,192,115055,1,0,0:0:0:0:
192,192,115141,1,0,0:0:0:0:
64,192,115227,1,0,0:0:0:0:
448,192,115398,1,0,0:0:0:0:
192,192,115570,1,0,0:0:0:0:
448,192,115741,1,0,0:0:0:0:
192,192,115913,128,0,116427:0:0:0:0:
448,192,116427,128,0,117627:0:0:0:0:
320,192,117627,128,0,118141:0:0:0:0:
192,192,118141,1,0,0:0:0:0:
64,192,118398,1,0,0:0:0:0:
320,192,118655,128,0,119170:0:0:0:0:
192,192,119170,128,0,120713:0:0:0:0:
64,192,120713,1,0,0:0:0:0:
192,192,120884,1,0,0:0:0:0:
320,192,121055,1,0,0:0:0:0:
448,192,121227,1,0,0:0:0:0:
448,192,121398,128,0,121913:0:0:0:0:
320,192,121913,128,0,122427:0:0:0:0:
192,192,122427,128,0,123627:0:0:0:0:
448,192,123627,128,0,124141:0:0:0:0:
320,192,124141,128,0,124655:0:0:0:0:
192,192,124655,128,0,126027:0:0:0:0:
64,192,126027,1,0,0:0:0:0:
320,192,126370,128,0,126884:0:0:0:0:
448,192,126884,128,0,127398:0:0:0:0:
320,192,127398,128,0,127913:0:0:0:0:
192,192,127913,128,0,129113:0:0:0:0:
320,192,129113,128,0,129627:0:0:0:0:
192,192,129627,128,0,130141:0:0:0:0:
448,192,129627,128,0,132370:0:0:0:0:
64,192,130141,128,0,130655:2:0:0:0:
192,192,130655,128,0,131855:0:0:0:0:
320,192,131855,128,0,132370:0:0:0:0:
64,192,132370,1,0,0:0:0:0:
