osu file format v14

[General]
AudioFilename: audio.mp3
AudioLeadIn: 0
PreviewTime: 217712
Countdown: 0
SampleSet: Soft
StackLeniency: 0.6
Mode: 0
LetterboxInBreaks: 0
WidescreenStoryboard: 0

[Editor]
DistanceSpacing: 1.2
BeatDivisor: 8
GridSize: 8
TimelineZoom: 1.7

[Metadata]
Title:Othello syndrome
TitleUnicode:Othello syndrome
Artist:sky_delta feat. Aitsuki Nakuru
ArtistUnicode:sky_delta feat. 藍月なくる
Creator:Saggin
Version:Eternity
Source:
Tags:6th album transpain japanese pop jpop j-pop never fc on osu
BeatmapID:2985785
BeatmapSetID:1452076

[Difficulty]
HPDrainRate:5
CircleSize:4.2
OverallDifficulty:8
ApproachRate:9
SliderMultiplier:1.7
SliderTickRate:1

[Events]
//Background and Video events
0,0,"bg.png",0,0
//Break Periods
2,204326,209679
//Storyboard Layer 0 (Background)
//Storyboard Layer 1 (Fail)
//Storyboard Layer 2 (Pass)
//Storyboard Layer 3 (Foreground)
//Storyboard Layer 4 (Overlay)
//Storyboard Sound Samples

[TimingPoints]
889,500,4,2,1,30,1,0
889,-200,4,2,1,30,0,0
12889,375,4,2,1,50,1,0
15139,-200,4,2,1,30,0,0
15889,-200,4,2,1,40,0,0
38764,-500,4,2,1,50,0,0
39793,-500,4,2,1,5,0,0
39889,382.165605095541,4,2,1,50,1,0
39889,-111.111111111111,4,2,1,55,0,0
47723,-111.111111111111,4,2,1,30,0,0
49060,392.156862745098,4,2,1,50,1,0
49060,-133.333333333333,4,2,1,40,0,0
61609,-100,4,2,1,60,0,0
71020,-111.111111111111,4,2,1,40,0,0
75726,384.615384615385,4,2,1,50,1,0
75726,-111.111111111111,4,2,1,50,0,0
88033,-133.333333333333,4,2,1,35,0,0
91399,-133.333333333333,4,2,1,5,0,0
91495,-133.333333333333,4,2,1,35,0,0
94187,-111.111111111111,4,2,1,50,0,0
98802,-500,4,2,1,30,0,0
99572,-133.333333333333,4,2,1,30,0,0
100341,375,4,2,1,70,1,0
100341,-90.9090909090909,4,2,1,70,0,1
103622,-90.9090909090909,4,2,1,5,0,1
103716,-90.9090909090909,4,2,1,70,0,1
112341,-200,4,2,1,70,0,1
112622,-200,4,2,1,5,0,1
112716,-90.9090909090909,4,2,1,70,0,1
115622,-90.9090909090909,4,2,1,5,0,1
115716,-90.9090909090909,4,2,1,70,0,1
118622,-90.9090909090909,4,2,1,5,0,1
118716,-90.9090909090909,4,2,1,70,0,1
120122,-90.9090909090909,4,2,1,5,0,1
120216,-90.9090909090909,4,2,1,70,0,1
124341,382.165605095541,4,2,1,50,1,0
124341,-133.333333333333,4,2,1,40,0,0
130455,387.096774193548,4,2,1,40,1,0
130455,-133.333333333333,4,2,1,40,0,0
133551,392.156862745098,4,2,1,40,1,0
133551,-133.333333333333,4,2,1,40,0,0
142962,-100,4,2,1,60,0,0
152374,-111.111111111111,4,2,1,40,0,0
155511,384.615384615385,4,2,1,50,1,0
155511,-111.111111111111,4,2,1,50,0,0
167818,-133.333333333333,4,2,1,35,0,0
171184,-133.333333333333,4,2,1,5,0,0
171280,-133.333333333333,4,2,1,35,0,0
173972,-111.111111111111,4,2,1,50,0,0
174549,-133.333333333333,4,2,1,50,0,0
180126,375,4,2,1,50,1,1
180126,-100,4,2,1,50,0,1
180407,-100,4,2,1,5,0,1
180501,-100,4,2,1,50,0,1
181344,-100,4,2,1,5,0,1
181438,-100,4,2,1,50,0,1
181532,-100,4,2,1,5,0,1
181626,-100,4,2,1,50,0,1
181907,-100,4,2,1,5,0,1
182001,-100,4,2,1,50,0,1
186407,-100,4,2,1,5,0,1
186501,-100,4,2,1,50,0,1
187344,-100,4,2,1,5,0,1
187438,-100,4,2,1,50,0,1
187532,-100,4,2,1,5,0,1
187626,-100,4,2,1,50,0,1
187907,-100,4,2,1,5,0,1
188001,-100,4,2,1,50,0,1
191282,-100,4,2,1,5,0,1
191376,-100,4,2,1,50,0,1
192126,-133.333333333333,4,2,1,40,0,0
198126,-111.111111111111,4,2,1,40,0,0
201126,-200,4,2,1,40,0,0
204126,384.615384615385,4,2,1,50,1,0
210279,-111.111111111111,4,2,1,50,0,0
213356,-100,4,2,1,50,0,0
213645,-100,4,2,1,5,0,0
213741,-100,4,2,1,50,0,0
214895,-100,4,2,1,65,0,0
217202,-133.333333333333,4,2,1,30,0,0
217972,375,4,2,1,40,1,0
217972,-111.111111111111,4,2,1,40,0,0
223784,-333.333333333333,4,2,1,40,0,0
224347,-76.9230769230769,4,2,1,70,0,1
224909,-90.9090909090909,4,2,1,70,0,1
225753,-90.9090909090909,4,2,1,5,0,1
225847,-90.9090909090909,4,2,1,70,0,1
229972,-200,4,2,1,70,0,1
230253,-200,4,2,1,5,0,1
230347,-90.9090909090909,4,2,1,70,0,1
235503,-90.9090909090909,4,2,1,5,0,1
235597,-90.9090909090909,4,2,1,70,0,1
241972,-133.333333333333,4,2,1,40,0,0
246472,400,4,2,1,30,1,0
247272,480,4,2,1,30,1,0
247752,535.714285714286,4,2,1,30,1,0

[Colours]
Combo1 : 255,170,215
Combo2 : 191,236,255
Combo3 : 254,241,122
Combo4 : 100,189,255

[HitObjects]
441,63,889,6,0,P|430:111|426:159,2,85,2|2|2,0:0|0:0|0:0,0:0:0:0:
245,0,2389,2,0,P|200:13|178:49,1,85,2|2,0:0|0:0,0:0:0:0:
59,218,3389,5,2,0:0:0:0:
29,150,3639,1,2,0:0:0:0:
74,95,3889,2,0,B|148:98|115:147|197:148,3,127.5,2|2|2|2,0:0|0:0|0:0|0:0,0:0:0:0:
424,83,6889,6,0,L|434:36,2,42.5,2|0|2,0:0|0:0|0:0,0:0:0:0:
362,159,7639,2,0,L|352:112,2,42.5,2|0|2,0:0|0:0|0:0,0:0:0:0:
430,203,8389,2,0,L|421:244,1,42.5,2|0,0:0|0:0,0:0:0:0:
359,313,8889,2,0,L|350:271,3,42.5,2|0|2|0,0:0|0:0|0:0|0:0,0:0:0:0:
294,353,9889,6,0,P|261:344|241:344,1,42.5,2|0,0:0|0:0,0:0:0:0:
252,343,10389,1,0,0:0:0:0:
144,353,10639,2,0,P|168:328|178:311,1,42.5,2|0,0:0|0:0,0:0:0:0:
173,322,11139,1,0,0:0:0:0:
224,229,11389,2,0,P|232:262|242:279,1,42.5,2|0,0:0|0:0,0:0:0:0:
236,270,11889,1,0,0:0:0:0:
295,156,12139,5,2,0:0:0:0:
69,62,15139,6,0,P|76:101|78:113,1,42.5,2|0,0:0|0:0,0:0:0:0:
143,133,15514,2,0,P|136:172|134:184,1,42.5,2|0,0:0|0:0,0:0:0:0:
46,299,15889,6,0,B|167:315|129:199|259:229|259:229|233:239|203:274,1,297.5,2|0,0:0|0:0,0:0:0:0:
57,115,17389,6,0,P|64:162|66:207,2,85,2|0|2,0:0|0:0|0:0,0:0:0:0:
161,22,18326,5,2,0:0:0:0:
227,62,18514,1,2,0:0:0:0:
162,102,18701,1,2,0:0:0:0:
262,236,18889,6,0,P|298:227|362:221,1,85,2|0,0:0|0:0,0:0:0:0:
457,145,19451,2,0,P|442:110|458:14,1,127.5,2|0,0:0|0:0,0:0:0:0:
302,148,20201,1,2,0:0:0:0:
460,267,20764,5,2,0:0:0:0:
460,267,21139,2,0,P|417:282|365:295,1,85,2|0,0:0|0:0,0:0:0:0:
238,309,21701,1,2,0:0:0:0:
238,309,21889,2,0,B|341:302|294:376|397:365,1,170,2|0,0:0|0:0,0:0:0:0:
389,365,23014,1,2,0:0:0:0:
255,165,23389,6,0,P|205:180|181:224,1,85,2|0,0:0|0:0,0:0:0:0:
281,149,23951,2,0,P|275:85|277:50,1,85,2|0,0:0|0:0,0:0:0:0:
116,216,24701,5,2,0:0:0:0:
116,216,24889,2,0,P|115:258|121:300,2,85,2|0|0,0:0|0:0|0:0,0:0:0:0:
33,53,26014,2,0,P|62:61|87:62,1,42.5,2|0,0:0|0:0,0:0:0:0:
174,122,26389,2,0,P|152:124|132:131,1,42.5,2|0,0:0|0:0,0:0:0:0:
132,131,26764,1,2,0:0:0:0:
292,19,27139,6,0,P|332:35|385:47,1,85,2|0,0:0|0:0,0:0:0:0:
470,200,27889,6,0,P|460:173|473:109,1,85,2|0,0:0|0:0,0:0:0:0:
467,118,28451,1,2,0:0:0:0:
377,235,28639,2,0,P|346:228|281:221,1,85,2|0,0:0|0:0,0:0:0:0:
293,221,29201,1,2,0:0:0:0:
165,150,29389,6,0,P|134:157|69:164,2,85,2|0|2,0:0|0:0|0:0,0:0:0:0:
255,66,30326,1,2,0:0:0:0:
206,13,30514,1,2,0:0:0:0:
206,13,30889,6,0,P|212:59|216:107,1,85,2|0,0:0|0:0,0:0:0:0:
215,97,31451,1,2,0:0:0:0:
89,206,31639,2,0,P|131:213|176:226,1,85,2|0,0:0|0:0,0:0:0:0:
171,224,32201,1,2,0:0:0:0:
219,326,32389,2,0,P|224:305|233:276,1,42.5,2|0,0:0|0:0,0:0:0:0:
229,284,32764,1,2,0:0:0:0:
346,76,33139,6,0,P|352:115|357:150,2,63.75,2|2|2,0:0|0:0|0:0,0:0:0:0:
266,34,33889,6,0,B|201:34|226:90|134:82,2,127.5,2|0|0,0:0|0:0|0:0,0:0:0:0:
266,34,35201,1,0,0:0:0:0:
341,165,35389,2,0,P|312:170|242:189,1,85,2|0,0:0|0:0,0:0:0:0:
352,147,36139,2,0,P|349:120|351:91,2,42.5,2|0|2,0:0|0:0|0:0,0:0:0:0:
195,235,36889,6,0,P|200:271|211:373,1,127.5,2|0,0:0|0:0,0:0:0:0:
51,264,37639,2,0,P|51:241|101:190,1,85,2|0,0:0|0:0,0:0:0:0:
260,37,38389,5,2,0:0:0:0:
260,37,38764,6,0,P|222:47|162:52,1,93.5
105,17,39889,6,0,P|113:63|115:103,1,76.4999976654053,2|2,0:0|0:0,0:0:0:0:
95,252,40271,1,2,0:0:0:0:
38,199,40462,1,2,0:0:0:0:
178,137,40653,6,0,P|216:150|262:161,1,76.4999976654053,2|2,0:0|0:0,0:0:0:0:
251,158,41035,1,2,0:0:0:0:
328,347,41226,6,0,P|308:306|327:200,1,152.999995330811,2|2,0:0|0:0,0:0:0:0:
383,155,41799,1,2,0:0:0:0:
196,25,41990,2,0,P|203:69|202:118,1,76.4999976654053,2|0,0:0|0:0,0:0:0:0:
383,155,42373,6,0,L|386:187,3,25.4999992218018,2|2|2|2,0:0|0:0|0:0|0:0,0:0:0:0:
88,312,42946,6,0,P|121:318|178:339,1,76.4999976654053,2|2,0:0|0:0,0:0:0:0:
36,249,43328,1,2,0:0:0:0:
214,147,43519,2,0,P|164:159|38:172,1,152.999995330811,2|2,0:0|0:0,0:0:0:0:
236,296,44092,6,0,P|226:251|236:216,1,76.4999976654053,2|2,0:0|0:0,0:0:0:0:
321,56,44474,2,0,B|415:52|363:123|488:113,1,152.999995330811,2|0,0:0|1:0,0:0:0:0:
451,43,45048,1,2,0:0:0:0:
356,280,45239,2,0,P|353:235|333:124,1,152.999995330811,2|0,1:2|1:0,0:0:0:0:
53,62,46003,6,0,P|98:53|157:143,1,152.999995330811,2|0,1:2|1:2,0:0:0:0:
114,189,46576,1,2,0:0:0:0:
241,327,46767,2,0,P|293:318|409:306,1,152.999995330811,2|2,1:2|1:2,0:0:0:0:
392,307,47723,5,2,0:0:0:0:
441,248,47914,1,2,0:0:0:0:
401,182,48105,1,2,0:0:0:0:
325,196,48296,1,2,0:0:0:0:
320,272,48487,1,2,1:2:0:0:
245,289,48678,1,2,0:0:0:0:
201,226,48869,1,2,1:2:0:0:
298,85,49060,6,0,P|287:143|277:227,1,127.500004863739,6|2,1:2|1:2,0:0:0:0:
180,338,49648,1,2,0:0:0:0:
180,338,49844,2,0,P|144:327|101:325,1,63.7500024318696,0|2,1:0|0:0,0:0:0:0:
29,207,50236,2,0,P|60:203|90:193,1,63.7500024318696,0|0,1:2|0:0,0:0:0:0:
107,185,50530,5,2,0:0:0:0:
107,185,50628,2,0,B|179:186|145:234|243:231,1,127.500004863739,2|0,1:2|1:0,0:0:0:0:
209,90,51216,1,2,0:0:0:0:
209,90,51412,2,0,P|215:144|216:174,1,63.7500024318696,2|0,1:2|1:0,0:0:0:0:
300,264,51805,2,0,P|294:318|293:348,1,63.7500024318696,0|2,1:0|1:2,0:0:0:0:
499,199,52197,6,0,P|497:162|417:123,1,127.500004863739,2|2,1:2|1:2,0:0:0:0:
284,34,52785,1,2,0:0:0:0:
284,34,52981,2,0,P|245:48|211:52,1,63.7500024318696,0|2,1:0|0:0,0:0:0:0:
159,139,53373,2,0,P|192:142|221:154,1,63.7500024318696,2|2,1:2|0:0,0:0:0:0:
367,12,53765,6,0,P|361:56|360:86,1,63.7500024318696,2|2,1:2|0:0,0:0:0:0:
458,194,54158,1,2,1:2:0:0:
303,138,54354,6,0,P|307:169|309:201,1,63.7500024318696,2|2,0:0|1:2,0:0:0:0:
251,340,54746,5,2,0:0:0:0:
372,253,54942,1,2,1:2:0:0:
239,187,55138,1,2,0:0:0:0:
362,335,55334,6,0,B|433:339|408:284|498:295,1,127.500004863739,2|0,1:2|1:0,0:0:0:0:
478,293,55922,1,2,0:0:0:0:
378,140,56118,2,0,P|332:148|295:149,1,63.7500024318696,2|2,1:2|0:0,0:0:0:0:
268,276,56510,1,2,1:2:0:0:
322,223,56707,1,2,0:0:0:0:
162,71,56903,6,0,P|169:122|171:151,1,63.7500024318696,2|0,1:2|0:0,0:0:0:0:
337,298,57295,6,0,P|330:349|328:378,1,63.7500024318696,2|0,1:2|0:0,0:0:0:0:
143,214,57687,5,2,1:2:0:0:
177,279,57883,1,0,1:0:0:0:
274,131,58079,2,0,P|309:138|350:144,1,63.7500024318696,2|0,1:2|1:0,0:0:0:0:
246,318,58471,6,0,B|171:317|207:361|117:357,1,127.500004863739,2|0,1:2|1:0,0:0:0:0:
128,357,59060,5,2,0:0:0:0:
19,213,59256,2,0,P|70:220|100:292,1,127.500004863739,2|0,1:2|1:0,0:0:0:0:
224,164,59844,5,2,0:0:0:0:
132,63,60040,2,0,P|142:119|151:213,1,127.500004863739,2|0,1:2|1:0,0:0:0:0:
255,323,60628,5,2,0:0:0:0:
255,323,60726,1,2,0:0:0:0:
255,323,60824,1,2,1:2:0:0:
317,281,61020,1,0,1:0:0:0:
331,209,61216,2,0,P|294:215|257:215,1,63.7500024318696,0|2,1:0|0:0,0:0:0:0:
437,356,61609,6,0,P|426:309|437:266,1,85,6|2,1:2|0:0,0:0:0:0:
344,102,62001,1,10,0:0:0:0:
497,180,62197,2,0,P|444:190|398:208,1,85,2|0,1:2|1:0,0:0:0:0:
275,50,62589,5,2,1:2:0:0:
425,121,62785,1,10,0:0:0:0:
284,217,62981,1,2,1:2:0:0:
362,6,63177,6,0,P|355:60|349:189,1,170,2|8,1:2|0:0,0:0:0:0:
249,319,63765,1,2,1:2:0:0:
138,162,63961,2,0,P|186:174|205:225,1,85,2|0,1:2|1:2,0:0:0:0:
115,348,64354,2,0,P|110:305|98:251,1,85,8|2,0:0|1:2,0:0:0:0:
11,103,64746,5,2,1:2:0:0:
138,162,64942,1,2,1:2:0:0:
24,252,65138,1,10,0:0:0:0:
127,76,65334,5,2,1:2:0:0:
127,76,65432,1,0,1:0:0:0:
127,76,65530,2,0,P|181:90|215:93,1,85,0|2,1:0|1:2,0:0:0:0:
361,179,65922,1,10,0:0:0:0:
214,265,66118,1,2,1:2:0:0:
304,42,66314,6,0,P|294:91|281:222,1,170,2|8,1:2|0:0,0:0:0:0:
209,92,66903,1,2,1:2:0:0:
371,282,67099,2,0,B|286:275|321:351|201:342,1,170,2|8,1:2|0:0,0:0:0:0:
361,358,67687,1,2,0:0:0:0:
185,166,67883,6,0,P|230:179|269:186,1,85,6|2,1:2|0:0,0:0:0:0:
132,314,68275,1,10,0:0:0:0:
190,268,68471,1,2,1:2:0:0:
24,144,68667,6,0,P|32:196|35:245,1,85,2|0,1:2|1:2,0:0:0:0:
208,56,69060,2,0,P|200:108|197:157,1,85,10|0,0:0|1:2,0:0:0:0:
315,12,69452,6,0,P|376:31|406:33,1,85,2|0,1:2|1:0,0:0:0:0:
299,200,69844,2,0,P|257:206|217:220,1,85,10|0,0:0|1:0,0:0:0:0:
378,132,70236,5,2,1:2:0:0:
323,83,70432,1,0,1:2:0:0:
478,13,70628,5,10,0:0:0:0:
478,13,71020,6,0,P|463:66|449:175,1,152.999995330811,6|0,0:0|1:0,0:0:0:0:
510,309,71609,1,2,0:0:0:0:
446,357,71805,2,0,P|403:334|364:333,1,76.4999976654053,2|0,0:0|0:0,0:0:0:0:
304,260,72197,2,0,P|261:283|222:284,1,76.4999976654053,2|0,1:2|0:2,0:2:0:0:
78,364,72589,6,0,P|103:314|72:208,1,152.999995330811,6|0,1:2|1:0,0:0:0:0:
280,32,73373,5,0,1:0:0:0:
280,32,73765,1,0,1:0:0:0:
67,139,74158,6,0,B|159:139|115:204|237:202,2,152.999995330811,0|0|2,1:0|1:0|1:2,0:0:0:0:
239,39,75138,1,2,0:0:0:0:
276,106,75334,1,2,0:0:0:0:
162,14,75530,1,2,0:0:0:0:
280,182,75726,6,0,P|270:239|259:351,1,152.999995330811,6|2,1:2|0:0,0:0:0:0:
94,224,76302,1,2,1:2:0:0:
94,224,76495,2,0,P|101:274|102:314,1,76.4999976654053,0|0,1:0|0:0,0:0:0:0:
237,149,76879,2,0,B|198:162|160:164|161:164,1,76.4999976654053,10|0,0:2|0:0,0:0:0:0:
174,320,77264,6,0,B|171:319|209:321|248:334,1,76.4999976654053,2|0,1:2|0:0,0:0:0:0:
381,204,77649,1,2,0:0:0:0:
353,276,77841,1,2,1:2:0:0:
353,276,78033,2,0,P|319:256|306:213,1,76.4999976654053,0|0,1:0|0:0,0:0:0:0:
471,123,78418,2,0,P|462:172|460:212,1,76.4999976654053,10|2,0:2|0:0,0:0:0:0:
332,46,78802,5,0,1:0:0:0:
396,110,78995,2,0,P|355:119|317:133,1,76.4999976654053
150,58,79379,5,0,1:0:0:0:
227,26,79572,2,0,P|219:63|215:107,1,76.4999976654053,0|0,1:0|0:0,0:0:0:0:
118,264,79956,1,8,0:0:0:0:
106,192,80149,6,0,B|196:191|150:249|255:246,1,152.999995330811
234,171,80726,1,0,0:0:0:0:
118,264,80918,2,0,P|123:307|124:354,1,76.4999976654053,0|0,1:0|1:0,0:0:0:0:
0,216,81302,1,0,0:0:0:0:
137,115,81495,1,8,0:0:0:0:
3,31,81687,1,0,0:0:0:0:
147,195,81879,6,0,P|204:172|207:72,1,152.999995330811,6|2,1:2|0:0,0:0:0:0:
381,25,82456,1,2,1:2:0:0:
381,25,82649,2,0,P|374:74|369:130,1,76.4999976654053,0|0,1:2|0:0,0:0:0:0:
425,232,83033,2,0,P|377:239|329:254,1,76.4999976654053,10|2,0:0|0:0,0:0:0:0:
221,89,83418,6,0,P|258:98|295:103,1,76.4999976654053,0|0,1:0|0:0,0:0:0:0:
158,197,83802,1,2,0:0:0:0:
221,246,83995,1,0,1:0:0:0:
150,122,84187,2,0,P|104:125|54:223,1,152.999995330811,2|10,1:2|0:0,0:0:0:0:
181,315,84764,1,2,0:0:0:0:
105,359,84956,6,0,P|105:306|100:262,1,76.4999976654053,0|0,1:0|0:0,0:0:0:0:
220,142,85341,1,0,0:0:0:0:
264,206,85533,2,0,P|266:244|266:282,1,76.4999976654053,0|0,1:0|1:0,0:0:0:0:
266,356,85918,1,0,0:0:0:0:
341,179,86110,5,8,0:0:0:0:
175,283,86302,1,0,0:0:0:0:
341,368,86495,6,0,B|421:370|390:308|505:313,1,152.999995330811,0|0,1:0|0:0,0:0:0:0:
479,313,87072,1,0,1:0:0:0:
338,161,87264,2,0,P|291:173|257:173,1,76.4999976654053,0|0,1:0|0:0,0:0:0:0:
425,232,87649,1,10,0:0:0:0:
425,232,88033,6,0,P|411:184|439:91,2,127.500004863739,2|0|0,1:2|1:0|1:0,0:0:0:0:
215,59,89187,6,0,P|174:70|135:73,1,63.7500024318696,2|2,1:2|0:0,0:0:0:0:
38,100,89572,2,0,B|114:105|82:149|167:150,1,127.500004863739,0|0,1:0|1:0,0:0:0:0:
307,11,90341,6,0,P|299:49|297:75,1,63.7500024318696,2|2,1:2|0:0,0:0:0:0:
236,130,90726,2,0,P|243:161|245:192,1,63.7500024318696,2|2,1:2|0:0,0:0:0:0:
189,344,91110,6,0,P|224:322|293:324,1,95.6250036478044,2|0,1:2|0:0,0:0:0:0:
294,322,91495,5,2,1:2:0:0:
121,169,91879,5,2,1:2:0:0:
298,36,92264,6,0,P|341:49|426:61,2,127.500004863739,2|0|0,1:2|1:0|1:0,0:0:0:0:
352,258,93418,6,0,P|390:207|435:162,1,127.500004863739,0|0,1:0|1:0,0:0:0:0:
435,162,93995,1,2,0:0:0:0:
234,82,94187,6,0,B|159:82|186:136|83:128,1,152.999995330811,2|2,1:2|1:2,0:0:0:0:
233,241,94764,1,2,0:0:0:0:
233,241,94956,2,0,P|222:194|235:144,1,76.4999976654053,0|0,1:0|0:0,0:0:0:0:
124,316,95341,1,2,1:2:0:0:
95,247,95533,1,2,0:0:0:0:
242,365,95726,6,0,B|328:368|285:309|395:315,1,152.999995330811,4|0,1:2|1:0,0:0:0:0:
232,170,96302,1,2,0:0:0:0:
302,135,96495,1,2,1:2:0:0:
214,291,96687,1,2,0:0:0:0:
120,122,96879,2,0,P|130:82|133:45,1,76.4999976654053,2|0,1:2|0:0,0:0:0:0:
350,199,97264,5,2,1:2:0:0:
137,306,97456,1,0,1:2:0:0:
232,170,97649,1,0,1:2:0:0:
305,310,97841,1,2,1:2:0:0:
108,159,98033,5,10,0:2:0:0:
319,53,98226,1,8,0:2:0:0:
202,249,98418,5,8,0:2:0:0:
93,49,98610,1,8,0:2:0:0:
313,180,98802,6,0,P|345:171|362:169,1,51,2|0,0:0|0:0,0:0:0:0:
441,100,99572,5,2,0:0:0:0:
441,100,99668,1,2,0:0:0:0:
441,100,99764,2,0,L|395:93,1,31.8750012159348,2|2,1:2|0:0,0:0:0:0:
337,41,99956,2,0,L|383:34,3,31.8750012159348,10|2|2|2,0:2|0:0|0:0|0:0,0:0:0:0:
402,171,100341,6,0,P|394:229|381:360,1,187.000005706787,6|8,1:2|0:0,0:0:0:0:
480,207,100903,1,2,0:0:0:0:
301,328,101091,1,2,1:2:0:0:
267,256,101278,1,0,0:0:0:0:
470,331,101466,2,0,P|419:340|371:362,1,93.5000028533936,8|2,0:0|0:0,0:0:0:0:
185,177,101841,6,0,B|286:177|249:103|369:112,1,187.000005706787,6|8,1:2|0:0,0:0:0:0:
327,187,102403,1,2,0:0:0:0:
188,11,102591,2,0,P|196:62|200:109,1,93.5000028533936,2|0,1:2|0:0,0:0:0:0:
115,263,102966,2,0,P|66:247|18:243,1,93.5000028533936,8|2,0:0|0:0,0:0:0:0:
188,11,103341,6,0,P|242:17|283:112,1,140.25000428009,6|0,1:2|0:0,0:0:0:0:
289,101,103716,1,10,0:0:0:0:
161,327,103903,2,0,B|200:289|253:290|253:290|279:326|363:338,1,187.000005706787,2|0,1:2|1:0,0:0:0:0:
452,137,104466,5,10,0:0:0:0:
255,211,104653,1,2,0:0:0:0:
376,35,104841,6,0,P|367:105|366:162,1,93.5000028533936,0|0,1:0|0:0,0:0:0:0:
486,287,105216,1,10,0:0:0:0:
434,227,105403,1,0,0:0:0:0:
325,330,105591,2,0,P|382:338|432:362,1,93.5000028533936,2|0,1:2|0:0,0:0:0:0:
273,136,105966,5,10,0:0:0:0:
156,329,106153,1,2,0:0:0:0:
366,189,106341,6,0,B|293:209|293:209|280:241|280:241|196:267,1,187.000005706787,6|8,1:2|0:0,0:0:0:0:
71,118,106903,1,0,0:0:0:0:
125,62,107091,2,0,P|175:72|197:124,1,93.5000028533936,0|0,1:0|0:0,0:0:0:0:
52,282,107466,2,0,P|46:225|38:187,1,93.5000028533936,10|0,0:0|0:0,0:0:0:0:
254,51,107841,6,0,B|279:9|343:18|343:18|366:53|439:56,1,187.000005706787,6|10,1:2|0:0,0:0:0:0:
332,258,108403,2,0,P|277:244|222:239,1,93.5000028533936,2|0,0:0|1:0,0:0:0:0:
432,127,108778,2,0,P|417:177|413:224,1,93.5000028533936,2|8,0:0|0:0,0:0:0:0:
354,102,109153,1,2,0:0:0:0:
492,284,109341,6,0,B|395:283|438:356|307:353,1,187.000005706787,4|8,1:2|0:0,0:0:0:0:
199,196,109903,1,0,0:0:0:0:
107,358,110091,2,0,P|158:342|215:341,1,93.5000028533936,0|0,1:0|0:0,0:0:0:0:
0,230,110466,5,10,0:0:0:0:
197,114,110653,1,2,0:0:0:0:
50,299,110841,6,0,P|75:252|41:120,1,187.000005706787,4|8,1:2|0:0,0:0:0:0:
222,33,111403,1,0,0:0:0:0:
161,182,111591,2,0,P|154:127|132:36,2,140.25000428009,2|0|0,1:2|1:0|1:0,0:0:0:0:
272,336,112341,6,0,P|281:304|311:283,1,63.75,2|0,1:2|0:0,0:0:0:0:
348,341,112716,6,0,B|248:338|307:258|165:275,1,187.000005706787,6|2,0:2|1:2,0:0:0:0:
386,149,113278,1,0,0:0:0:0:
202,32,113466,1,10,0:2:0:0:
249,101,113653,1,2,0:0:0:0:
360,3,113841,6,0,P|407:18|458:23,1,93.5000028533936,0|0,1:0|0:0,0:0:0:0:
310,187,114216,2,0,P|299:138|278:92,1,93.5000028533936,8|0,0:0|0:0,0:0:0:0:
495,233,114591,5,2,1:2:0:0:
330,345,114778,1,2,0:0:0:0:
421,179,114966,2,0,P|414:240|413:292,1,93.5000028533936,10|0,0:0|0:0,0:0:0:0:
211,358,115341,6,0,B|186:322|147:325|147:325|110:366|52:347,1,140.25000428009,4|0,1:2|0:0,0:0:0:0:
74,349,115716,1,10,0:0:0:0:
221,132,115903,2,0,P|277:125|331:234,1,187.000005706787,2|0,0:0|0:0,0:0:0:0:
149,114,116466,5,10,0:0:0:0:
321,12,116653,1,2,0:0:0:0:
244,225,116841,6,0,P|190:215|133:213,1,93.5000028533936,4|0,1:2|0:0,0:0:0:0:
321,12,117216,2,0,P|367:8|413:0,1,93.5000028533936,8|0,0:0|0:0,0:0:0:0:
303,186,117591,6,0,P|321:129|303:85,1,93.5000028533936,2|0,0:0|0:0,0:0:0:0:
304,89,117872,1,2,0:0:0:0:
304,89,117966,1,8,0:0:0:0:
240,42,118153,1,2,0:0:0:0:
371,230,118341,6,0,B|300:227|331:292|223:285,1,140.25000428009,6|0,1:2|0:0,0:0:0:0:
228,286,118716,1,0,0:0:0:0:
37,143,118903,2,0,P|47:217|55:335,1,187.000005706787,2|0,0:0|0:0,0:0:0:0:
198,159,119466,1,10,0:0:0:0:
25,61,119653,1,2,0:0:0:0:
179,234,119841,6,0,P|220:235|267:149,1,140.25000428009,0|0,1:0|0:0,0:0:0:0:
287,147,120216,2,0,P|277:90|275:39,1,93.5000028533936,8|0,0:0|0:0,0:0:0:0:
389,217,120591,5,2,1:2:0:0:
427,149,120778,1,2,0:0:0:0:
256,276,120966,2,0,P|304:283|363:307,1,93.5000028533936,8|0,0:0|0:0,0:0:0:0:
204,45,121341,6,0,B|104:41|157:114|30:116,1,187.000005706787,4|8,1:2|0:0,0:0:0:0:
217,212,121903,1,2,0:0:0:0:
148,268,122091,2,0,P|143:209|129:159,1,93.5000028533936,0|0,1:0|0:0,0:0:0:0:
228,338,122466,5,10,0:0:0:0:
59,223,122653,1,2,0:0:0:0:
244,129,122841,6,0,P|296:141|336:143,1,93.5000028533936,4|0,1:2|1:0,0:0:0:0:
356,322,123216,2,0,P|307:299|296:247,1,93.5000028533936,10|0,0:0|0:0,0:0:0:0:
437,120,123591,1,2,1:2:0:0:
481,181,123778,1,0,1:0:0:0:
448,248,123966,5,10,0:0:0:0:
189,49,124341,5,2,0:0:0:0:
129,58,128926,6,0,P|138:109|148:209,1,127.500004863739,4|0,1:2|1:0,0:0:0:0:
72,295,129500,2,0,L|77:335,3,21.2500008106232,8|8|8|8,0:0|0:0|0:0|0:0,0:0:0:0:
138,352,129882,5,0,1:0:0:0:
208,313,130073,1,0,1:0:0:0:
343,220,130264,5,2,0:0:0:0:
291,159,130455,2,0,B|240:171|240:171|228:191|228:191|161:205,1,127.500004863739,6|2,1:2|1:2,0:0:0:0:
291,314,131035,1,2,0:0:0:0:
291,314,131229,2,0,P|335:321|373:336,1,63.7500024318696,0|2,1:0|0:0,0:0:0:0:
468,243,131616,2,0,P|458:205|470:171,1,63.7500024318696,2|2,1:2|0:0,0:0:0:0:
472,170,131906,5,2,0:0:0:0:
472,170,132003,2,0,B|425:182|342:195|342:194,1,127.500004863739,2|0,1:2|1:0,0:0:0:0:
222,119,132584,1,2,0:0:0:0:
275,231,132777,2,0,P|280:175|287:149,1,63.7500024318696,2|0,1:2|0:0,0:0:0:0:
365,87,133164,2,0,P|360:31|353:5,1,63.7500024318696,0|2,1:2|0:0,0:0:0:0:
218,124,133551,6,0,B|146:124|183:71|79:77,1,127.500004863739,6|2,1:2|1:2,0:0:0:0:
24,190,134139,1,2,0:0:0:0:
24,190,134335,2,0,P|66:178|88:149,1,63.7500024318696,0|2,1:0|0:0,0:0:0:0:
8,49,134727,2,0,P|17:97|20:125,1,63.7500024318696,2|2,1:2|0:0,0:0:0:0:
173,220,135119,6,0,P|117:235|85:240,1,63.7500024318696,0|0,1:0|0:0,0:0:0:0:
244,285,135511,1,0,1:0:0:0:
114,343,135707,6,0,P|145:349|175:359,1,63.7500024318696,0|0,0:0|1:0,0:0:0:0:
329,249,136100,5,2,0:0:0:0:
247,376,136296,1,2,1:2:0:0:
182,237,136492,1,2,0:0:0:0:
344,357,136688,6,0,P|396:344|499:331,1,127.500004863739,6|0,1:2|1:0,0:0:0:0:
469,333,137276,1,2,0:0:0:0:
317,217,137472,2,0,P|327:176|316:144,1,63.7500024318696,2|2,1:2|0:0,0:0:0:0:
452,82,137864,1,2,1:2:0:0:
405,144,138060,1,2,0:0:0:0:
288,24,138256,6,0,P|248:34|220:37,1,63.7500024318696,2|0,1:2|0:0,0:0:0:0:
143,213,138649,6,0,P|174:217|205:225,1,63.7500024318696,2|0,1:2|0:0,0:0:0:0:
69,73,139041,5,2,1:2:0:0:
123,122,139237,1,0,0:0:0:0:
48,232,139433,2,0,P|46:199|38:163,1,63.7500024318696,2|0,1:2|0:0,0:0:0:0:
219,15,139825,6,0,P|266:17|306:105,1,127.500004863739,2|0,1:2|1:0,0:0:0:0:
309,78,140413,5,2,0:0:0:0:
419,206,140609,2,0,P|413:269|412:347,1,127.500004863739,2|0,1:2|1:0,0:0:0:0:
496,196,141198,5,2,0:0:0:0:
336,350,141394,2,0,B|276:348|306:304|210:303,1,127.500004863739,2|0,1:2|1:2,0:0:0:0:
151,162,141982,1,2,0:0:0:0:
151,162,142080,1,2,0:0:0:0:
151,162,142178,2,0,P|197:178|226:183,1,63.7500024318696,2|0,1:2|0:0,0:0:0:0:
116,305,142570,2,0,P|110:265|95:230,1,63.7500024318696,0|0,1:2|0:0,0:0:0:0:
291,63,142962,6,0,P|282:115|282:152,1,85,6|2,1:2|0:0,0:0:0:0:
222,22,143354,1,10,0:0:0:0:
346,210,143551,2,0,B|305:216|263:234,1,85,2|0,1:2|1:0,0:0:0:0:
401,146,143943,5,2,1:2:0:0:
313,296,144139,1,10,0:0:0:0:
222,145,144335,1,2,1:2:0:0:
389,341,144531,6,0,P|441:336|461:212,1,170,2|8,1:2|0:0,0:0:0:0:
370,79,145119,1,2,1:2:0:0:
281,225,145315,2,0,P|338:230|378:245,1,85,2|0,1:2|1:2,0:0:0:0:
309,32,145707,2,0,P|268:43|225:45,1,85,8|2,0:2|1:2,0:0:0:0:
116,211,146100,5,2,1:2:0:0:
255,125,146296,1,2,1:2:0:0:
109,49,146492,1,10,0:0:0:0:
257,210,146688,5,2,1:2:0:0:
257,210,146786,1,0,1:2:0:0:
257,210,146884,2,0,P|247:260|243:310,1,85,0|2,1:2|1:2,0:0:0:0:
338,165,147276,1,10,0:0:0:0:
167,258,147472,1,2,1:2:0:0:
322,345,147668,6,0,B|418:349|374:273|506:287,1,170,2|8,1:2|0:0,0:0:0:0:
457,358,148256,1,2,1:2:0:0:
316,101,148452,2,0,P|325:150|337:296,1,170,2|8,1:2|0:0,0:0:0:0:
403,110,149041,1,2,1:2:0:0:
249,299,149237,6,0,P|199:290|161:290,1,85,6|2,1:2|0:0,0:0:0:0:
47,137,149629,1,10,0:0:0:0:
113,181,149825,1,2,0:0:0:0:
16,302,150021,6,0,B|14:251|3:201|4:201,1,85,2|0,1:2|1:2,0:0:0:0:
204,81,150413,2,0,B|207:64|196:114|194:165,1,85,10|0,0:2|0:0,0:0:0:0:
118,21,150805,6,0,P|72:32|26:36,1,85,2|0,1:2|1:2,0:0:0:0:
141,224,151198,2,0,P|183:228|224:238,1,85,10|0,0:2|1:2,0:0:0:0:
363,106,151590,5,2,1:2:0:0:
307,160,151786,1,0,1:0:0:0:
414,291,151982,5,10,0:0:0:0:
414,291,152374,6,0,B|338:286|372:350|262:341,1,152.999995330811,6|0,1:2|1:0,0:0:0:0:
124,267,152962,1,2,0:0:0:0:
190,351,153158,2,0,P|198:295|209:262,1,76.4999976654053,2|0,0:0|0:0,0:0:0:0:
282,207,153551,2,0,P|272:170|268:132,1,76.4999976654053,2|0,0:0|0:0,0:0:0:0:
90,34,153943,5,2,0:0:0:0:
72,108,154139,1,0,0:0:0:0:
138,146,154335,1,0,0:0:0:0:
195,95,154531,1,0,0:0:0:0:
171,23,154727,1,8,0:0:0:0:
41,229,155119,5,2,0:0:0:0:
41,229,155511,6,0,P|96:225|136:137,1,152.999995330811,6|2,1:2|0:0,0:0:0:0:
291,36,156087,2,0,P|280:101|278:212,1,152.999995330811,10|0,0:2|1:0,0:0:0:0:
154,300,156664,2,0,P|149:253|139:218,1,76.4999976654053,10|2,0:0|1:2,0:0:0:0:
267,342,157049,6,0,P|308:332|357:327,1,76.4999976654053,2|0,1:2|1:0,0:0:0:0:
341,327,157434,1,2,0:0:0:0:
455,187,157626,1,10,0:0:0:0:
455,187,157818,2,0,P|417:182|380:172,1,76.4999976654053,0|0,1:2|1:0,0:0:0:0:
484,342,158203,2,0,P|470:297|479:261,1,76.4999976654053,10|2,0:0|0:0,0:0:0:0:
335,105,158587,5,0,1:0:0:0:
272,156,158780,2,0,P|277:200|279:252,1,76.4999976654053
128,117,159164,5,8,0:0:0:0:
177,58,159357,2,0,P|225:70|260:71,1,76.4999976654053,0|0,0:0|1:0,0:0:0:0:
311,28,159741,1,8,0:0:0:0:
159,187,159934,6,0,P|168:241|167:291,1,76.4999976654053,0|0,0:0|1:0,0:0:0:0:
131,338,160318,1,0,0:0:0:0:
85,275,160511,1,0,1:0:0:0:
211,354,160703,2,0,B|301:351|248:299|351:298,1,152.999995330811,8|2,0:0|0:0,0:0:0:0:
489,187,161280,1,10,0:0:0:0:
333,107,161472,1,2,0:0:0:0:
399,240,161664,6,0,P|406:176|425:57,1,152.999995330811,6|2,1:2|1:2,0:0:0:0:
216,9,162241,2,0,P|164:1|103:90,1,152.999995330811,10|0,0:0|1:0,0:0:0:0:
201,173,162818,2,0,P|153:179|110:190,1,76.4999976654053,10|2,0:0|0:0,0:0:0:0:
284,41,163203,6,0,P|275:92|273:134,1,76.4999976654053,0|0,1:0|1:0,0:0:0:0:
374,257,163587,1,2,0:0:0:0:
325,194,163780,1,8,0:0:0:0:
230,317,163972,2,0,P|280:323|381:351,1,152.999995330811,2|10,1:2|0:0,0:0:0:0:
512,243,164549,1,2,0:0:0:0:
434,206,164741,6,0,P|440:259|441:295,1,76.4999976654053,0|0,1:0|0:0,0:0:0:0:
351,181,165126,1,0,0:0:0:0:
490,79,165318,2,0,P|446:91|408:95,1,76.4999976654053,8|0,0:0|1:0,0:0:0:0:
297,0,165703,1,0,0:0:0:0:
244,143,165895,5,8,0:0:0:0:
384,23,166087,1,0,0:0:0:0:
236,155,166280,6,0,B|146:154|198:94|85:98,1,152.999995330811,2|0,1:2|1:0,0:0:0:0:
6,235,166857,2,0,L|3:210,2,25.4999992218018,8|8|8,0:0|0:0|0:0,0:0:0:0:
19,241,167049,6,0,P|24:286|26:335,1,76.4999976654053,0|0,1:0|1:0,0:0:0:0:
155,204,167434,1,8,0:0:0:0:
155,204,167818,6,0,P|200:194|293:187,2,127.500004863739,6|0|0,1:2|1:0|1:0,0:0:0:0:
265,29,168972,6,0,P|311:41|342:44,1,63.7500024318696,2|2,1:2|0:0,0:0:0:0:
398,40,169357,2,0,P|349:45|317:131,1,127.500004863739,0|0,1:0|1:0,0:0:0:0:
457,193,170126,6,0,P|451:234|450:272,1,63.7500024318696,2|2,1:2|0:0,0:0:0:0:
371,287,170511,2,0,P|377:328|378:366,1,63.7500024318696,2|2,1:2|0:0,0:0:0:0:
328,219,170895,6,0,P|276:226|219:254,1,95.6250036478044,2|0,1:2|0:0,0:0:0:0:
216,253,171280,5,2,1:2:0:0:
38,122,171664,5,2,1:2:0:0:
222,6,172049,6,0,P|218:49|215:150,2,127.500004863739,2|0|0,1:2|1:0|1:0,0:0:0:0:
24,135,173203,6,0,B|115:133|52:194|166:186|165:186,1,127.500004863739,0|0,1:2|1:0,0:0:0:0:
136,184,173780,1,2,0:0:0:0:
242,341,173972,6,0,B|277:308|319:312|319:312|359:345|407:333,1,152.999995330811,6|2,1:2|0:0,0:0:0:0:
512,248,174549,2,0,P|506:202|422:171,1,127.500004863739,2|0,0:0|0:0,0:0:0:0:
370,216,175126,1,2,0:0:0:0:
370,216,175318,1,2,0:0:0:0:
239,98,175511,6,0,B|342:107|309:19|430:49,1,191.250007295609,0|2,1:0|0:0,0:0:0:0:
479,8,176280,2,0,P|490:48|478:82,1,63.7500024318696,0|2,0:0|0:0,0:0:0:0:
431,125,176664,1,2,0:0:0:0:
431,125,176857,1,2,0:0:0:0:
264,220,177049,6,0,P|274:277|284:375,1,127.500004863739,2|0,1:2|0:0,0:0:0:0:
281,346,177626,1,2,0:0:0:0:
446,205,177818,6,0,P|436:262|426:360,1,127.500004863739,2|0,1:2|0:0,0:0:0:0:
426,352,178299,1,2,0:0:0:0:
426,352,178395,1,2,0:0:0:0:
279,187,178587,5,2,1:2:0:0:
340,140,178780,1,0,1:2:0:0:
267,278,178972,1,0,1:2:0:0:
186,135,179164,1,0,1:2:0:0:
379,232,179357,5,8,0:0:0:0:
171,325,179549,1,8,0:0:0:0:
403,223,179741,1,8,0:0:0:0:
186,135,179934,1,8,0:0:0:0:
291,354,180126,6,0,P|294:300|307:197,1,127.5,6|0,1:2|0:0,0:0:0:0:
309,213,180501,2,0,B|207:203|247:274|126:262,1,170,8|0,0:0|1:0,0:0:0:0:
44,128,181063,1,0,1:0:0:0:
123,104,181251,6,0,L|120:147,1,42.5,10|0,0:0|0:0,0:0:0:0:
0,236,181438,2,0,L|3:191,1,42.5,2|0,1:2|0:0,0:0:0:0:
181,49,181626,6,0,P|230:52|271:133,1,127.5,0|0,1:0|0:0,0:0:0:0:
274,142,182001,2,0,P|223:149|178:159,1,85,10|0,0:0|1:0,0:0:0:0:
24,33,182376,6,0,P|33:74|38:116,1,85,2|0,1:2|1:0,0:0:0:0:
190,155,182751,2,0,P|179:200|174:242,1,85,10|0,0:2|0:0,0:0:0:0:
0,331,183126,6,0,B|37:293|76:295|76:295|101:333|175:336,1,170,6|8,1:2|0:0,0:0:0:0:
284,245,183688,1,2,0:0:0:0:
284,245,183876,2,0,P|300:198|284:155,1,85,0|0,1:0|1:0,0:0:0:0:
176,52,184251,1,8,0:0:0:0:
152,130,184438,5,0,1:0:0:0:
152,130,184532,1,0,1:0:0:0:
152,130,184626,2,0,B|241:142|219:71|319:84,1,170,2|8,1:2|0:0,0:0:0:0:
444,195,185188,5,0,1:0:0:0:
453,180,185282,1,0,1:0:0:0:
452,162,185376,1,0,1:0:0:0:
405,100,185563,1,0,1:0:0:0:
332,259,185751,2,0,P|386:264|435:277,1,85,10|0,0:0|1:0,0:0:0:0:
240,48,186126,6,0,P|191:55|145:141,1,127.5,2|0,1:2|0:0,0:0:0:0:
126,130,186501,2,0,P|133:197|136:315,1,170,8|0,0:0|1:0,0:0:0:0:
280,174,187063,1,0,1:0:0:0:
336,122,187251,6,0,L|333:79,1,42.5,10|0,0:0|0:0,0:0:0:0:
207,185,187438,2,0,L|209:227,1,42.5,2|0,0:0|0:0,0:0:0:0:
384,303,187626,6,0,B|335:314|335:314|315:337|315:337|242:353,1,127.5,4|2,1:2|0:0,0:0:0:0:
252,355,188001,2,0,P|208:344|145:337,1,85,10|0,0:0|1:0,0:0:0:0:
50,144,188376,2,0,P|92:150|133:160,1,85,2|0,1:2|1:0,0:0:0:0:
27,348,188751,2,0,P|15:306|0:267,1,85,10|0,0:2|1:0,0:0:0:0:
223,99,189126,6,0,P|214:147|213:185,1,85,6|0,0:2|1:0,0:0:0:0:
148,50,189501,1,8,0:0:0:0:
265,237,189688,2,0,B|360:244|323:167|427:181,1,170,2|0,0:0|1:0,0:0:0:0:
491,26,190251,2,0,P|437:20|405:12,1,85,10|0,0:0|1:0,0:0:0:0:
285,160,190626,5,6,1:2:0:0:
343,112,190813,1,0,1:0:0:0:
171,11,191001,1,8,0:0:0:0:
276,83,191188,6,0,L|280:19,1,42.5,2|0,0:0|0:0,0:0:0:0:
103,157,191376,2,0,P|101:226|97:300,2,127.5,2|0|0,1:2|1:0|1:0,0:0:0:0:
254,328,192126,6,0,P|219:326|185:309,1,63.7500024318696,2|0,1:2|0:0,0:0:0:0:
207,239,192501,2,0,P|238:240|268:252,1,63.7500024318696,12|0,0:2|0:0,0:0:0:0:
443,296,192876,6,0,P|478:294|512:277,1,63.7500024318696,2|0,1:2|1:0,0:0:0:0:
490,207,193251,2,0,P|458:208|428:220,1,63.7500024318696,8|0,0:2|0:0,0:0:0:0:
280,72,193626,6,0,P|279:120|294:141,1,63.7500024318696,2|0,1:2|0:0,0:0:0:0:
366,123,194001,2,0,P|367:75|352:54,1,63.7500024318696,8|0,0:0|0:0,0:0:0:0:
212,211,194376,6,0,P|200:240|205:271,1,63.7500024318696,2|0,1:2|1:0,0:0:0:0:
285,280,194751,2,0,P|296:250|291:219,1,63.7500024318696,8|0,0:2|0:0,0:0:0:0:
118,33,195126,6,0,P|86:34|56:46,1,63.7500024318696,2|0,1:2|0:0,0:0:0:0:
71,122,195501,2,0,P|106:120|140:103,1,63.7500024318696,10|0,0:2|1:0,0:0:0:0:
287,22,195876,6,0,P|318:23|348:35,1,63.7500024318696,2|0,1:2|1:0,0:0:0:0:
333,110,196251,2,0,P|301:108|271:96,1,63.7500024318696,8|0,0:2|1:0,0:0:0:0:
89,243,196626,6,0,P|88:291|103:312,1,63.7500024318696,2|0,1:2|1:0,0:0:0:0:
175,294,197001,2,0,P|176:246|161:225,1,63.7500024318696,8|0,0:0|0:0,0:0:0:0:
183,64,197376,5,2,1:2:0:0:
257,88,197563,1,0,1:0:0:0:
322,173,197751,5,8,0:0:0:0:
396,149,197938,1,0,1:0:0:0:
475,32,198126,6,0,P|467:86|465:130,1,76.4999976654053,2|0,1:2|1:0,0:0:0:0:
331,248,198501,2,0,P|327:209|321:172,1,76.4999976654053,10|0,0:0|0:0,0:0:0:0:
483,263,198876,6,0,P|435:270|398:279,1,76.4999976654053,2|0,1:2|1:2,0:0:0:0:
312,86,199251,2,0,P|349:94|387:99,1,76.4999976654053,10|0,0:2|0:2,0:0:0:0:
251,287,199626,6,0,P|213:278|175:273,1,76.4999976654053,2|0,1:2|0:2,0:0:0:0:
82,121,200001,2,0,P|119:115|157:107,1,76.4999976654053,10|0,0:2|1:2,0:0:0:0:
53,264,200376,5,2,1:2:0:0:
33,190,200563,1,2,0:0:0:0:
175,273,200751,5,10,0:0:0:0:
155,347,200938,1,2,0:0:0:0:
127,197,201126,6,0,B|247:213|198:111|323:128|323:128|280:145|252:181,1,297.5,6|0,1:2|0:0,0:0:0:0:
181,60,202626,6,0,P|93:57|43:199,1,255,2|2,0:0|0:0,0:0:0:0:
252,348,204126,5,2,0:0:0:0:
405,230,210279,6,0,B|316:233|360:176|243:186,1,152.999995330811,6|2,1:2|1:2,0:0:0:0:
188,30,210856,1,2,0:0:0:0:
188,30,211049,2,0,P|232:42|263:45,1,76.4999976654053,0|0,1:0|0:0,0:0:0:0:
157,168,211433,1,2,1:2:0:0:
132,97,211626,1,2,0:0:0:0:
274,207,211818,6,0,P|265:269|257:380,1,152.999995330811,4|0,1:2|1:0,0:0:0:0:
112,232,212395,1,2,0:0:0:0:
112,232,212587,2,0,P|118:282|121:318,1,76.4999976654053,0|2,1:2|0:0,0:0:0:0:
60,354,212972,1,2,1:2:0:0:
195,259,213164,1,2,0:0:0:0:
9,157,213356,6,0,B|81:162|61:107|152:113,1,127.5,6|0,1:2|0:0,0:0:0:0:
181,160,213741,2,0,P|152:116|183:8,1,170,0|0,1:0|1:0,0:0:0:0:
181,9,214318,1,0,0:0:0:0:
296,118,214510,5,2,1:2:0:0:
410,13,214702,1,2,0:0:0:0:
296,118,214895,5,0,1:2:0:0:
408,241,215087,1,0,1:2:0:0:
223,157,215279,1,0,1:2:0:0:
401,88,215472,1,0,1:2:0:0:
270,269,215664,5,8,0:0:0:0:
156,60,215856,1,8,0:0:0:0:
393,179,216049,5,8,0:0:0:0:
162,324,216241,1,8,0:0:0:0:
289,64,216433,5,2,0:0:0:0:
289,64,217202,6,0,L|295:20,3,31.8750012159348,2|2|2|2,0:0|0:0|0:0|0:0,0:0:0:0:
228,135,217587,2,0,L|223:104,3,31.8750012159348,2|2|2|2,0:0|0:0|0:0|0:0,0:0:0:0:
284,194,217972,6,0,B|199:201|235:138|131:145,1,152.999995330811,6|0,1:2|0:0,0:0:0:0:
26,247,218534,1,2,0:0:0:0:
96,296,218722,2,0,P|102:248|107:220,1,76.4999976654053,2|0,1:2|0:0,0:0:0:0:
38,153,219097,2,0,P|32:105|27:77,1,76.4999976654053,8|2,0:2|0:0,0:0:0:0:
210,11,219472,6,0,P|267:3|316:98,1,152.999995330811,6|0,1:2|1:2,1:2:0:0:
411,177,220034,2,0,L|431:162,2,25.4999992218018,8|8|0,0:0|0:0|1:0,0:0:0:0:
404,190,220222,2,0,P|346:197|271:218,2,114.749996498108,0|0|2,0:0|1:0|1:2,0:0:0:0:
299,326,220972,6,0,P|257:319|135:303,1,152.999995330811,2|2,1:2|1:2,0:2:0:0:
85,341,221534,1,2,0:0:0:0:
14,177,221722,6,0,B|97:186|63:122|183:131,1,152.999995330811,0|8,1:2|0:0,0:0:0:0:
257,34,222284,1,8,0:0:0:0:
257,34,222378,1,8,0:0:0:0:
257,34,222472,2,0,P|250:78|249:115,1,76.4999976654053
377,216,222847,5,2,1:2:0:0:
325,160,223034,1,0,1:2:0:0:
231,293,223222,2,0,P|185:280|146:280,1,76.4999976654053,2|0,1:2|1:0,0:0:0:0:
55,215,223597,1,10,0:0:0:0:
69,351,223784,6,0,P|74:324|82:283,1,63.7499980545045,2|0,0:0|0:0,0:0:0:0:
91,275,224347,6,0,B|126:222|195:236|195:236|226:277|290:273,1,220.999989883423,12|0,0:0|1:0,0:0:0:0:
461,184,224909,1,0,0:0:0:0:
395,345,225097,2,0,P|387:287|379:249,1,93.5000028533936,10|0,0:0|0:0,0:0:0:0:
262,43,225472,6,0,P|277:90|367:112,1,140.25000428009,6|0,1:2|0:0,0:0:0:0:
373,109,225847,1,10,0:0:0:0:
244,273,226034,2,0,P|237:220|225:173,1,93.5000028533936,2|0,0:0|1:0,0:0:0:0:
352,29,226409,2,0,P|407:41|448:43,1,93.5000028533936,2|8,0:0|0:0,0:0:0:0:
290,130,226784,1,2,0:0:0:0:
478,263,226972,6,0,B|375:259|428:337|301:324,1,187.000005706787,6|8,1:2|0:0,0:0:0:0:
117,230,227534,1,0,0:0:0:0:
201,365,227722,2,0,P|209:304|219:253,1,93.5000028533936,0|0,1:0|0:0,0:0:0:0:
110,93,228097,5,10,0:0:0:0:
304,217,228284,1,2,0:0:0:0:
101,328,228472,6,0,P|45:318|-3:313,1,93.5000028533936,0|0,1:2|0:0,0:0:0:0:
188,125,228847,2,0,P|234:130|280:139,1,93.5000028533936,8|0,0:2|0:0,0:0:0:0:
120,249,229222,6,0,P|116:195|94:88,2,140.25000428009,0|0|0,1:0|1:0|1:0,0:0:0:0:
262,346,229972,6,0,P|292:333|333:326,1,63.75,2|0,0:0|0:0,0:0:0:0:
393,340,230347,6,0,B|328:329|328:329|307:295|307:295|220:281,1,187.000005706787,14|0,0:2|1:0,0:0:0:0:
377,130,230909,1,0,0:0:0:0:
461,296,231097,1,10,0:0:0:0:
400,247,231284,1,2,0:0:0:0:
512,100,231472,6,0,P|503:159|499:203,1,93.5000028533936,0|0,1:0|0:0,0:0:0:0:
321,360,231847,2,0,P|316:313|308:267,1,93.5000028533936,8|0,0:0|0:0,0:0:0:0:
209,117,232222,5,2,1:2:0:0:
400,247,232409,1,2,0:0:0:0:
308,41,232597,2,0,P|298:92|292:142,1,93.5000028533936,10|0,0:0|0:0,0:0:0:0:
186,324,232972,6,0,B|81:327|136:248|0:265,1,187.000005706787,6|10,1:2|0:0,0:0:0:0:
48,338,233534,1,2,0:0:0:0:
186,160,233722,2,0,P|179:215|177:259,1,93.5000028533936,0|0,1:0|0:0,0:0:0:0:
4,124,234097,5,10,0:0:0:0:
219,30,234284,1,2,0:0:0:0:
88,228,234472,6,0,P|90:181|96:135,1,93.5000028533936,0|0,1:0|0:0,0:0:0:0:
307,23,234847,2,0,P|300:69|298:115,1,93.5000028533936,8|0,0:0|0:0,0:0:0:0:
396,327,235222,6,0,P|378:276|285:258,1,140.25000428009,2|0,1:2|0:0,0:0:0:0:
287,243,235597,2,0,P|233:256|190:258,1,93.5000028533936,10|0,0:0|0:0,0:0:0:0:
307,23,235972,6,0,B|411:22|367:103|475:97,1,187.000005706787,2|8,1:2|0:0,0:0:0:0:
454,23,236534,1,2,0:0:0:0:
287,152,236722,2,0,P|294:212|294:269,1,93.5000028533936,0|0,1:2|0:0,0:0:0:0:
208,72,237097,5,10,0:0:0:0:
395,187,237284,1,2,0:0:0:0:
194,312,237472,6,0,B|164:270|112:269|112:269|88:302|25:311,1,187.000005706787,0|10,1:2|0:0,0:0:0:0:
200,153,238034,1,0,0:0:0:0:
123,105,238222,2,0,P|128:170|127:220,1,93.5000028533936,2|0,1:2|0:0,0:0:0:0:
282,360,238597,2,0,P|282:313|286:266,1,93.5000028533936,10|2,0:2|0:0,0:0:0:0:
197,69,238972,5,8,0:0:0:0:
398,205,239159,1,0,1:0:0:0:
172,317,239347,5,8,0:0:0:0:
308,133,239534,1,0,1:0:0:0:
434,312,239722,5,8,0:0:0:0:
234,167,239909,1,0,1:0:0:0:
441,40,240097,5,8,0:0:0:0:
299,213,240284,1,0,1:0:0:0:
174,31,240472,6,0,P|124:44|75:49,1,93.5000028533936,8|0,0:0|1:0,0:0:0:0:
0,292,240847,5,8,0:0:0:0:
234,167,241034,1,0,1:0:0:0:
4,31,241222,5,8,0:0:0:0:
114,242,241409,2,0,L|109:293,2,31.1666676177979,2|2|2,1:2|0:0|0:0,0:0:0:0:
116,227,241597,6,0,P|162:232|207:244,1,93.5000028533936,8|0,0:0|1:0,0:0:0:0:
334,96,241972,5,2,1:2:0:0:
365,163,242159,1,2,0:0:0:0:
321,221,242347,1,2,2:0:0:0:
228,60,242534,6,0,B|296:59|270:13|369:25,1,127.500004863739,6|2,1:2|1:2,0:0:0:0:
451,136,243097,5,2,0:0:0:0:
501,82,243284,1,2,0:0:0:0:
334,96,243472,6,0,P|338:151|343:247,1,127.500004863739,6|0,1:2|1:0,0:0:0:0:
189,340,244034,1,2,0:0:0:0:
228,277,244222,2,0,P|285:282|319:356,1,127.500004863739,10|0,0:0|1:0,0:0:0:0:
474,239,244784,1,0,1:0:0:0:
423,183,244972,6,0,P|429:126|443:62,2,95.6250036478044,2|0|2,1:2|1:2|0:2,0:2:0:0:
356,317,245722,1,10,0:0:0:0:
356,317,246097,2,0,P|386:309|408:309,1,42.5000016212464,0|0,1:0|1:0,0:0:0:0:
482,124,246872,5,2,0:0:0:0:
482,124,246972,1,2,0:0:0:0:
482,124,247072,6,0,L|488:88,2,21.25,6|2|2,0:0|0:0|0:0,0:0:0:0:
428,182,247752,5,2,0:0:0:0:
289,99,249359,6,0,P|265:105|256:109,1,21.25,2|2,0:0|0:0,0:0:0:0:
