osu file format v14

[General]
AudioFilename: audio.mp3
AudioLeadIn: 0
PreviewTime: 237516
Countdown: 0
SampleSet: Normal
StackLeniency: 0.7
Mode: 1
LetterboxInBreaks: 0
WidescreenStoryboard: 0

[Editor]
Bookmarks: 63515
DistanceSpacing: 0.8
BeatDivisor: 4
GridSize: 8
TimelineZoom: 3.499999

[Metadata]
Title:NEXT LEVEL
TitleUnicode:NEXT LEVEL
Artist:sky_delta VS lapix
ArtistUnicode:sky_delta VS lapix
Creator:MMzz
Version:Inner Oni
Source:
Tags:CORE Signal
BeatmapID:1313652
BeatmapSetID:623246

[Difficulty]
HPDrainRate:6
CircleSize:2
OverallDifficulty:6.5
ApproachRate:5
SliderMultiplier:1.4
SliderTickRate:1

[Events]
//Background and Video events
0,0,"nextlvlbg.jpg",0,-90
//Break Periods
//Storyboard Layer 0 (Background)
//Storyboard Layer 1 (Fail)
//Storyboard Layer 2 (Pass)
//Storyboard Layer 3 (Foreground)
//Storyboard Sound Samples

[TimingPoints]
2015,375,4,1,0,85,1,0
4827,-125,4,1,0,85,0,0
15515,-111.111111111111,4,1,0,85,0,0
21515,-100,4,1,0,85,0,0
23015,-90.9090909090909,4,1,0,85,0,0
24515,-83.3333333333333,4,1,0,85,0,0
27515,-100,4,1,0,85,0,0
51515,-90.9090909090909,4,1,0,85,0,0
54515,-83.3333333333333,4,1,0,85,0,0
57515,-76.9230769230769,4,1,0,85,0,0
60515,-71.4285714285714,4,1,0,85,0,0
62390,-76.9230769230769,4,1,0,85,0,0
63515,-71.4285714285714,4,1,0,85,0,0
74390,-76.9230769230769,4,1,0,85,0,0
75702,-71.4285714285714,4,1,0,85,0,0
87140,-125,4,1,0,85,0,0
87515,-100,4,1,0,85,0,0
105515,-95.2380952380952,4,1,0,85,0,0
106265,-90.9090909090909,4,1,0,85,0,0
107015,-86.9565217391304,4,1,0,85,0,0
107115,-83.3333333333333,4,1,0,85,0,0
108515,-76.9230769230769,4,1,0,85,0,0
111515,-125,4,1,0,85,0,0
114515,-100,4,1,0,85,0,0
117515,-133.333333333333,4,1,0,85,0,0
128015,-125,4,1,0,85,0,0
129515,-100,4,1,0,85,0,0
135515,-95.2380952380952,4,1,0,85,0,0
136265,-90.9090909090909,4,1,0,85,0,0
137015,-86.9565217391304,4,1,0,85,0,0
137765,-83.3333333333333,4,1,0,85,0,0
138515,-80,4,1,0,85,0,0
141515,-100,4,1,0,85,0,0
159515,-90.9090909090909,4,1,0,85,0,0
161015,-83.3333333333333,4,1,0,85,0,0
162515,-76.9230769230769,4,1,0,85,0,0
165515,-100,4,1,0,85,0,0
174515,-95.2380952380952,4,1,0,85,0,0
175265,-90.9090909090909,4,1,0,85,0,0
177515,-125,4,1,0,85,0,0
190827,-111.111111111111,4,1,0,85,0,0
195515,-100,4,1,0,85,0,0
197015,-90.9090909090909,4,1,0,85,0,0
198515,-83.3333333333333,4,1,0,85,0,0
201515,-100,4,1,0,85,0,0
213515,-95.2380952380952,4,1,0,85,0,0
216515,-90.9090909090909,4,1,0,85,0,0
219515,-86.9565217391304,4,1,0,85,0,0
222515,-83.3333333333333,4,1,0,85,0,0
225515,-80,4,1,0,85,0,0
228515,-76.9230769230769,4,1,0,85,0,0
231515,-74.0740740740741,4,1,0,85,0,0
233015,-71.4285714285714,4,1,0,85,0,0
234515,-58.8235294117647,4,1,0,85,0,0
235640,-83.3333333333333,4,1,0,85,0,0
237515,-71.4285714285714,4,1,0,85,0,1
273515,-76.9230769230769,4,1,0,85,0,0
273890,-71.4285714285714,4,1,0,85,0,0
284390,-76.9230769230769,4,1,0,85,0,0
285702,-71.4285714285714,4,1,0,85,0,0
297140,-90.9090909090909,4,1,0,85,0,0
297515,-100,4,1,0,60,0,0
300515,-100,4,1,0,50,0,0
303515,-100,4,2,0,5,0,0

[HitObjects]
128,128,2015,5,4,0:0:0:0:
128,128,2202,1,8,0:0:0:0:
128,128,2390,1,0,0:0:0:0:
200,128,2577,1,0,0:0:0:0:
200,128,2671,1,0,0:0:0:0:
200,128,2765,1,8,0:0:0:0:
200,128,2858,1,8,0:0:0:0:
200,128,2952,1,0,0:0:0:0:
200,128,3046,1,0,0:0:0:0:
200,128,3140,1,8,0:0:0:0:
200,128,3233,1,0,0:0:0:0:
200,128,3515,1,4,0:0:0:0:
152,168,4827,1,0,0:0:0:0:
152,168,5952,1,0,0:0:0:0:
152,168,6140,1,8,0:0:0:0:
152,168,6327,1,0,0:0:0:0:
152,168,7827,1,0,0:0:0:0:
152,168,9515,1,8,0:0:0:0:
152,168,10827,1,8,0:0:0:0:
152,168,11577,1,0,0:0:0:0:
152,168,12327,1,8,0:0:0:0:
152,168,13827,1,0,0:0:0:0:
152,168,14577,1,8,0:0:0:0:
152,168,15515,1,4,0:0:0:0:
120,176,15890,1,8,0:0:0:0:
227,178,16077,1,0,0:0:0:0:
90,146,16452,1,0,0:0:0:0:
280,160,16640,1,8,0:0:0:0:
280,160,16702,1,8,0:0:0:0:
280,160,16765,1,8,0:0:0:0:
280,160,16827,1,0,0:0:0:0:
213,152,17202,1,0,0:0:0:0:
152,88,17390,1,8,0:0:0:0:
192,136,17577,1,0,0:0:0:0:
216,88,17952,5,0,0:0:0:0:
216,88,18140,1,8,0:0:0:0:
176,128,18327,1,0,0:0:0:0:
240,120,18421,1,0,0:0:0:0:
240,120,18515,1,0,0:0:0:0:
240,120,18702,1,0,0:0:0:0:
240,120,18890,1,8,0:0:0:0:
240,120,19077,1,0,0:0:0:0:
240,120,19452,1,0,0:0:0:0:
240,120,19640,1,8,0:0:0:0:
240,120,19827,1,8,0:0:0:0:
240,120,20202,1,0,0:0:0:0:
240,120,20390,1,8,0:0:0:0:
240,120,20577,1,0,0:0:0:0:
240,144,20952,1,8,0:0:0:0:
240,144,21140,1,8,0:0:0:0:
240,144,21327,1,0,0:0:0:0:
256,184,21515,5,0,0:0:0:0:
256,184,21702,1,0,0:0:0:0:
256,184,21890,1,8,0:0:0:0:
272,176,22077,1,0,0:0:0:0:
272,176,22171,1,0,0:0:0:0:
272,176,22265,1,0,0:0:0:0:
272,176,22452,1,0,0:0:0:0:
272,176,22640,1,8,0:0:0:0:
272,176,22827,1,0,0:0:0:0:
272,176,23015,1,0,0:0:0:0:
272,176,23202,1,0,0:0:0:0:
272,176,23390,1,8,0:0:0:0:
272,176,23577,1,0,0:0:0:0:
272,176,23671,1,0,0:0:0:0:
272,176,23765,1,0,0:0:0:0:
272,176,23952,1,0,0:0:0:0:
272,176,24140,1,8,0:0:0:0:
272,176,24327,1,0,0:0:0:0:
288,160,24515,5,0,0:0:0:0:
216,152,24608,1,0,0:0:0:0:
216,152,24702,1,0,0:0:0:0:
216,152,24796,1,0,0:0:0:0:
216,152,24890,1,8,0:0:0:0:
216,152,24983,1,8,0:0:0:0:
216,152,25077,1,0,0:0:0:0:
216,152,25171,1,0,0:0:0:0:
216,152,25265,1,0,0:0:0:0:
216,152,25358,1,0,0:0:0:0:
216,152,25452,1,0,0:0:0:0:
216,152,25546,1,0,0:0:0:0:
216,152,25640,1,8,0:0:0:0:
216,152,25733,1,8,0:0:0:0:
216,152,25827,1,0,0:0:0:0:
216,152,25921,1,0,0:0:0:0:
48,152,26015,5,0,0:0:0:0:
48,152,26108,1,0,0:0:0:0:
224,152,26202,1,8,0:0:0:0:
224,152,26249,1,8,0:0:0:0:
224,152,26296,1,0,0:0:0:0:
224,152,26390,1,0,0:0:0:0:
208,144,26483,1,8,0:0:0:0:
208,144,26530,1,8,0:0:0:0:
192,80,26577,1,0,0:0:0:0:
192,80,26671,1,0,0:0:0:0:
296,152,26765,1,8,0:0:0:0:
296,152,26890,1,8,0:0:0:0:
296,152,27015,1,8,0:0:0:0:
296,152,27140,1,4,0:0:0:0:
256,168,27515,1,4,0:0:0:0:
256,168,27702,1,8,0:0:0:0:
256,168,27796,1,8,0:0:0:0:
256,168,27983,1,8,0:0:0:0:
256,168,28077,1,8,0:0:0:0:
256,168,28265,1,0,0:0:0:0:
256,168,28358,1,8,0:0:0:0:
256,168,28452,1,0,0:0:0:0:
256,168,28546,1,0,0:0:0:0:
256,168,28640,1,8,0:0:0:0:
168,160,28827,1,0,0:0:0:0:
168,160,29015,1,8,0:0:0:0:
168,160,29108,1,0,0:0:0:0:
168,160,29202,1,0,0:0:0:0:
168,160,29296,1,8,0:0:0:0:
168,160,29483,1,8,0:0:0:0:
160,48,29577,1,8,0:0:0:0:
160,112,29671,1,8,0:0:0:0:
168,160,29765,1,0,0:0:0:0:
160,48,29858,1,0,0:0:0:0:
304,120,29952,1,12,0:0:0:0:
304,120,30233,1,12,0:0:0:0:
304,120,30515,1,4,0:0:0:0:
200,112,30702,1,0,0:0:0:0:
200,112,30796,1,8,0:0:0:0:
200,112,30890,1,0,0:0:0:0:
200,112,31077,1,0,0:0:0:0:
200,112,31171,1,8,0:0:0:0:
208,96,31358,1,8,0:0:0:0:
208,96,31452,1,8,0:0:0:0:
208,96,31640,1,0,0:0:0:0:
208,96,31827,1,8,0:0:0:0:
208,96,31921,1,8,0:0:0:0:
208,112,32015,1,0,0:0:0:0:
192,56,32108,5,0,0:0:0:0:
192,72,32202,1,8,0:0:0:0:
192,72,32296,1,0,0:0:0:0:
192,72,32390,1,8,0:0:0:0:
192,72,32483,1,8,0:0:0:0:
192,72,32577,1,0,0:0:0:0:
192,72,32671,1,0,0:0:0:0:
296,88,32765,1,8,0:0:0:0:
296,88,32890,1,8,0:0:0:0:
296,88,33015,1,8,0:0:0:0:
296,88,33140,1,12,0:0:0:0:
176,176,33515,1,4,0:0:0:0:
192,144,33702,1,8,0:0:0:0:
192,144,33796,1,8,0:0:0:0:
192,144,33890,1,0,0:0:0:0:
192,144,33983,1,0,0:0:0:0:
192,144,34077,1,8,0:0:0:0:
192,144,34171,1,0,0:0:0:0:
192,144,34358,1,0,0:0:0:0:
192,144,34452,1,0,0:0:0:0:
192,144,34640,1,8,0:0:0:0:
184,136,34827,1,0,0:0:0:0:
184,160,35015,1,8,0:0:0:0:
184,160,35108,1,8,0:0:0:0:
184,160,35202,1,0,0:0:0:0:
184,160,35296,1,0,0:0:0:0:
184,160,35390,1,8,0:0:0:0:
184,160,35483,1,0,0:0:0:0:
184,160,35577,1,8,0:0:0:0:
184,160,35671,1,8,0:0:0:0:
184,160,35765,1,0,0:0:0:0:
184,160,35858,1,0,0:0:0:0:
176,136,35952,1,12,0:0:0:0:
176,136,36233,1,12,0:0:0:0:
176,136,36515,1,4,0:0:0:0:
192,136,36702,1,0,0:0:0:0:
192,136,36796,1,0,0:0:0:0:
192,136,36890,1,8,0:0:0:0:
192,136,37077,1,0,0:0:0:0:
192,136,37171,1,8,0:0:0:0:
192,136,37265,1,0,0:0:0:0:
192,136,37358,1,0,0:0:0:0:
192,136,37452,1,0,0:0:0:0:
192,136,37640,1,8,0:0:0:0:
192,136,37827,1,0,0:0:0:0:
192,144,38015,1,4,0:0:0:0:
192,144,38390,1,12,0:0:0:0:
192,144,38765,1,4,0:0:0:0:
192,144,38952,1,8,0:0:0:0:
192,144,39046,1,0,0:0:0:0:
192,144,39140,1,8,0:0:0:0:
200,136,39515,1,4,0:0:0:0:
160,160,39702,1,0,0:0:0:0:
224,152,39890,1,8,0:0:0:0:
176,96,40077,1,8,0:0:0:0:
176,96,40265,1,0,0:0:0:0:
176,96,40452,1,8,0:0:0:0:
176,96,40546,1,0,0:0:0:0:
176,96,40640,1,8,0:0:0:0:
176,96,40827,1,0,0:0:0:0:
176,96,41015,1,8,0:0:0:0:
176,96,41202,1,0,0:0:0:0:
176,96,41296,1,0,0:0:0:0:
176,96,41390,1,8,0:0:0:0:
176,96,41577,1,0,0:0:0:0:
176,96,41765,1,8,0:0:0:0:
176,96,41858,1,8,0:0:0:0:
176,96,41952,1,0,0:0:0:0:
176,96,42046,1,0,0:0:0:0:
176,96,42140,1,8,0:0:0:0:
176,96,42327,1,8,0:0:0:0:
176,96,42421,1,8,0:0:0:0:
176,96,42515,1,0,0:0:0:0:
232,144,42702,1,0,0:0:0:0:
232,144,42796,1,0,0:0:0:0:
232,144,42890,1,8,0:0:0:0:
232,144,43077,1,0,0:0:0:0:
232,144,43265,1,8,0:0:0:0:
232,144,43358,1,8,0:0:0:0:
232,144,43452,1,0,0:0:0:0:
232,144,43546,1,8,0:0:0:0:
232,144,43640,1,0,0:0:0:0:
232,144,43827,1,0,0:0:0:0:
232,144,43921,1,0,0:0:0:0:
232,144,44015,1,8,0:0:0:0:
232,144,44202,1,0,0:0:0:0:
232,144,44390,1,8,0:0:0:0:
232,144,44483,1,8,0:0:0:0:
232,144,44577,1,0,0:0:0:0:
216,136,44765,1,8,0:0:0:0:
216,136,44858,1,8,0:0:0:0:
216,136,44952,1,0,0:0:0:0:
216,136,45046,1,0,0:0:0:0:
216,136,45140,1,8,0:0:0:0:
216,136,45327,1,8,0:0:0:0:
224,120,45421,1,8,0:0:0:0:
224,120,45515,1,0,0:0:0:0:
216,136,45702,1,0,0:0:0:0:
216,136,45796,1,0,0:0:0:0:
216,136,45890,1,8,0:0:0:0:
216,136,45983,1,8,0:0:0:0:
216,136,46077,1,0,0:0:0:0:
216,136,46265,1,8,0:0:0:0:
168,72,46358,1,8,0:0:0:0:
168,72,46452,1,0,0:0:0:0:
168,72,46546,1,8,0:0:0:0:
168,72,46640,1,0,0:0:0:0:
224,104,46827,1,0,0:0:0:0:
224,104,46921,1,0,0:0:0:0:
224,104,47015,1,8,0:0:0:0:
224,104,47202,1,8,0:0:0:0:
224,104,47296,1,0,0:0:0:0:
224,104,47390,1,8,0:0:0:0:
224,104,47483,1,8,0:0:0:0:
224,104,47577,1,0,0:0:0:0:
224,104,47765,1,8,0:0:0:0:
224,104,47858,1,8,0:0:0:0:
224,104,47952,1,0,0:0:0:0:
224,104,48046,1,0,0:0:0:0:
224,104,48140,1,8,0:0:0:0:
224,104,48327,1,8,0:0:0:0:
224,104,48421,1,8,0:0:0:0:
224,104,48515,1,0,0:0:0:0:
288,160,48702,1,0,0:0:0:0:
288,160,48796,1,0,0:0:0:0:
288,160,48890,1,8,0:0:0:0:
288,160,48983,1,8,0:0:0:0:
288,160,49077,1,0,0:0:0:0:
288,160,49265,1,8,0:0:0:0:
288,160,49358,1,8,0:0:0:0:
288,160,49452,1,0,0:0:0:0:
288,160,49546,1,8,0:0:0:0:
288,160,49640,1,0,0:0:0:0:
120,152,49827,1,0,0:0:0:0:
120,152,49921,1,0,0:0:0:0:
120,152,50015,1,8,0:0:0:0:
120,152,50202,1,8,0:0:0:0:
120,152,50296,1,0,0:0:0:0:
120,152,50390,1,8,0:0:0:0:
120,152,50483,1,0,0:0:0:0:
120,152,50577,1,0,0:0:0:0:
56,136,50671,1,0,0:0:0:0:
152,144,50765,1,8,0:0:0:0:
152,144,50858,1,8,0:0:0:0:
152,144,50952,1,0,0:0:0:0:
152,144,51046,1,0,0:0:0:0:
152,144,51140,1,8,0:0:0:0:
232,128,51515,5,0,0:0:0:0:
248,128,51608,1,0,0:0:0:0:
248,128,51702,1,0,0:0:0:0:
248,128,51796,1,0,0:0:0:0:
248,128,51890,1,8,0:0:0:0:
248,128,51983,1,8,0:0:0:0:
248,128,52077,1,8,0:0:0:0:
248,128,52171,1,8,0:0:0:0:
248,128,52265,1,0,0:0:0:0:
248,128,52358,1,0,0:0:0:0:
248,128,52452,1,0,0:0:0:0:
248,128,52546,1,0,0:0:0:0:
248,128,52640,1,8,0:0:0:0:
248,128,52733,1,8,0:0:0:0:
248,128,52827,1,8,0:0:0:0:
248,128,52921,1,8,0:0:0:0:
248,128,53015,1,0,0:0:0:0:
248,128,53108,1,0,0:0:0:0:
248,128,53202,1,0,0:0:0:0:
248,128,53296,1,0,0:0:0:0:
248,128,53390,1,8,0:0:0:0:
248,128,53483,1,0,0:0:0:0:
248,128,53577,1,8,0:0:0:0:
248,128,53671,1,8,0:0:0:0:
192,160,53765,5,0,0:0:0:0:
192,160,53858,1,8,0:0:0:0:
208,152,53952,1,0,0:0:0:0:
208,152,54046,1,0,0:0:0:0:
208,152,54140,1,12,0:0:0:0:
296,136,54515,1,0,0:0:0:0:
296,136,54608,1,0,0:0:0:0:
296,136,54702,1,0,0:0:0:0:
296,136,54796,1,0,0:0:0:0:
296,136,54890,1,8,0:0:0:0:
296,136,54983,1,8,0:0:0:0:
296,136,55077,1,8,0:0:0:0:
296,136,55171,1,8,0:0:0:0:
296,136,55265,1,0,0:0:0:0:
296,136,55358,1,0,0:0:0:0:
296,136,55452,1,0,0:0:0:0:
296,136,55546,1,0,0:0:0:0:
296,136,55640,1,8,0:0:0:0:
296,136,55733,1,0,0:0:0:0:
296,136,55827,1,8,0:0:0:0:
296,136,55921,1,8,0:0:0:0:
296,136,56015,1,0,0:0:0:0:
296,136,56108,1,8,0:0:0:0:
296,136,56202,1,0,0:0:0:0:
296,136,56296,1,0,0:0:0:0:
232,128,56390,1,8,0:0:0:0:
208,144,56436,1,8,0:0:0:0:
208,144,56483,1,8,0:0:0:0:
232,128,56577,1,0,0:0:0:0:
232,128,56671,1,0,0:0:0:0:
232,128,56765,1,8,0:0:0:0:
232,128,56858,1,8,0:0:0:0:
232,128,56952,1,0,0:0:0:0:
232,128,57046,1,0,0:0:0:0:
232,128,57140,1,12,0:0:0:0:
208,160,57515,1,4,0:0:0:0:
208,144,57702,1,8,0:0:0:0:
208,144,57796,1,0,0:0:0:0:
208,144,57983,1,8,0:0:0:0:
208,144,58077,1,0,0:0:0:0:
208,144,58265,1,8,0:0:0:0:
208,144,58358,1,0,0:0:0:0:
208,144,58546,1,8,0:0:0:0:
208,144,58640,1,8,0:0:0:0:
200,128,58827,1,0,0:0:0:0:
200,128,58921,1,8,0:0:0:0:
200,128,59108,1,8,0:0:0:0:
200,128,59202,1,0,0:0:0:0:
200,128,59390,1,8,0:0:0:0:
200,128,59483,1,0,0:0:0:0:
200,128,59671,1,8,0:0:0:0:
200,128,59765,1,0,0:0:0:0:
200,128,59952,1,8,0:0:0:0:
200,128,60046,1,8,0:0:0:0:
200,128,60233,1,0,0:0:0:0:
200,128,60327,1,8,0:0:0:0:
176,144,60515,1,8,0:0:0:0:
176,144,60608,1,0,0:0:0:0:
176,144,60702,1,0,0:0:0:0:
176,144,60796,1,0,0:0:0:0:
176,144,60890,1,8,0:0:0:0:
176,144,60983,1,8,0:0:0:0:
176,144,61077,1,0,0:0:0:0:
176,144,61171,1,0,0:0:0:0:
176,144,61265,1,8,0:0:0:0:
176,144,61358,1,8,0:0:0:0:
192,152,61452,1,0,0:0:0:0:
192,152,61515,1,0,0:0:0:0:
192,152,61577,1,0,0:0:0:0:
192,152,61640,1,8,0:0:0:0:
192,152,61733,1,0,0:0:0:0:
192,152,61827,1,8,0:0:0:0:
192,152,61890,1,8,0:0:0:0:
192,152,61952,1,8,0:0:0:0:
192,152,62015,1,0,0:0:0:0:
208,144,62390,1,8,0:0:0:0:
160,160,62765,1,0,0:0:0:0:
160,160,62952,1,8,0:0:0:0:
160,160,63140,1,12,0:0:0:0:
228,179,63515,1,0,0:0:0:0:
228,179,63608,1,8,0:0:0:0:
228,179,63796,1,8,0:0:0:0:
228,179,63890,1,0,0:0:0:0:
228,179,63983,1,0,0:0:0:0:
228,179,64077,1,8,0:0:0:0:
228,179,64265,1,0,0:0:0:0:
116,145,64358,1,8,0:0:0:0:
168,142,64405,1,8,0:0:0:0:
168,142,64452,1,0,0:0:0:0:
168,142,64546,1,8,0:0:0:0:
247,123,64640,1,0,0:0:0:0:
247,123,64733,1,0,0:0:0:0:
312,111,64827,1,8,0:0:0:0:
204,142,64921,1,0,0:0:0:0:
192,106,65015,1,12,0:0:0:0:
192,106,65202,1,0,0:0:0:0:
192,106,65296,1,8,0:0:0:0:
192,106,65390,1,0,0:0:0:0:
192,106,65483,1,0,0:0:0:0:
192,106,65577,1,8,0:0:0:0:
191,82,65765,1,0,0:0:0:0:
191,82,65858,1,0,0:0:0:0:
373,189,65952,1,8,0:0:0:0:
227,185,66046,1,8,0:0:0:0:
227,185,66140,1,0,0:0:0:0:
227,185,66233,1,8,0:0:0:0:
227,185,66327,1,0,0:0:0:0:
227,185,66515,1,0,0:0:0:0:
126,141,66577,1,0,0:0:0:0:
126,141,66640,1,0,0:0:0:0:
126,141,66702,1,8,0:0:0:0:
126,141,66890,1,0,0:0:0:0:
203,128,66983,1,0,0:0:0:0:
169,103,67077,1,8,0:0:0:0:
169,103,67171,1,8,0:0:0:0:
186,102,67265,1,0,0:0:0:0:
112,127,67358,1,8,0:0:0:0:
112,127,67452,1,8,0:0:0:0:
112,127,67546,1,0,0:0:0:0:
112,127,67640,1,8,0:0:0:0:
112,127,67733,1,0,0:0:0:0:
112,127,67827,1,0,0:0:0:0:
112,127,67921,1,8,0:0:0:0:
30,151,68015,1,0,0:0:0:0:
30,151,68108,1,8,0:0:0:0:
30,151,68202,1,0,0:0:0:0:
199,223,68390,1,0,0:0:0:0:
199,223,68452,1,0,0:0:0:0:
199,223,68515,1,0,0:0:0:0:
199,223,68577,1,8,0:0:0:0:
243,141,68671,1,8,0:0:0:0:
199,223,68765,1,0,0:0:0:0:
199,223,68827,1,0,0:0:0:0:
199,223,68890,1,0,0:0:0:0:
199,223,68952,1,8,0:0:0:0:
215,186,69046,1,0,0:0:0:0:
259,150,69140,1,8,0:0:0:0:
259,150,69265,1,8,0:0:0:0:
259,150,69390,1,8,0:0:0:0:
259,150,69515,1,4,0:0:0:0:
226,117,69702,1,0,0:0:0:0:
226,117,69796,1,0,0:0:0:0:
226,117,69890,1,12,0:0:0:0:
226,117,70171,1,12,0:0:0:0:
226,117,70452,1,12,0:0:0:0:
226,117,70640,1,0,0:0:0:0:
226,117,70733,1,0,0:0:0:0:
226,117,70827,1,8,0:0:0:0:
226,117,70921,1,0,0:0:0:0:
226,117,71108,1,0,0:0:0:0:
278,112,71202,1,8,0:0:0:0:
278,112,71249,1,8,0:0:0:0:
278,112,71296,1,8,0:0:0:0:
278,112,71390,1,0,0:0:0:0:
155,170,71483,1,0,0:0:0:0:
155,170,71577,1,8,0:0:0:0:
155,170,71765,1,0,0:0:0:0:
155,170,71858,1,0,0:0:0:0:
155,170,71952,1,8,0:0:0:0:
155,170,72046,1,8,0:0:0:0:
155,170,72140,1,0,0:0:0:0:
155,170,72233,1,8,0:0:0:0:
155,170,72327,1,0,0:0:0:0:
156,133,72515,1,4,0:0:0:0:
156,133,72702,1,8,0:0:0:0:
156,133,72796,1,0,0:0:0:0:
156,133,72890,1,8,0:0:0:0:
156,133,72983,1,0,0:0:0:0:
156,133,73077,1,8,0:0:0:0:
156,133,73171,1,8,0:0:0:0:
156,133,73358,1,8,0:0:0:0:
156,133,73452,1,0,0:0:0:0:
156,133,73546,1,0,0:0:0:0:
152,152,73640,1,8,0:0:0:0:
156,133,73733,1,0,0:0:0:0:
209,122,74015,1,4,0:0:0:0:
245,195,74390,1,8,0:0:0:0:
214,160,74671,1,8,0:0:0:0:
214,160,74952,1,0,0:0:0:0:
214,160,75140,1,8,0:0:0:0:
214,160,75233,1,0,0:0:0:0:
214,160,75421,1,8,0:0:0:0:
214,160,75515,1,0,0:0:0:0:
186,126,75702,1,0,0:0:0:0:
186,126,75796,1,0,0:0:0:0:
186,126,75890,1,12,0:0:0:0:
220,139,76265,1,0,0:0:0:0:
221,139,76358,1,0,0:0:0:0:
220,139,76452,1,8,0:0:0:0:
220,139,76640,1,8,0:0:0:0:
220,139,76733,1,0,0:0:0:0:
220,139,76827,1,8,0:0:0:0:
220,139,76921,1,8,0:0:0:0:
216,134,77015,1,0,0:0:0:0:
245,141,77202,1,8,0:0:0:0:
245,141,77296,1,8,0:0:0:0:
245,141,77390,1,0,0:0:0:0:
245,141,77483,1,0,0:0:0:0:
215,134,77577,1,8,0:0:0:0:
215,134,77671,1,0,0:0:0:0:
160,161,77858,1,0,0:0:0:0:
160,161,77952,1,8,0:0:0:0:
174,133,78015,1,8,0:0:0:0:
174,133,78077,1,8,0:0:0:0:
174,133,78140,1,0,0:0:0:0:
165,124,78233,1,0,0:0:0:0:
165,124,78327,1,8,0:0:0:0:
165,124,78421,1,0,0:0:0:0:
206,107,78515,1,0,0:0:0:0:
206,107,78561,1,0,0:0:0:0:
206,107,78608,1,0,0:0:0:0:
206,107,78702,1,8,0:0:0:0:
206,107,78890,1,4,0:0:0:0:
211,108,79077,1,0,0:0:0:0:
211,108,79171,1,8,0:0:0:0:
211,108,79265,1,0,0:0:0:0:
211,108,79358,1,0,0:0:0:0:
211,108,79452,1,8,0:0:0:0:
211,93,79640,1,0,0:0:0:0:
211,93,79733,1,0,0:0:0:0:
211,93,79827,1,8,0:0:0:0:
211,93,79921,1,8,0:0:0:0:
211,93,80015,1,0,0:0:0:0:
181,114,80077,1,0,0:0:0:0:
181,114,80140,1,0,0:0:0:0:
181,114,80202,1,8,0:0:0:0:
271,153,80296,1,8,0:0:0:0:
183,42,80390,1,0,0:0:0:0:
183,42,80452,1,0,0:0:0:0:
183,42,80515,1,0,0:0:0:0:
183,42,80577,1,8,0:0:0:0:
271,153,80671,1,8,0:0:0:0:
183,42,80765,1,0,0:0:0:0:
183,42,80827,1,0,0:0:0:0:
183,42,80890,1,0,0:0:0:0:
183,42,80952,1,8,0:0:0:0:
177,154,81046,1,0,0:0:0:0:
183,42,81140,1,12,0:0:0:0:
286,164,81515,1,4,0:0:0:0:
179,126,81702,1,0,0:0:0:0:
179,126,81796,1,0,0:0:0:0:
179,126,81890,1,8,0:0:0:0:
179,126,82077,1,0,0:0:0:0:
179,126,82171,1,8,0:0:0:0:
179,126,82358,1,8,0:0:0:0:
179,126,82452,1,0,0:0:0:0:
179,126,82640,1,0,0:0:0:0:
179,126,82733,1,8,0:0:0:0:
179,126,82827,1,0,0:0:0:0:
179,126,83015,1,4,0:0:0:0:
122,121,83202,1,8,0:0:0:0:
122,121,83296,1,0,0:0:0:0:
122,121,83390,1,0,0:0:0:0:
122,121,83483,1,8,0:0:0:0:
122,121,83577,1,0,0:0:0:0:
122,121,83765,1,8,0:0:0:0:
122,121,83858,1,8,0:0:0:0:
122,121,83952,1,0,0:0:0:0:
122,121,84046,1,0,0:0:0:0:
122,121,84140,1,8,0:0:0:0:
122,121,84327,1,0,0:0:0:0:
173,187,84515,1,8,0:0:0:0:
173,187,84608,1,0,0:0:0:0:
173,187,84702,1,0,0:0:0:0:
173,187,84796,1,0,0:0:0:0:
173,187,84890,1,8,0:0:0:0:
173,187,84983,1,0,0:0:0:0:
173,187,85077,1,8,0:0:0:0:
277,130,85124,1,8,0:0:0:0:
277,130,85171,1,8,0:0:0:0:
222,160,85265,1,0,0:0:0:0:
222,160,85358,1,0,0:0:0:0:
222,160,85452,1,8,0:0:0:0:
222,160,85546,1,0,0:0:0:0:
222,160,85640,1,0,0:0:0:0:
222,160,85733,1,8,0:0:0:0:
222,160,85827,1,0,0:0:0:0:
222,160,85921,1,0,0:0:0:0:
222,160,86015,1,12,0:0:0:0:
256,192,86202,12,8,86952,0:0:0:0:
184,164,87140,5,8,0:0:0:0:
189,139,87515,1,4,0:0:0:0:
139,143,87702,1,0,0:0:0:0:
139,143,87796,1,0,0:0:0:0:
139,143,87890,1,8,0:0:0:0:
139,143,88077,1,0,0:0:0:0:
139,143,88171,1,0,0:0:0:0:
139,143,88265,1,0,0:0:0:0:
139,143,88358,1,8,0:0:0:0:
139,143,88452,1,0,0:0:0:0:
196,137,88640,1,8,0:0:0:0:
196,137,88733,1,8,0:0:0:0:
196,137,88827,1,0,0:0:0:0:
196,137,88921,1,8,0:0:0:0:
196,137,89015,1,0,0:0:0:0:
197,112,89202,1,0,0:0:0:0:
197,112,89296,1,8,0:0:0:0:
197,112,89390,1,0,0:0:0:0:
197,112,89483,1,0,0:0:0:0:
197,112,89577,1,8,0:0:0:0:
197,112,89765,1,0,0:0:0:0:
197,112,89858,1,8,0:0:0:0:
197,112,89952,1,0,0:0:0:0:
197,112,90140,1,8,0:0:0:0:
197,112,90327,1,0,0:0:0:0:
213,106,90421,1,0,0:0:0:0:
197,112,90515,1,8,0:0:0:0:
213,115,90608,1,0,0:0:0:0:
213,115,90702,1,8,0:0:0:0:
213,115,90796,1,0,0:0:0:0:
213,115,90890,1,8,0:0:0:0:
209,89,90983,1,8,0:0:0:0:
213,106,91171,1,8,0:0:0:0:
213,106,91265,1,0,0:0:0:0:
212,104,91452,1,8,0:0:0:0:
212,104,91546,1,0,0:0:0:0:
212,104,91640,1,8,0:0:0:0:
212,104,91733,1,8,0:0:0:0:
212,104,91827,1,0,0:0:0:0:
213,106,92015,1,8,0:0:0:0:
213,106,92108,1,8,0:0:0:0:
212,104,92202,1,0,0:0:0:0:
212,104,92296,1,0,0:0:0:0:
212,104,92390,1,8,0:0:0:0:
212,104,92483,1,0,0:0:0:0:
212,104,92577,1,8,0:0:0:0:
212,104,92671,1,8,0:0:0:0:
213,106,92765,1,0,0:0:0:0:
213,106,92858,1,0,0:0:0:0:
213,106,92952,1,8,0:0:0:0:
212,104,93046,1,8,0:0:0:0:
212,104,93140,1,8,0:0:0:0:
193,146,93515,1,4,0:0:0:0:
152,141,93702,1,0,0:0:0:0:
152,141,93796,1,0,0:0:0:0:
152,141,93890,1,8,0:0:0:0:
152,141,94077,1,0,0:0:0:0:
152,141,94171,1,0,0:0:0:0:
152,141,94358,1,8,0:0:0:0:
152,141,94452,1,0,0:0:0:0:
115,133,94546,1,0,0:0:0:0:
115,133,94640,1,8,0:0:0:0:
115,133,94733,1,8,0:0:0:0:
115,133,94827,1,0,0:0:0:0:
115,133,94921,1,12,0:0:0:0:
169,165,95202,1,0,0:0:0:0:
169,165,95296,1,0,0:0:0:0:
169,165,95390,1,8,0:0:0:0:
169,165,95483,1,8,0:0:0:0:
169,165,95577,1,0,0:0:0:0:
169,165,95765,1,8,0:0:0:0:
169,165,95952,1,0,0:0:0:0:
169,165,96046,1,8,0:0:0:0:
169,165,96140,1,0,0:0:0:0:
169,165,96233,1,0,0:0:0:0:
169,165,96327,1,8,0:0:0:0:
135,146,96515,1,4,0:0:0:0:
124,104,96702,1,4,0:0:0:0:
124,104,96890,1,12,0:0:0:0:
124,104,97077,1,12,0:0:0:0:
124,104,97358,1,0,0:0:0:0:
124,104,97452,1,0,0:0:0:0:
178,105,97640,1,8,0:0:0:0:
227,128,97733,1,0,0:0:0:0:
169,165,98015,1,8,0:0:0:0:
169,165,98108,1,8,0:0:0:0:
169,165,98202,1,8,0:0:0:0:
144,137,98296,1,0,0:0:0:0:
144,137,98390,1,8,0:0:0:0:
144,137,98483,1,8,0:0:0:0:
169,105,98577,1,8,0:0:0:0:
169,105,98671,1,0,0:0:0:0:
169,105,98765,1,8,0:0:0:0:
169,105,98858,1,8,0:0:0:0:
169,105,98952,1,0,0:0:0:0:
169,105,99046,1,0,0:0:0:0:
169,105,99140,1,8,0:0:0:0:
169,105,99233,1,8,0:0:0:0:
169,105,99327,1,8,0:0:0:0:
169,105,99421,1,8,0:0:0:0:
169,105,99515,1,0,0:0:0:0:
206,143,99608,1,0,0:0:0:0:
206,143,99702,1,0,0:0:0:0:
206,143,99796,1,0,0:0:0:0:
206,143,99890,1,12,0:0:0:0:
199,138,100171,1,12,0:0:0:0:
199,138,100452,1,12,0:0:0:0:
150,181,100640,1,0,0:0:0:0:
150,181,100827,1,8,0:0:0:0:
133,139,100921,1,8,0:0:0:0:
223,120,101015,1,0,0:0:0:0:
139,119,101202,1,0,0:0:0:0:
139,119,101296,1,8,0:0:0:0:
213,159,101390,1,0,0:0:0:0:
164,58,101577,1,0,0:0:0:0:
213,159,101671,1,8,0:0:0:0:
164,58,101858,1,0,0:0:0:0:
213,159,101952,1,8,0:0:0:0:
213,159,102140,1,0,0:0:0:0:
129,150,102233,1,0,0:0:0:0:
129,150,102327,1,8,0:0:0:0:
129,150,102421,1,8,0:0:0:0:
174,139,102515,1,0,0:0:0:0:
93,158,102702,1,0,0:0:0:0:
93,158,102796,1,8,0:0:0:0:
174,139,102890,1,0,0:0:0:0:
151,126,103077,1,0,0:0:0:0:
174,139,103171,1,8,0:0:0:0:
169,131,103358,1,0,0:0:0:0:
174,139,103452,1,8,0:0:0:0:
174,139,103640,1,0,0:0:0:0:
158,130,103827,1,8,0:0:0:0:
158,130,103921,1,8,0:0:0:0:
174,139,104015,1,0,0:0:0:0:
158,130,104202,1,0,0:0:0:0:
158,130,104296,1,0,0:0:0:0:
174,139,104390,1,8,0:0:0:0:
125,147,104483,1,0,0:0:0:0:
106,149,104577,1,0,0:0:0:0:
174,139,104671,1,8,0:0:0:0:
164,82,104858,1,0,0:0:0:0:
174,139,104952,1,8,0:0:0:0:
174,139,105140,1,12,0:0:0:0:
158,129,105515,1,4,0:0:0:0:
158,129,105702,1,0,0:0:0:0:
158,129,105890,1,8,0:0:0:0:
161,135,106265,1,4,0:0:0:0:
161,135,106452,1,0,0:0:0:0:
161,135,106640,1,8,0:0:0:0:
161,135,106733,1,8,0:0:0:0:
161,135,106827,1,8,0:0:0:0:
161,135,106921,1,8,0:0:0:0:
161,135,107015,1,4,0:0:0:0:
161,135,107202,1,0,0:0:0:0:
161,135,107390,1,8,0:0:0:0:
161,135,107577,1,8,0:0:0:0:
161,135,107765,1,4,0:0:0:0:
161,135,107952,1,0,0:0:0:0:
161,135,108140,1,8,0:0:0:0:
192,147,108515,1,8,0:0:0:0:
192,147,108608,1,8,0:0:0:0:
192,147,108702,1,0,0:0:0:0:
192,147,108796,1,0,0:0:0:0:
192,147,108890,1,8,0:0:0:0:
192,147,108983,1,8,0:0:0:0:
192,147,109077,1,0,0:0:0:0:
192,147,109171,1,0,0:0:0:0:
192,147,109265,1,8,0:0:0:0:
192,147,109358,1,8,0:0:0:0:
192,147,109452,1,8,0:0:0:0:
192,147,109546,1,0,0:0:0:0:
192,147,109640,1,8,0:0:0:0:
192,147,109733,1,8,0:0:0:0:
192,147,109827,1,8,0:0:0:0:
192,147,109921,1,8,0:0:0:0:
136,123,110015,1,0,0:0:0:0:
256,192,110390,12,0,111327,0:0:0:0:
196,142,111515,5,12,0:0:0:0:
221,125,111890,1,8,0:0:0:0:
228,145,112265,1,8,0:0:0:0:
228,145,112640,1,8,0:0:0:0:
228,145,113015,1,8,0:0:0:0:
228,145,113390,1,8,0:0:0:0:
228,145,113765,1,8,0:0:0:0:
228,145,114140,1,8,0:0:0:0:
235,166,114515,1,12,0:0:0:0:
197,141,114702,1,0,0:0:0:0:
197,141,114796,1,0,0:0:0:0:
197,141,114890,1,0,0:0:0:0:
197,141,115077,1,12,0:0:0:0:
197,141,115265,1,0,0:0:0:0:
197,141,115358,1,0,0:0:0:0:
197,141,115452,1,0,0:0:0:0:
197,141,115546,1,0,0:0:0:0:
197,141,115640,1,12,0:0:0:0:
197,141,115827,1,0,0:0:0:0:
197,141,115921,1,8,0:0:0:0:
197,141,116015,1,0,0:0:0:0:
197,141,116108,1,0,0:0:0:0:
197,141,116202,1,12,0:0:0:0:
197,141,116390,1,0,0:0:0:0:
197,141,116483,1,0,0:0:0:0:
197,141,116577,1,0,0:0:0:0:
197,141,116671,1,0,0:0:0:0:
197,141,116765,1,12,0:0:0:0:
197,141,116952,1,0,0:0:0:0:
197,141,117140,1,12,0:0:0:0:
168,160,117515,1,0,0:0:0:0:
168,160,117890,1,0,0:0:0:0:
168,160,118077,1,0,0:0:0:0:
168,160,118171,1,0,0:0:0:0:
168,160,118265,1,0,0:0:0:0:
168,160,118358,1,0,0:0:0:0:
168,160,118452,1,0,0:0:0:0:
168,160,118640,1,0,0:0:0:0:
168,160,118733,1,0,0:0:0:0:
168,160,118827,1,8,0:0:0:0:
199,167,119015,1,0,0:0:0:0:
133,137,119390,1,0,0:0:0:0:
133,137,119577,1,0,0:0:0:0:
133,137,119671,1,0,0:0:0:0:
133,137,119765,1,0,0:0:0:0:
144,166,119858,1,0,0:0:0:0:
199,167,119952,1,8,0:0:0:0:
199,167,120140,1,8,0:0:0:0:
133,137,120515,1,0,0:0:0:0:
133,137,120890,1,0,0:0:0:0:
133,137,121077,1,0,0:0:0:0:
133,137,121171,1,0,0:0:0:0:
133,137,121265,1,0,0:0:0:0:
133,137,121358,1,0,0:0:0:0:
133,137,121452,1,0,0:0:0:0:
133,137,121640,1,0,0:0:0:0:
133,137,121827,1,0,0:0:0:0:
133,137,121921,1,0,0:0:0:0:
133,137,122015,1,0,0:0:0:0:
137,152,122202,1,0,0:0:0:0:
133,137,122390,1,0,0:0:0:0:
133,137,122577,1,0,0:0:0:0:
133,137,122671,1,8,0:0:0:0:
133,137,122858,1,8,0:0:0:0:
133,137,122952,1,0,0:0:0:0:
144,146,123046,1,0,0:0:0:0:
157,98,123140,1,8,0:0:0:0:
178,178,123327,1,8,0:0:0:0:
149,70,123515,1,0,0:0:0:0:
178,178,123890,1,0,0:0:0:0:
178,178,124077,1,0,0:0:0:0:
178,178,124171,1,0,0:0:0:0:
178,178,124265,1,0,0:0:0:0:
178,178,124358,1,0,0:0:0:0:
178,178,124452,1,0,0:0:0:0:
178,178,124640,1,0,0:0:0:0:
178,178,124827,1,8,0:0:0:0:
178,178,124921,1,8,0:0:0:0:
178,178,125015,1,0,0:0:0:0:
178,178,125390,1,0,0:0:0:0:
178,178,125577,1,0,0:0:0:0:
178,178,125671,1,0,0:0:0:0:
178,178,125765,1,8,0:0:0:0:
178,178,125858,1,0,0:0:0:0:
178,178,125952,1,0,0:0:0:0:
162,171,126046,1,8,0:0:0:0:
162,171,126140,1,0,0:0:0:0:
162,171,126233,1,0,0:0:0:0:
162,171,126327,1,8,0:0:0:0:
162,171,126515,1,0,0:0:0:0:
162,171,126890,1,0,0:0:0:0:
162,171,127077,1,0,0:0:0:0:
162,171,127171,1,0,0:0:0:0:
162,171,127265,1,0,0:0:0:0:
162,171,127358,1,0,0:0:0:0:
162,171,127452,1,0,0:0:0:0:
162,171,127640,1,0,0:0:0:0:
162,171,127827,1,0,0:0:0:0:
162,171,128015,1,8,0:0:0:0:
162,171,128202,1,8,0:0:0:0:
162,171,128390,1,8,0:0:0:0:
162,171,128577,1,0,0:0:0:0:
162,171,128671,1,8,0:0:0:0:
162,171,128858,1,8,0:0:0:0:
162,171,129046,1,8,0:0:0:0:
162,171,129140,1,8,0:0:0:0:
162,171,129233,1,8,0:0:0:0:
162,171,129327,1,0,0:0:0:0:
162,171,129515,1,8,0:0:0:0:
212,151,129702,1,0,0:0:0:0:
212,151,129796,1,0,0:0:0:0:
212,151,129983,1,0,0:0:0:0:
212,151,130077,1,8,0:0:0:0:
212,151,130265,1,0,0:0:0:0:
212,151,130452,1,8,0:0:0:0:
212,151,130546,1,0,0:0:0:0:
212,151,130640,1,8,0:0:0:0:
212,151,130733,1,8,0:0:0:0:
212,151,130827,1,0,0:0:0:0:
212,151,131015,1,8,0:0:0:0:
231,124,131202,1,0,0:0:0:0:
216,137,131296,1,8,0:0:0:0:
216,137,131390,1,0,0:0:0:0:
216,137,131483,1,0,0:0:0:0:
216,137,131577,1,8,0:0:0:0:
216,134,131765,1,0,0:0:0:0:
245,142,131858,1,0,0:0:0:0:
216,134,131952,1,8,0:0:0:0:
216,134,132046,1,0,0:0:0:0:
216,137,132140,1,8,0:0:0:0:
216,137,132233,1,8,0:0:0:0:
216,137,132327,1,8,0:0:0:0:
216,134,132515,1,8,0:0:0:0:
195,137,132702,1,0,0:0:0:0:
195,137,132796,1,0,0:0:0:0:
195,137,132983,1,0,0:0:0:0:
195,137,133077,1,8,0:0:0:0:
195,137,133265,1,0,0:0:0:0:
195,137,133452,1,8,0:0:0:0:
210,109,133546,1,0,0:0:0:0:
210,109,133640,1,8,0:0:0:0:
210,109,133733,1,8,0:0:0:0:
210,109,133827,1,0,0:0:0:0:
210,109,134015,1,8,0:0:0:0:
210,109,134202,1,0,0:0:0:0:
210,109,134296,1,8,0:0:0:0:
210,109,134390,1,0,0:0:0:0:
210,109,134483,1,0,0:0:0:0:
210,109,134577,1,8,0:0:0:0:
210,109,134765,1,0,0:0:0:0:
210,109,134858,1,8,0:0:0:0:
246,106,134952,1,0,0:0:0:0:
246,106,135015,1,0,0:0:0:0:
246,106,135077,1,0,0:0:0:0:
246,106,135140,1,8,0:0:0:0:
278,90,135233,1,0,0:0:0:0:
246,106,135327,1,8,0:0:0:0:
212,164,135515,1,0,0:0:0:0:
190,109,135608,1,0,0:0:0:0:
190,109,135702,1,8,0:0:0:0:
190,109,135796,1,0,0:0:0:0:
190,109,135890,1,8,0:0:0:0:
190,109,135983,1,8,0:0:0:0:
190,109,136077,1,8,0:0:0:0:
190,109,136171,1,8,0:0:0:0:
190,109,136265,1,0,0:0:0:0:
190,109,136358,1,0,0:0:0:0:
190,109,136452,1,8,0:0:0:0:
190,109,136546,1,0,0:0:0:0:
190,109,136640,1,8,0:0:0:0:
190,109,136733,1,8,0:0:0:0:
190,109,136827,1,8,0:0:0:0:
190,109,136921,1,8,0:0:0:0:
190,109,137015,1,0,0:0:0:0:
190,109,137108,1,0,0:0:0:0:
190,109,137202,1,8,0:0:0:0:
190,109,137296,1,0,0:0:0:0:
190,109,137390,5,8,0:0:0:0:
190,109,137483,1,8,0:0:0:0:
190,109,137577,1,8,0:0:0:0:
190,109,137671,1,8,0:0:0:0:
209,143,137765,1,0,0:0:0:0:
209,143,137858,1,0,0:0:0:0:
209,143,137952,1,0,0:0:0:0:
209,143,138046,1,0,0:0:0:0:
209,143,138140,1,8,0:0:0:0:
209,143,138233,1,8,0:0:0:0:
209,143,138327,1,0,0:0:0:0:
209,143,138421,1,0,0:0:0:0:
215,151,138515,5,8,0:0:0:0:
215,151,138577,1,8,0:0:0:0:
215,151,138640,1,8,0:0:0:0:
215,151,138702,1,0,0:0:0:0:
258,109,138796,1,0,0:0:0:0:
215,151,138890,1,8,0:0:0:0:
215,151,138952,1,8,0:0:0:0:
215,151,139015,1,8,0:0:0:0:
215,151,139077,1,0,0:0:0:0:
246,112,139171,1,0,0:0:0:0:
215,151,139265,1,8,0:0:0:0:
215,151,139327,1,0,0:0:0:0:
215,151,139390,1,0,0:0:0:0:
215,151,139452,1,8,0:0:0:0:
246,112,139515,1,0,0:0:0:0:
120,144,139577,1,0,0:0:0:0:
200,126,139640,1,8,0:0:0:0:
200,126,139702,1,8,0:0:0:0:
200,126,139765,1,8,0:0:0:0:
200,126,139827,1,8,0:0:0:0:
200,126,139890,1,8,0:0:0:0:
200,126,139952,1,8,0:0:0:0:
200,126,140015,1,0,0:0:0:0:
256,192,140390,12,0,141327,0:0:0:0:
185,117,141515,5,12,0:0:0:0:
159,167,141702,1,0,0:0:0:0:
159,167,141796,1,0,0:0:0:0:
159,167,141983,1,0,0:0:0:0:
159,167,142077,1,8,0:0:0:0:
159,167,142265,1,0,0:0:0:0:
162,122,142358,1,8,0:0:0:0:
162,122,142546,1,8,0:0:0:0:
162,122,142640,1,0,0:0:0:0:
162,122,142733,1,0,0:0:0:0:
162,122,142827,1,8,0:0:0:0:
162,122,143015,1,8,0:0:0:0:
113,126,143202,1,0,0:0:0:0:
113,126,143296,1,0,0:0:0:0:
113,126,143483,1,0,0:0:0:0:
113,126,143577,1,8,0:0:0:0:
129,169,143765,1,0,0:0:0:0:
165,109,143858,1,0,0:0:0:0:
129,169,143952,1,8,0:0:0:0:
101,139,144046,1,0,0:0:0:0:
197,115,144140,1,8,0:0:0:0:
197,115,144233,1,8,0:0:0:0:
129,169,144327,1,0,0:0:0:0:
129,169,144515,1,8,0:0:0:0:
232,128,144702,1,0,0:0:0:0:
232,128,144796,1,0,0:0:0:0:
232,128,144983,1,0,0:0:0:0:
232,128,145077,1,8,0:0:0:0:
231,165,145265,1,0,0:0:0:0:
231,165,145358,1,0,0:0:0:0:
231,165,145452,1,8,0:0:0:0:
231,165,145546,1,0,0:0:0:0:
231,165,145640,1,8,0:0:0:0:
231,165,145827,1,0,0:0:0:0:
231,165,146015,1,8,0:0:0:0:
218,165,146202,1,0,0:0:0:0:
218,165,146296,1,8,0:0:0:0:
230,146,146390,1,0,0:0:0:0:
230,146,146483,1,0,0:0:0:0:
230,146,146577,1,8,0:0:0:0:
230,146,146765,1,8,0:0:0:0:
230,146,146858,1,0,0:0:0:0:
230,146,146952,1,8,0:0:0:0:
210,127,147046,1,8,0:0:0:0:
210,127,147140,1,0,0:0:0:0:
170,152,147233,1,0,0:0:0:0:
170,152,147327,1,0,0:0:0:0:
203,143,147515,1,8,0:0:0:0:
190,127,147702,1,0,0:0:0:0:
190,127,147796,1,0,0:0:0:0:
190,127,147983,1,0,0:0:0:0:
190,127,148077,1,8,0:0:0:0:
180,110,148265,1,0,0:0:0:0:
180,110,148358,1,8,0:0:0:0:
180,110,148546,1,8,0:0:0:0:
180,110,148640,1,0,0:0:0:0:
180,110,148733,1,0,0:0:0:0:
180,110,148827,1,8,0:0:0:0:
180,110,149015,1,8,0:0:0:0:
180,110,149202,1,0,0:0:0:0:
180,110,149296,1,0,0:0:0:0:
180,110,149483,1,0,0:0:0:0:
180,110,149577,1,8,0:0:0:0:
180,110,149765,1,0,0:0:0:0:
180,110,149952,1,8,0:0:0:0:
180,110,150046,1,0,0:0:0:0:
180,110,150140,1,8,0:0:0:0:
180,110,150233,1,8,0:0:0:0:
180,110,150327,1,0,0:0:0:0:
180,110,150515,1,8,0:0:0:0:
191,124,150702,1,0,0:0:0:0:
191,124,150796,1,8,0:0:0:0:
167,124,150890,1,0,0:0:0:0:
167,124,151077,1,0,0:0:0:0:
167,124,151171,1,0,0:0:0:0:
167,124,151265,1,8,0:0:0:0:
167,124,151452,1,8,0:0:0:0:
167,124,151640,1,0,0:0:0:0:
167,124,151733,1,0,0:0:0:0:
167,124,151827,1,8,0:0:0:0:
167,124,152015,1,0,0:0:0:0:
173,104,152202,1,8,0:0:0:0:
173,104,152296,1,0,0:0:0:0:
173,104,152390,1,8,0:0:0:0:
173,104,152483,1,8,0:0:0:0:
173,104,152577,1,0,0:0:0:0:
173,104,152671,1,0,0:0:0:0:
173,104,152765,1,8,0:0:0:0:
173,104,152858,1,8,0:0:0:0:
173,104,152952,1,8,0:0:0:0:
173,104,153046,1,0,0:0:0:0:
173,104,153140,1,8,0:0:0:0:
173,104,153233,1,8,0:0:0:0:
173,104,153327,1,0,0:0:0:0:
173,104,153421,1,0,0:0:0:0:
173,104,153515,1,8,0:0:0:0:
190,145,153702,1,0,0:0:0:0:
190,145,153796,1,8,0:0:0:0:
190,145,153890,1,0,0:0:0:0:
190,145,153983,1,0,0:0:0:0:
190,145,154077,1,8,0:0:0:0:
186,151,154265,1,0,0:0:0:0:
186,151,154358,1,8,0:0:0:0:
186,151,154546,1,8,0:0:0:0:
186,151,154640,1,0,0:0:0:0:
186,151,154733,1,0,0:0:0:0:
186,151,154827,1,8,0:0:0:0:
186,151,155015,1,8,0:0:0:0:
186,151,155202,1,0,0:0:0:0:
186,151,155296,1,8,0:0:0:0:
186,151,155390,1,0,0:0:0:0:
194,165,155483,1,0,0:0:0:0:
186,151,155577,1,8,0:0:0:0:
196,162,155765,1,8,0:0:0:0:
196,162,155858,1,0,0:0:0:0:
196,162,155952,1,8,0:0:0:0:
196,162,156046,1,8,0:0:0:0:
196,162,156140,1,0,0:0:0:0:
194,165,156327,1,8,0:0:0:0:
196,162,156515,1,8,0:0:0:0:
159,151,156702,1,0,0:0:0:0:
159,151,156796,1,8,0:0:0:0:
159,151,156890,1,0,0:0:0:0:
159,151,156983,1,0,0:0:0:0:
159,151,157077,1,8,0:0:0:0:
159,151,157265,1,0,0:0:0:0:
159,151,157358,1,0,0:0:0:0:
159,151,157452,1,8,0:0:0:0:
159,151,157546,1,0,0:0:0:0:
159,151,157640,1,8,0:0:0:0:
159,151,157827,1,0,0:0:0:0:
177,142,157921,1,0,0:0:0:0:
159,151,158015,1,8,0:0:0:0:
177,142,158202,1,0,0:0:0:0:
177,142,158296,1,8,0:0:0:0:
177,142,158390,1,0,0:0:0:0:
177,142,158483,1,0,0:0:0:0:
177,142,158577,1,8,0:0:0:0:
177,142,158765,1,8,0:0:0:0:
177,142,158858,1,0,0:0:0:0:
177,142,158952,1,8,0:0:0:0:
177,142,159046,1,8,0:0:0:0:
177,142,159140,1,0,0:0:0:0:
237,179,159515,5,0,0:0:0:0:
172,132,159702,1,0,0:0:0:0:
172,132,159796,1,8,0:0:0:0:
172,132,159890,1,0,0:0:0:0:
172,132,160077,1,8,0:0:0:0:
172,132,160265,1,0,0:0:0:0:
172,132,160452,1,0,0:0:0:0:
172,132,160546,1,8,0:0:0:0:
172,132,160640,1,0,0:0:0:0:
164,97,160733,1,0,0:0:0:0:
172,132,160827,1,8,0:0:0:0:
164,97,161015,1,0,0:0:0:0:
164,97,161202,1,0,0:0:0:0:
164,97,161296,1,8,0:0:0:0:
164,97,161390,1,0,0:0:0:0:
164,97,161577,1,8,0:0:0:0:
164,97,161765,1,0,0:0:0:0:
164,97,161952,1,0,0:0:0:0:
164,97,162046,1,8,0:0:0:0:
164,97,162140,1,0,0:0:0:0:
164,97,162233,1,0,0:0:0:0:
164,97,162327,1,8,0:0:0:0:
241,210,162515,1,0,0:0:0:0:
241,210,162608,1,0,0:0:0:0:
241,210,162702,1,0,0:0:0:0:
241,210,162796,1,0,0:0:0:0:
241,210,162890,1,8,0:0:0:0:
241,210,162983,1,0,0:0:0:0:
241,210,163077,1,8,0:0:0:0:
242,181,163124,1,8,0:0:0:0:
242,181,163171,1,8,0:0:0:0:
229,125,163265,1,0,0:0:0:0:
229,165,163358,1,0,0:0:0:0:
229,165,163452,1,8,0:0:0:0:
229,165,163546,1,0,0:0:0:0:
229,165,163640,1,8,0:0:0:0:
229,165,163733,1,8,0:0:0:0:
229,165,163827,1,0,0:0:0:0:
229,165,163921,1,8,0:0:0:0:
229,165,164015,1,0,0:0:0:0:
256,192,164202,12,0,165327,0:0:0:0:
178,158,165515,5,4,0:0:0:0:
219,171,165702,1,8,0:0:0:0:
219,171,165796,1,8,0:0:0:0:
219,171,165890,1,8,0:0:0:0:
219,171,165983,1,8,0:0:0:0:
117,163,166077,1,4,0:0:0:0:
219,171,166265,1,8,0:0:0:0:
219,171,166358,1,0,0:0:0:0:
219,171,166452,1,8,0:0:0:0:
219,171,166546,1,8,0:0:0:0:
146,143,166640,1,4,0:0:0:0:
219,171,166827,1,8,0:0:0:0:
219,171,166921,1,8,0:0:0:0:
185,94,167015,1,0,0:0:0:0:
185,94,167108,1,8,0:0:0:0:
146,143,167202,1,0,0:0:0:0:
178,61,167296,1,0,0:0:0:0:
178,61,167390,1,8,0:0:0:0:
178,61,167483,1,0,0:0:0:0:
178,61,167577,1,8,0:0:0:0:
178,61,167671,1,8,0:0:0:0:
146,143,167765,1,0,0:0:0:0:
177,114,167858,1,8,0:0:0:0:
167,95,167952,1,8,0:0:0:0:
167,95,168046,1,8,0:0:0:0:
146,143,168140,1,4,0:0:0:0:
146,143,168515,1,4,0:0:0:0:
181,174,168702,1,8,0:0:0:0:
181,174,168796,1,8,0:0:0:0:
181,174,168890,1,8,0:0:0:0:
181,174,168983,1,8,0:0:0:0:
181,174,169077,1,4,0:0:0:0:
181,174,169265,1,8,0:0:0:0:
181,174,169358,1,0,0:0:0:0:
181,174,169452,1,8,0:0:0:0:
181,174,169546,1,8,0:0:0:0:
181,174,169640,1,4,0:0:0:0:
184,122,169827,1,8,0:0:0:0:
184,122,169921,1,0,0:0:0:0:
184,122,170015,1,0,0:0:0:0:
184,122,170108,1,8,0:0:0:0:
184,122,170202,1,0,0:0:0:0:
184,122,170296,1,8,0:0:0:0:
184,122,170390,1,0,0:0:0:0:
184,122,170483,1,0,0:0:0:0:
184,122,170577,1,8,0:0:0:0:
184,122,170671,1,8,0:0:0:0:
184,122,170765,1,0,0:0:0:0:
184,122,170858,1,8,0:0:0:0:
184,122,170952,1,0,0:0:0:0:
184,122,171140,1,12,0:0:0:0:
184,122,171515,1,4,0:0:0:0:
219,171,171702,1,8,0:0:0:0:
219,171,171796,1,8,0:0:0:0:
219,171,171890,1,8,0:0:0:0:
219,171,171983,1,8,0:0:0:0:
117,163,172077,1,4,0:0:0:0:
219,171,172265,1,8,0:0:0:0:
219,171,172358,1,0,0:0:0:0:
219,171,172452,1,8,0:0:0:0:
219,171,172546,1,8,0:0:0:0:
146,143,172640,1,4,0:0:0:0:
219,171,172827,1,8,0:0:0:0:
219,171,172921,1,8,0:0:0:0:
185,94,173015,1,0,0:0:0:0:
185,94,173108,1,8,0:0:0:0:
146,143,173202,1,0,0:0:0:0:
178,61,173296,1,0,0:0:0:0:
178,61,173390,1,8,0:0:0:0:
178,61,173483,1,0,0:0:0:0:
178,61,173577,1,8,0:0:0:0:
178,61,173671,1,8,0:0:0:0:
146,143,173765,1,0,0:0:0:0:
177,114,173858,1,8,0:0:0:0:
167,95,173952,1,8,0:0:0:0:
167,95,174046,1,8,0:0:0:0:
146,143,174140,1,4,0:0:0:0:
206,172,174515,1,0,0:0:0:0:
206,172,174702,1,0,0:0:0:0:
206,172,174890,1,8,0:0:0:0:
206,172,175077,1,0,0:0:0:0:
206,172,175265,1,8,0:0:0:0:
206,172,175358,1,0,0:0:0:0:
206,172,175452,1,8,0:0:0:0:
206,172,175546,1,8,0:0:0:0:
206,172,175640,1,0,0:0:0:0:
206,172,175733,1,8,0:0:0:0:
206,172,175827,1,8,0:0:0:0:
206,172,175921,1,8,0:0:0:0:
256,192,176015,12,0,177327,0:0:0:0:
213,124,177515,5,4,0:0:0:0:
127,182,177890,1,8,0:0:0:0:
127,182,177983,1,0,0:0:0:0:
127,182,178077,1,0,0:0:0:0:
127,182,178171,1,8,0:0:0:0:
127,182,178265,1,0,0:0:0:0:
127,182,178640,1,8,0:0:0:0:
127,182,178733,1,8,0:0:0:0:
127,182,178827,1,0,0:0:0:0:
127,182,178921,1,8,0:0:0:0:
127,182,179015,1,0,0:0:0:0:
127,182,179390,1,8,0:0:0:0:
127,182,179483,1,0,0:0:0:0:
127,182,179577,1,0,0:0:0:0:
127,182,179671,1,8,0:0:0:0:
127,182,179765,1,0,0:0:0:0:
127,182,179858,1,0,0:0:0:0:
127,182,179952,1,0,0:0:0:0:
127,182,180046,1,0,0:0:0:0:
127,182,180140,1,8,0:0:0:0:
127,182,180890,1,8,0:0:0:0:
127,182,180983,1,0,0:0:0:0:
127,182,181077,1,0,0:0:0:0:
127,182,181171,1,8,0:0:0:0:
127,182,181265,1,0,0:0:0:0:
136,141,181640,1,8,0:0:0:0:
136,141,181827,1,0,0:0:0:0:
136,141,181921,1,8,0:0:0:0:
209,163,182015,1,0,0:0:0:0:
209,163,182108,1,0,0:0:0:0:
209,163,182202,1,8,0:0:0:0:
209,163,182296,1,0,0:0:0:0:
209,163,182390,1,8,0:0:0:0:
209,163,182483,1,8,0:0:0:0:
209,163,182577,1,0,0:0:0:0:
209,163,182671,1,8,0:0:0:0:
209,163,182765,1,0,0:0:0:0:
209,163,182858,1,0,0:0:0:0:
209,163,182952,1,8,0:0:0:0:
209,163,183046,1,0,0:0:0:0:
209,163,183140,1,8,0:0:0:0:
209,163,183233,1,0,0:0:0:0:
209,163,183327,1,0,0:0:0:0:
209,163,183421,1,8,0:0:0:0:
209,163,183515,1,0,0:0:0:0:
159,179,183890,1,8,0:0:0:0:
159,179,184077,1,0,0:0:0:0:
159,179,184171,1,8,0:0:0:0:
159,179,184265,1,0,0:0:0:0:
190,160,184452,1,0,0:0:0:0:
190,160,184546,1,0,0:0:0:0:
190,160,184640,1,8,0:0:0:0:
190,160,184733,1,0,0:0:0:0:
190,160,184827,1,8,0:0:0:0:
190,160,184921,1,8,0:0:0:0:
190,160,185015,1,0,0:0:0:0:
156,137,185390,1,8,0:0:0:0:
156,137,185577,1,0,0:0:0:0:
156,137,185671,1,0,0:0:0:0:
156,137,185765,1,8,0:0:0:0:
156,137,185858,1,0,0:0:0:0:
156,137,185952,1,8,0:0:0:0:
156,137,186140,1,0,0:0:0:0:
156,137,186515,1,0,0:0:0:0:
156,137,186890,1,8,0:0:0:0:
156,137,186983,1,0,0:0:0:0:
156,137,187077,1,0,0:0:0:0:
156,137,187171,1,8,0:0:0:0:
156,137,187265,1,0,0:0:0:0:
228,154,187640,1,8,0:0:0:0:
182,139,187827,1,0,0:0:0:0:
182,139,187921,1,8,0:0:0:0:
182,139,188015,1,0,0:0:0:0:
182,139,188108,1,0,0:0:0:0:
182,139,188202,1,8,0:0:0:0:
182,139,188296,1,0,0:0:0:0:
182,139,188390,1,8,0:0:0:0:
182,139,188483,1,8,0:0:0:0:
182,139,188577,1,0,0:0:0:0:
182,139,188671,1,8,0:0:0:0:
182,139,188765,1,0,0:0:0:0:
182,139,188858,1,0,0:0:0:0:
182,139,188952,1,8,0:0:0:0:
182,139,189046,1,0,0:0:0:0:
208,136,189140,1,8,0:0:0:0:
208,136,189233,1,8,0:0:0:0:
208,136,189327,1,8,0:0:0:0:
193,124,189421,1,8,0:0:0:0:
208,136,189515,1,0,0:0:0:0:
214,130,190827,1,0,0:0:0:0:
214,130,192327,1,8,0:0:0:0:
184,145,192702,1,8,0:0:0:0:
184,145,192890,1,8,0:0:0:0:
184,145,193077,1,0,0:0:0:0:
184,145,193265,1,8,0:0:0:0:
184,145,193546,1,8,0:0:0:0:
184,145,193827,1,0,0:0:0:0:
137,155,194108,1,0,0:0:0:0:
162,170,194390,1,8,0:0:0:0:
162,170,194671,1,0,0:0:0:0:
162,170,194952,1,8,0:0:0:0:
238,164,195233,1,0,0:0:0:0:
256,184,195515,5,0,0:0:0:0:
256,184,195702,1,0,0:0:0:0:
256,184,195890,1,8,0:0:0:0:
272,176,196077,1,0,0:0:0:0:
272,176,196171,1,0,0:0:0:0:
272,176,196265,1,0,0:0:0:0:
272,176,196452,1,0,0:0:0:0:
272,176,196640,1,8,0:0:0:0:
272,176,196827,1,0,0:0:0:0:
272,176,197015,1,0,0:0:0:0:
272,176,197202,1,0,0:0:0:0:
272,176,197390,1,8,0:0:0:0:
272,176,197577,1,0,0:0:0:0:
272,176,197671,1,0,0:0:0:0:
272,176,197765,1,0,0:0:0:0:
272,176,197952,1,0,0:0:0:0:
272,176,198140,1,8,0:0:0:0:
272,176,198327,1,0,0:0:0:0:
288,160,198515,5,0,0:0:0:0:
216,152,198608,1,0,0:0:0:0:
216,152,198702,1,0,0:0:0:0:
216,152,198796,1,0,0:0:0:0:
216,152,198890,1,8,0:0:0:0:
216,152,198983,1,8,0:0:0:0:
216,152,199077,1,0,0:0:0:0:
216,152,199171,1,0,0:0:0:0:
216,152,199265,1,0,0:0:0:0:
216,152,199358,1,0,0:0:0:0:
216,152,199452,1,0,0:0:0:0:
216,152,199546,1,0,0:0:0:0:
216,152,199640,1,8,0:0:0:0:
216,152,199733,1,8,0:0:0:0:
216,152,199827,1,0,0:0:0:0:
216,152,199921,1,0,0:0:0:0:
48,152,200015,5,0,0:0:0:0:
48,152,200108,1,0,0:0:0:0:
224,152,200202,1,8,0:0:0:0:
224,152,200249,1,8,0:0:0:0:
224,152,200296,1,0,0:0:0:0:
224,152,200390,1,0,0:0:0:0:
208,144,200483,1,8,0:0:0:0:
208,144,200530,1,8,0:0:0:0:
192,80,200577,1,0,0:0:0:0:
192,80,200671,1,0,0:0:0:0:
296,152,200765,1,8,0:0:0:0:
296,152,200890,1,8,0:0:0:0:
296,152,201015,1,8,0:0:0:0:
296,152,201140,1,4,0:0:0:0:
256,168,201515,1,4,0:0:0:0:
256,168,201702,1,8,0:0:0:0:
256,168,201796,1,8,0:0:0:0:
256,168,201983,1,8,0:0:0:0:
256,168,202077,1,8,0:0:0:0:
256,168,202265,1,0,0:0:0:0:
256,168,202358,1,8,0:0:0:0:
256,168,202452,1,0,0:0:0:0:
256,168,202546,1,0,0:0:0:0:
256,168,202640,1,8,0:0:0:0:
168,160,202827,1,0,0:0:0:0:
168,160,203015,1,8,0:0:0:0:
168,160,203108,1,0,0:0:0:0:
168,160,203202,1,0,0:0:0:0:
168,160,203296,1,8,0:0:0:0:
168,160,203483,1,8,0:0:0:0:
160,48,203577,1,8,0:0:0:0:
160,112,203671,1,8,0:0:0:0:
168,160,203765,1,0,0:0:0:0:
160,48,203858,1,0,0:0:0:0:
304,120,203952,1,12,0:0:0:0:
304,120,204233,1,12,0:0:0:0:
304,120,204515,1,4,0:0:0:0:
200,112,204702,1,0,0:0:0:0:
200,112,204796,1,8,0:0:0:0:
200,112,204890,1,0,0:0:0:0:
200,112,205077,1,0,0:0:0:0:
200,112,205171,1,8,0:0:0:0:
208,96,205358,1,8,0:0:0:0:
208,96,205452,1,8,0:0:0:0:
208,96,205640,1,0,0:0:0:0:
208,96,205827,1,8,0:0:0:0:
208,96,205921,1,8,0:0:0:0:
208,112,206015,1,0,0:0:0:0:
192,56,206108,5,0,0:0:0:0:
192,72,206202,1,8,0:0:0:0:
192,72,206296,1,0,0:0:0:0:
192,72,206390,1,8,0:0:0:0:
192,72,206483,1,8,0:0:0:0:
192,72,206577,1,0,0:0:0:0:
192,72,206671,1,0,0:0:0:0:
296,88,206765,1,8,0:0:0:0:
296,88,206890,1,8,0:0:0:0:
296,88,207015,1,8,0:0:0:0:
296,88,207140,1,12,0:0:0:0:
176,176,207515,1,4,0:0:0:0:
192,144,207702,1,8,0:0:0:0:
192,144,207796,1,8,0:0:0:0:
192,144,207890,1,0,0:0:0:0:
192,144,207983,1,0,0:0:0:0:
192,144,208077,1,8,0:0:0:0:
192,144,208171,1,0,0:0:0:0:
192,144,208358,1,0,0:0:0:0:
192,144,208452,1,0,0:0:0:0:
192,144,208640,1,8,0:0:0:0:
184,136,208827,1,0,0:0:0:0:
184,160,209015,1,8,0:0:0:0:
184,160,209108,1,8,0:0:0:0:
184,160,209202,1,0,0:0:0:0:
184,160,209296,1,0,0:0:0:0:
184,160,209390,1,8,0:0:0:0:
184,160,209483,1,0,0:0:0:0:
184,160,209577,1,8,0:0:0:0:
184,160,209671,1,8,0:0:0:0:
184,160,209765,1,0,0:0:0:0:
184,160,209858,1,0,0:0:0:0:
176,136,209952,1,12,0:0:0:0:
176,136,210233,1,12,0:0:0:0:
176,136,210515,1,4,0:0:0:0:
192,136,210702,1,0,0:0:0:0:
192,136,210796,1,0,0:0:0:0:
192,136,210890,1,8,0:0:0:0:
192,136,211077,1,0,0:0:0:0:
192,136,211171,1,8,0:0:0:0:
192,136,211265,1,0,0:0:0:0:
192,136,211358,1,0,0:0:0:0:
192,136,211452,1,0,0:0:0:0:
192,136,211640,1,8,0:0:0:0:
192,136,211827,1,0,0:0:0:0:
192,144,212015,1,4,0:0:0:0:
192,144,212390,1,12,0:0:0:0:
173,156,212765,1,0,0:0:0:0:
174,155,212858,1,8,0:0:0:0:
174,155,212952,1,0,0:0:0:0:
174,155,213046,1,0,0:0:0:0:
174,155,213140,1,8,0:0:0:0:
174,155,213233,1,0,0:0:0:0:
173,156,213327,1,8,0:0:0:0:
173,156,213421,1,8,0:0:0:0:
173,156,213515,1,0,0:0:0:0:
256,179,213608,1,0,0:0:0:0:
256,179,213702,1,0,0:0:0:0:
256,179,213796,1,0,0:0:0:0:
280,200,213890,1,8,0:0:0:0:
280,200,213983,1,8,0:0:0:0:
280,200,214077,1,8,0:0:0:0:
280,200,214171,1,8,0:0:0:0:
280,200,214265,1,0,0:0:0:0:
280,200,214358,1,0,0:0:0:0:
280,200,214452,1,0,0:0:0:0:
280,200,214546,1,0,0:0:0:0:
280,200,214640,1,8,0:0:0:0:
280,200,214733,1,8,0:0:0:0:
280,200,214827,1,8,0:0:0:0:
280,200,214921,1,8,0:0:0:0:
280,200,215015,1,0,0:0:0:0:
280,200,215108,1,0,0:0:0:0:
280,200,215202,1,0,0:0:0:0:
216,152,215296,1,0,0:0:0:0:
216,152,215390,1,8,0:0:0:0:
216,152,215483,1,0,0:0:0:0:
216,152,215577,1,8,0:0:0:0:
216,152,215671,1,8,0:0:0:0:
216,152,215765,1,0,0:0:0:0:
216,152,215858,1,8,0:0:0:0:
216,152,215952,1,0,0:0:0:0:
216,152,216046,1,0,0:0:0:0:
188,184,216140,1,12,0:0:0:0:
240,152,216515,1,0,0:0:0:0:
240,152,216608,1,0,0:0:0:0:
240,152,216702,1,0,0:0:0:0:
240,152,216796,1,0,0:0:0:0:
240,152,216890,1,8,0:0:0:0:
240,152,216983,1,8,0:0:0:0:
240,152,217077,1,8,0:0:0:0:
240,152,217171,1,8,0:0:0:0:
240,152,217265,1,0,0:0:0:0:
240,152,217358,1,0,0:0:0:0:
240,152,217452,1,0,0:0:0:0:
240,152,217546,1,0,0:0:0:0:
200,80,217640,1,8,0:0:0:0:
240,152,217733,1,0,0:0:0:0:
200,80,217827,1,8,0:0:0:0:
200,80,217921,1,8,0:0:0:0:
200,80,218015,1,0,0:0:0:0:
200,80,218108,1,8,0:0:0:0:
200,80,218202,1,0,0:0:0:0:
200,80,218296,1,0,0:0:0:0:
313,80,218390,1,8,0:0:0:0:
313,80,218436,1,8,0:0:0:0:
313,80,218483,1,8,0:0:0:0:
80,152,218577,1,0,0:0:0:0:
80,152,218671,1,8,0:0:0:0:
80,152,218765,1,0,0:0:0:0:
80,152,218952,1,0,0:0:0:0:
80,152,219046,1,0,0:0:0:0:
167,150,219140,1,8,0:0:0:0:
224,104,219327,1,8,0:0:0:0:
264,80,219374,1,8,0:0:0:0:
264,80,219421,1,8,0:0:0:0:
304,168,219515,1,0,0:0:0:0:
304,168,219608,1,0,0:0:0:0:
304,168,219702,1,0,0:0:0:0:
304,168,219796,1,0,0:0:0:0:
280,168,219890,1,8,0:0:0:0:
280,168,219983,1,8,0:0:0:0:
280,168,220077,1,8,0:0:0:0:
280,168,220171,1,8,0:0:0:0:
280,168,220265,1,0,0:0:0:0:
280,168,220358,1,0,0:0:0:0:
280,168,220452,1,0,0:0:0:0:
280,168,220546,1,0,0:0:0:0:
280,168,220640,1,8,0:0:0:0:
280,168,220733,1,8,0:0:0:0:
280,168,220827,1,8,0:0:0:0:
280,168,220921,1,8,0:0:0:0:
280,168,221015,1,0,0:0:0:0:
280,168,221108,1,0,0:0:0:0:
280,168,221202,1,0,0:0:0:0:
280,168,221296,1,0,0:0:0:0:
280,168,221390,1,8,0:0:0:0:
280,168,221483,1,0,0:0:0:0:
280,168,221577,1,8,0:0:0:0:
280,168,221671,1,8,0:0:0:0:
280,168,221765,1,0,0:0:0:0:
280,168,221858,1,8,0:0:0:0:
280,168,221952,1,0,0:0:0:0:
280,168,222046,1,0,0:0:0:0:
232,88,222140,1,12,0:0:0:0:
232,176,222515,1,0,0:0:0:0:
232,176,222608,1,0,0:0:0:0:
232,176,222702,1,0,0:0:0:0:
232,176,222796,1,0,0:0:0:0:
232,176,222890,1,8,0:0:0:0:
232,176,222983,1,8,0:0:0:0:
232,176,223077,1,8,0:0:0:0:
232,176,223171,1,8,0:0:0:0:
232,176,223265,1,0,0:0:0:0:
232,176,223358,1,0,0:0:0:0:
232,176,223452,1,0,0:0:0:0:
232,176,223546,1,0,0:0:0:0:
232,176,223640,1,8,0:0:0:0:
232,176,223733,1,0,0:0:0:0:
232,176,223827,1,8,0:0:0:0:
232,176,223921,1,8,0:0:0:0:
232,176,224015,1,0,0:0:0:0:
232,176,224108,1,8,0:0:0:0:
232,176,224202,1,0,0:0:0:0:
232,176,224296,1,0,0:0:0:0:
232,88,224390,1,8,0:0:0:0:
232,88,224436,1,8,0:0:0:0:
232,88,224483,1,8,0:0:0:0:
208,80,224577,1,0,0:0:0:0:
208,80,224671,1,8,0:0:0:0:
176,152,224765,1,0,0:0:0:0:
224,88,224858,1,0,0:0:0:0:
224,88,224952,1,0,0:0:0:0:
224,88,225046,1,0,0:0:0:0:
224,88,225140,1,12,0:0:0:0:
240,168,225515,1,4,0:0:0:0:
240,168,225702,1,8,0:0:0:0:
240,168,225796,1,0,0:0:0:0:
240,168,225983,1,8,0:0:0:0:
240,168,226077,1,0,0:0:0:0:
240,168,226265,1,8,0:0:0:0:
240,168,226358,1,8,0:0:0:0:
240,168,226546,1,0,0:0:0:0:
240,168,226640,1,8,0:0:0:0:
200,144,226827,1,0,0:0:0:0:
200,144,226921,1,0,0:0:0:0:
200,144,227015,1,0,0:0:0:0:
200,144,227202,1,8,0:0:0:0:
200,144,227296,1,0,0:0:0:0:
200,144,227483,1,8,0:0:0:0:
200,144,227577,1,0,0:0:0:0:
200,144,227765,1,8,0:0:0:0:
200,144,227858,1,0,0:0:0:0:
200,144,228046,1,0,0:0:0:0:
200,144,228140,1,8,0:0:0:0:
136,112,228515,1,4,0:0:0:0:
136,112,228702,1,8,0:0:0:0:
136,112,228796,1,0,0:0:0:0:
136,112,228983,1,8,0:0:0:0:
136,112,229077,1,0,0:0:0:0:
136,112,229265,1,8,0:0:0:0:
136,112,229358,1,8,0:0:0:0:
136,112,229546,1,0,0:0:0:0:
136,112,229640,1,8,0:0:0:0:
136,112,229827,1,0,0:0:0:0:
136,112,229921,1,0,0:0:0:0:
136,112,230015,1,0,0:0:0:0:
136,112,230202,1,8,0:0:0:0:
136,112,230296,1,0,0:0:0:0:
136,112,230483,1,8,0:0:0:0:
136,112,230577,1,0,0:0:0:0:
136,112,230765,1,8,0:0:0:0:
136,112,230858,1,8,0:0:0:0:
144,120,231046,1,0,0:0:0:0:
144,120,231140,1,8,0:0:0:0:
192,72,231233,1,0,0:0:0:0:
240,160,231327,1,0,0:0:0:0:
240,160,231374,1,0,0:0:0:0:
240,160,231421,1,0,0:0:0:0:
240,160,231515,1,8,0:0:0:0:
240,152,231608,1,8,0:0:0:0:
240,152,231702,1,0,0:0:0:0:
240,152,231796,1,0,0:0:0:0:
232,160,231890,1,8,0:0:0:0:
232,160,231983,1,0,0:0:0:0:
232,160,232077,1,8,0:0:0:0:
200,120,232171,1,8,0:0:0:0:
176,120,232265,1,0,0:0:0:0:
176,120,232358,1,8,0:0:0:0:
176,120,232452,1,0,0:0:0:0:
176,120,232546,1,0,0:0:0:0:
176,120,232640,1,8,0:0:0:0:
176,120,232733,1,0,0:0:0:0:
176,120,232827,1,8,0:0:0:0:
176,120,232921,1,8,0:0:0:0:
256,192,233015,12,0,234327,0:0:0:0:
256,192,234515,12,0,235452,0:0:0:0:
191,61,235640,5,4,0:0:0:0:
265,116,235827,1,4,0:0:0:0:
144,168,236015,1,8,0:0:0:0:
144,168,236108,1,8,0:0:0:0:
144,168,236202,1,8,0:0:0:0:
144,168,236296,1,0,0:0:0:0:
144,168,236390,1,8,0:0:0:0:
144,168,236483,1,8,0:0:0:0:
144,168,236577,1,0,0:0:0:0:
144,168,236671,1,0,0:0:0:0:
144,168,236765,1,8,0:0:0:0:
144,168,236858,1,8,0:0:0:0:
144,168,236952,1,0,0:0:0:0:
48,144,237046,1,8,0:0:0:0:
48,144,237140,1,4,0:0:0:0:
222,150,237515,1,4,0:0:0:0:
194,123,237702,1,0,0:0:0:0:
194,123,237796,1,8,0:0:0:0:
218,114,237983,1,8,0:0:0:0:
218,114,238077,1,0,0:0:0:0:
218,114,238265,1,0,0:0:0:0:
218,114,238358,1,0,0:0:0:0:
218,114,238452,1,8,0:0:0:0:
218,114,238546,1,0,0:0:0:0:
218,114,238640,1,8,0:0:0:0:
218,114,238733,1,8,0:0:0:0:
218,114,238827,1,0,0:0:0:0:
218,114,238921,1,0,0:0:0:0:
218,114,239015,1,8,0:0:0:0:
107,135,239108,1,0,0:0:0:0:
107,135,239202,1,0,0:0:0:0:
107,135,239296,1,8,0:0:0:0:
107,135,239483,1,8,0:0:0:0:
107,135,239577,1,0,0:0:0:0:
107,135,239671,1,8,0:0:0:0:
107,135,239765,1,0,0:0:0:0:
200,138,239858,5,0,0:0:0:0:
200,138,239952,1,8,0:0:0:0:
200,138,240140,1,0,0:0:0:0:
200,138,240327,1,8,0:0:0:0:
200,138,240515,1,4,0:0:0:0:
165,152,240702,1,0,0:0:0:0:
165,152,240796,1,8,0:0:0:0:
165,152,240983,1,8,0:0:0:0:
165,152,241077,1,0,0:0:0:0:
128,156,241265,1,0,0:0:0:0:
128,156,241358,1,0,0:0:0:0:
128,156,241452,1,8,0:0:0:0:
128,156,241546,1,0,0:0:0:0:
128,156,241640,1,8,0:0:0:0:
128,156,241827,1,0,0:0:0:0:
166,133,241921,1,0,0:0:0:0:
153,141,242015,1,8,0:0:0:0:
153,141,242108,1,0,0:0:0:0:
153,141,242202,1,0,0:0:0:0:
153,141,242296,1,8,0:0:0:0:
180,141,242483,1,8,0:0:0:0:
180,141,242671,1,0,0:0:0:0:
180,141,242765,1,0,0:0:0:0:
180,141,242858,1,0,0:0:0:0:
180,141,242952,1,8,0:0:0:0:
180,141,243140,1,0,0:0:0:0:
180,141,243327,1,8,0:0:0:0:
264,124,243421,1,8,0:0:0:0:
187,89,243515,1,4,0:0:0:0:
167,139,243702,1,0,0:0:0:0:
167,139,243796,1,8,0:0:0:0:
167,139,243983,1,8,0:0:0:0:
167,139,244077,1,0,0:0:0:0:
167,139,244265,1,0,0:0:0:0:
167,139,244358,1,0,0:0:0:0:
167,139,244452,1,8,0:0:0:0:
167,139,244546,1,0,0:0:0:0:
167,139,244640,1,8,0:0:0:0:
167,139,244733,1,8,0:0:0:0:
167,139,244827,1,0,0:0:0:0:
167,139,244921,1,0,0:0:0:0:
167,139,245015,1,8,0:0:0:0:
167,139,245108,1,0,0:0:0:0:
167,139,245202,1,0,0:0:0:0:
167,139,245296,1,8,0:0:0:0:
167,139,245483,1,8,0:0:0:0:
167,139,245577,1,0,0:0:0:0:
167,139,245671,1,8,0:0:0:0:
167,139,245765,1,0,0:0:0:0:
167,139,245858,1,0,0:0:0:0:
167,139,245952,1,8,0:0:0:0:
167,139,246140,1,0,0:0:0:0:
167,139,246327,1,8,0:0:0:0:
167,139,246515,1,4,0:0:0:0:
203,152,246702,1,0,0:0:0:0:
203,152,246796,1,8,0:0:0:0:
203,152,246890,1,0,0:0:0:0:
203,152,246983,1,0,0:0:0:0:
203,152,247077,1,8,0:0:0:0:
203,152,247171,1,8,0:0:0:0:
203,152,247265,1,0,0:0:0:0:
203,152,247358,1,8,0:0:0:0:
203,152,247452,1,0,0:0:0:0:
203,152,247546,1,0,0:0:0:0:
203,152,247640,1,8,0:0:0:0:
203,152,247827,1,0,0:0:0:0:
188,135,248015,1,8,0:0:0:0:
236,151,248108,1,0,0:0:0:0:
236,151,248202,1,0,0:0:0:0:
188,135,248296,1,8,0:0:0:0:
236,151,248390,1,0,0:0:0:0:
236,151,248483,1,0,0:0:0:0:
188,135,248577,1,8,0:0:0:0:
236,151,248671,1,0,0:0:0:0:
188,135,248765,1,8,0:0:0:0:
256,172,248811,1,8,0:0:0:0:
256,172,248858,1,8,0:0:0:0:
237,160,248952,1,0,0:0:0:0:
246,143,249046,1,0,0:0:0:0:
237,160,249140,1,8,0:0:0:0:
237,160,249202,1,8,0:0:0:0:
237,160,249265,1,8,0:0:0:0:
237,160,249327,1,8,0:0:0:0:
237,160,249390,1,8,0:0:0:0:
237,160,249452,1,8,0:0:0:0:
237,160,249515,1,0,0:0:0:0:
161,140,249702,1,8,0:0:0:0:
161,140,249796,1,8,0:0:0:0:
161,140,249890,1,4,0:0:0:0:
168,138,250077,1,8,0:0:0:0:
168,138,250265,1,0,0:0:0:0:
168,138,250358,1,8,0:0:0:0:
168,138,250546,1,0,0:0:0:0:
168,138,250640,1,8,0:0:0:0:
168,138,250733,1,8,0:0:0:0:
168,138,250827,1,0,0:0:0:0:
168,138,251015,1,8,0:0:0:0:
168,138,251202,1,0,0:0:0:0:
168,138,251296,1,8,0:0:0:0:
168,138,251390,1,0,0:0:0:0:
128,144,251483,1,8,0:0:0:0:
168,138,251577,1,8,0:0:0:0:
168,138,251765,1,0,0:0:0:0:
168,138,251858,1,8,0:0:0:0:
168,138,251952,1,0,0:0:0:0:
168,138,252046,1,0,0:0:0:0:
168,138,252140,1,8,0:0:0:0:
168,138,252233,1,0,0:0:0:0:
168,138,252327,1,0,0:0:0:0:
156,141,252421,1,0,0:0:0:0:
156,141,252515,1,8,0:0:0:0:
178,142,252702,1,0,0:0:0:0:
178,142,252796,1,8,0:0:0:0:
178,142,252890,1,0,0:0:0:0:
178,142,253077,1,8,0:0:0:0:
178,142,253265,1,0,0:0:0:0:
178,142,253358,1,8,0:0:0:0:
167,138,253546,1,0,0:0:0:0:
167,138,253640,1,8,0:0:0:0:
185,125,253733,1,8,0:0:0:0:
167,138,253827,1,0,0:0:0:0:
165,117,254015,1,8,0:0:0:0:
165,117,254108,1,0,0:0:0:0:
165,117,254202,1,0,0:0:0:0:
165,117,254296,1,8,0:0:0:0:
165,117,254390,1,0,0:0:0:0:
165,117,254483,1,0,0:0:0:0:
165,116,254577,1,8,0:0:0:0:
161,92,254765,5,0,0:0:0:0:
161,92,254858,1,8,0:0:0:0:
161,92,254952,1,0,0:0:0:0:
161,92,255046,1,0,0:0:0:0:
161,92,255140,1,8,0:0:0:0:
161,92,255233,1,8,0:0:0:0:
161,92,255327,1,0,0:0:0:0:
161,92,255515,1,4,0:0:0:0:
158,138,255702,1,8,0:0:0:0:
158,138,255796,1,0,0:0:0:0:
158,138,255983,1,0,0:0:0:0:
158,138,256077,1,8,0:0:0:0:
238,215,256171,1,0,0:0:0:0:
158,138,256265,1,0,0:0:0:0:
158,138,256452,1,8,0:0:0:0:
158,138,256640,1,0,0:0:0:0:
158,138,256733,1,0,0:0:0:0:
158,138,256827,1,8,0:0:0:0:
160,166,257015,1,0,0:0:0:0:
160,166,257202,1,8,0:0:0:0:
160,166,257296,1,0,0:0:0:0:
160,166,257483,1,0,0:0:0:0:
160,166,257577,1,8,0:0:0:0:
173,94,257671,1,8,0:0:0:0:
160,166,257765,1,0,0:0:0:0:
160,166,257952,1,8,0:0:0:0:
160,166,258046,1,8,0:0:0:0:
160,166,258140,1,0,0:0:0:0:
160,166,258233,1,0,0:0:0:0:
160,166,258327,1,8,0:0:0:0:
160,166,258515,1,12,0:0:0:0:
154,153,258702,1,0,0:0:0:0:
154,153,258796,1,0,0:0:0:0:
154,153,258983,1,0,0:0:0:0:
154,153,259077,1,8,0:0:0:0:
156,125,259265,1,0,0:0:0:0:
156,125,259358,1,0,0:0:0:0:
156,125,259546,1,0,0:0:0:0:
156,125,259640,1,8,0:0:0:0:
156,125,259733,1,0,0:0:0:0:
156,125,259827,1,8,0:0:0:0:
256,192,260015,12,0,260577,0:0:0:0:
138,111,260765,5,8,0:0:0:0:
138,111,260858,1,8,0:0:0:0:
138,111,260952,1,0,0:0:0:0:
138,111,261046,1,0,0:0:0:0:
138,111,261140,1,8,0:0:0:0:
138,111,261233,1,0,0:0:0:0:
138,111,261327,1,0,0:0:0:0:
138,111,261421,1,8,0:0:0:0:
222,150,261515,1,4,0:0:0:0:
194,123,261702,1,0,0:0:0:0:
194,123,261796,1,8,0:0:0:0:
218,114,261983,1,8,0:0:0:0:
218,114,262077,1,0,0:0:0:0:
218,114,262265,1,0,0:0:0:0:
218,114,262358,1,0,0:0:0:0:
218,114,262452,1,8,0:0:0:0:
218,114,262546,1,0,0:0:0:0:
218,114,262640,1,8,0:0:0:0:
218,114,262733,1,8,0:0:0:0:
218,114,262827,1,0,0:0:0:0:
218,114,262921,1,0,0:0:0:0:
218,114,263015,1,8,0:0:0:0:
107,135,263108,1,0,0:0:0:0:
107,135,263202,1,0,0:0:0:0:
107,135,263296,1,8,0:0:0:0:
107,135,263483,1,8,0:0:0:0:
107,135,263577,1,0,0:0:0:0:
107,135,263671,1,8,0:0:0:0:
107,135,263765,1,0,0:0:0:0:
200,138,263858,5,0,0:0:0:0:
200,138,263952,1,8,0:0:0:0:
200,138,264140,1,0,0:0:0:0:
200,138,264327,1,8,0:0:0:0:
200,138,264515,1,4,0:0:0:0:
165,152,264702,1,0,0:0:0:0:
165,152,264796,1,8,0:0:0:0:
165,152,264983,1,8,0:0:0:0:
165,152,265077,1,0,0:0:0:0:
128,156,265265,1,0,0:0:0:0:
128,156,265358,1,0,0:0:0:0:
128,156,265452,1,8,0:0:0:0:
128,156,265546,1,0,0:0:0:0:
128,156,265640,1,8,0:0:0:0:
172,134,265733,1,8,0:0:0:0:
172,134,265827,1,4,0:0:0:0:
172,134,266202,1,0,0:0:0:0:
172,134,266390,1,8,0:0:0:0:
172,134,266577,1,0,0:0:0:0:
172,134,266671,1,8,0:0:0:0:
172,134,266765,1,0,0:0:0:0:
172,134,266858,1,0,0:0:0:0:
172,134,266952,1,8,0:0:0:0:
172,134,267046,1,0,0:0:0:0:
172,134,267140,1,8,0:0:0:0:
259,151,267515,1,4,0:0:0:0:
259,151,267702,1,0,0:0:0:0:
232,146,267890,1,8,0:0:0:0:
229,145,268077,1,0,0:0:0:0:
229,145,268171,1,0,0:0:0:0:
229,145,268358,1,0,0:0:0:0:
229,145,268452,1,0,0:0:0:0:
229,145,268546,1,0,0:0:0:0:
232,146,268640,1,8,0:0:0:0:
229,145,268827,1,0,0:0:0:0:
229,145,268921,1,0,0:0:0:0:
229,145,269015,1,0,0:0:0:0:
229,145,269202,1,0,0:0:0:0:
229,145,269390,1,8,0:0:0:0:
229,145,269577,1,0,0:0:0:0:
229,145,269671,1,8,0:0:0:0:
229,145,269858,1,8,0:0:0:0:
229,145,269952,1,0,0:0:0:0:
229,145,270046,1,0,0:0:0:0:
229,145,270140,1,8,0:0:0:0:
229,145,270327,1,0,0:0:0:0:
227,138,270515,5,12,0:0:0:0:
103,151,270702,1,0,0:0:0:0:
103,151,270796,1,0,0:0:0:0:
103,151,270890,1,0,0:0:0:0:
227,138,271077,1,12,0:0:0:0:
103,151,271265,1,0,0:0:0:0:
103,151,271358,1,0,0:0:0:0:
103,151,271452,1,0,0:0:0:0:
103,151,271546,1,0,0:0:0:0:
227,138,271640,1,12,0:0:0:0:
103,151,271827,1,0,0:0:0:0:
103,151,271921,1,8,0:0:0:0:
103,151,272015,1,0,0:0:0:0:
103,151,272108,1,0,0:0:0:0:
227,138,272202,1,12,0:0:0:0:
103,151,272390,1,0,0:0:0:0:
103,151,272483,1,0,0:0:0:0:
103,151,272577,1,0,0:0:0:0:
103,151,272671,1,0,0:0:0:0:
227,138,272765,1,12,0:0:0:0:
228,112,273140,5,12,0:0:0:0:
228,179,273515,5,4,0:0:0:0:
144,128,273890,1,4,0:0:0:0:
144,128,274077,1,8,0:0:0:0:
228,179,274265,1,0,0:0:0:0:
116,145,274358,1,8,0:0:0:0:
168,142,274405,1,8,0:0:0:0:
168,142,274452,1,0,0:0:0:0:
168,142,274546,1,8,0:0:0:0:
247,123,274640,1,0,0:0:0:0:
247,123,274733,1,0,0:0:0:0:
312,111,274827,1,8,0:0:0:0:
204,142,274921,1,0,0:0:0:0:
192,106,275015,1,12,0:0:0:0:
192,106,275202,1,0,0:0:0:0:
192,106,275296,1,8,0:0:0:0:
192,106,275390,1,0,0:0:0:0:
192,106,275483,1,0,0:0:0:0:
192,106,275577,1,8,0:0:0:0:
191,82,275765,1,0,0:0:0:0:
191,82,275858,1,0,0:0:0:0:
373,189,275952,1,8,0:0:0:0:
227,185,276046,1,8,0:0:0:0:
227,185,276140,1,0,0:0:0:0:
227,185,276233,1,8,0:0:0:0:
227,185,276327,1,0,0:0:0:0:
227,185,276515,1,0,0:0:0:0:
126,141,276577,1,0,0:0:0:0:
126,141,276640,1,0,0:0:0:0:
126,141,276702,1,8,0:0:0:0:
126,141,276890,1,0,0:0:0:0:
203,128,276983,1,0,0:0:0:0:
169,103,277077,1,8,0:0:0:0:
169,103,277171,1,8,0:0:0:0:
186,102,277265,1,0,0:0:0:0:
112,127,277358,1,8,0:0:0:0:
112,127,277452,1,8,0:0:0:0:
112,127,277546,1,0,0:0:0:0:
112,127,277640,1,8,0:0:0:0:
112,127,277733,1,0,0:0:0:0:
112,127,277827,1,0,0:0:0:0:
112,127,277921,1,8,0:0:0:0:
30,151,278015,1,0,0:0:0:0:
30,151,278108,1,8,0:0:0:0:
30,151,278202,1,0,0:0:0:0:
199,223,278390,1,0,0:0:0:0:
199,223,278452,1,0,0:0:0:0:
199,223,278515,1,0,0:0:0:0:
199,223,278577,1,8,0:0:0:0:
243,141,278671,1,8,0:0:0:0:
199,223,278765,1,0,0:0:0:0:
199,223,278827,1,0,0:0:0:0:
199,223,278890,1,0,0:0:0:0:
199,223,278952,1,8,0:0:0:0:
215,186,279046,1,8,0:0:0:0:
152,160,279140,1,0,0:0:0:0:
152,160,279233,1,12,0:0:0:0:
152,160,279515,1,4,0:0:0:0:
226,117,279702,1,0,0:0:0:0:
226,117,279796,1,0,0:0:0:0:
226,117,279890,1,12,0:0:0:0:
226,117,280171,1,12,0:0:0:0:
226,117,280452,1,12,0:0:0:0:
226,117,280640,1,0,0:0:0:0:
226,117,280733,1,0,0:0:0:0:
226,117,280827,1,8,0:0:0:0:
226,117,280921,1,0,0:0:0:0:
226,117,281108,1,0,0:0:0:0:
278,112,281202,1,8,0:0:0:0:
278,112,281249,1,8,0:0:0:0:
278,112,281296,1,8,0:0:0:0:
278,112,281390,1,0,0:0:0:0:
155,170,281483,1,0,0:0:0:0:
155,170,281577,1,8,0:0:0:0:
155,170,281765,1,0,0:0:0:0:
155,170,281858,1,0,0:0:0:0:
155,170,281952,1,8,0:0:0:0:
155,170,282046,1,8,0:0:0:0:
155,170,282140,1,0,0:0:0:0:
155,170,282233,1,8,0:0:0:0:
155,170,282327,1,0,0:0:0:0:
156,133,282515,1,4,0:0:0:0:
156,133,282702,1,0,0:0:0:0:
156,133,282796,1,0,0:0:0:0:
156,133,282890,1,8,0:0:0:0:
156,133,282983,1,0,0:0:0:0:
156,133,283077,1,8,0:0:0:0:
156,133,283171,1,8,0:0:0:0:
156,133,283358,1,8,0:0:0:0:
156,133,283452,1,0,0:0:0:0:
156,133,283546,1,0,0:0:0:0:
156,133,283640,1,8,0:0:0:0:
156,133,283733,1,0,0:0:0:0:
209,122,284015,1,4,0:0:0:0:
245,195,284390,1,8,0:0:0:0:
214,160,284671,1,8,0:0:0:0:
214,160,284952,1,0,0:0:0:0:
214,160,285140,1,8,0:0:0:0:
214,160,285233,1,0,0:0:0:0:
214,160,285421,1,8,0:0:0:0:
214,160,285515,1,0,0:0:0:0:
186,126,285702,1,0,0:0:0:0:
186,126,285796,1,0,0:0:0:0:
186,126,285890,1,12,0:0:0:0:
220,139,286265,1,0,0:0:0:0:
221,139,286358,1,0,0:0:0:0:
220,139,286452,1,8,0:0:0:0:
220,139,286640,1,8,0:0:0:0:
220,139,286733,1,0,0:0:0:0:
220,139,286827,1,8,0:0:0:0:
220,139,286921,1,8,0:0:0:0:
216,134,287015,1,0,0:0:0:0:
245,141,287202,1,8,0:0:0:0:
245,141,287296,1,8,0:0:0:0:
245,141,287390,1,0,0:0:0:0:
245,141,287483,1,0,0:0:0:0:
215,134,287577,1,8,0:0:0:0:
215,134,287671,1,0,0:0:0:0:
160,161,287858,1,0,0:0:0:0:
160,161,287952,1,8,0:0:0:0:
174,133,288015,1,8,0:0:0:0:
174,133,288077,1,8,0:0:0:0:
174,133,288140,1,0,0:0:0:0:
165,124,288233,1,0,0:0:0:0:
165,124,288327,1,8,0:0:0:0:
165,124,288421,1,0,0:0:0:0:
206,107,288515,1,0,0:0:0:0:
206,107,288561,1,0,0:0:0:0:
206,107,288608,1,0,0:0:0:0:
206,107,288702,1,8,0:0:0:0:
206,107,288890,1,4,0:0:0:0:
211,108,289077,1,0,0:0:0:0:
211,108,289171,1,8,0:0:0:0:
211,108,289265,1,0,0:0:0:0:
211,108,289358,1,0,0:0:0:0:
211,108,289452,1,8,0:0:0:0:
211,93,289640,1,0,0:0:0:0:
211,93,289733,1,0,0:0:0:0:
211,93,289827,1,8,0:0:0:0:
211,93,289921,1,8,0:0:0:0:
211,93,290015,1,0,0:0:0:0:
181,114,290077,1,0,0:0:0:0:
181,114,290140,1,0,0:0:0:0:
181,114,290202,1,8,0:0:0:0:
271,153,290296,1,8,0:0:0:0:
183,42,290390,1,0,0:0:0:0:
183,42,290452,1,0,0:0:0:0:
183,42,290515,1,0,0:0:0:0:
183,42,290577,1,8,0:0:0:0:
271,153,290671,1,8,0:0:0:0:
183,42,290765,1,0,0:0:0:0:
183,42,290827,1,0,0:0:0:0:
183,42,290890,1,0,0:0:0:0:
183,42,290952,1,8,0:0:0:0:
177,154,291046,1,0,0:0:0:0:
183,42,291140,1,12,0:0:0:0:
286,164,291515,1,4,0:0:0:0:
179,126,291702,1,0,0:0:0:0:
179,126,291796,1,0,0:0:0:0:
179,126,291890,1,8,0:0:0:0:
179,126,292077,1,0,0:0:0:0:
179,126,292171,1,8,0:0:0:0:
179,126,292358,1,8,0:0:0:0:
179,126,292452,1,0,0:0:0:0:
179,126,292640,1,0,0:0:0:0:
179,126,292733,1,8,0:0:0:0:
179,126,292827,1,0,0:0:0:0:
179,126,293015,1,4,0:0:0:0:
122,121,293202,1,8,0:0:0:0:
122,121,293296,1,0,0:0:0:0:
122,121,293390,1,0,0:0:0:0:
122,121,293483,1,8,0:0:0:0:
122,121,293577,1,0,0:0:0:0:
122,121,293765,1,8,0:0:0:0:
122,121,293858,1,8,0:0:0:0:
122,121,293952,1,0,0:0:0:0:
122,121,294046,1,0,0:0:0:0:
122,121,294140,1,8,0:0:0:0:
122,121,294327,1,0,0:0:0:0:
173,187,294515,1,8,0:0:0:0:
173,187,294608,1,0,0:0:0:0:
173,187,294702,1,0,0:0:0:0:
173,187,294796,1,0,0:0:0:0:
173,187,294890,1,8,0:0:0:0:
173,187,294983,1,0,0:0:0:0:
173,187,295077,1,8,0:0:0:0:
277,130,295124,1,8,0:0:0:0:
277,130,295171,1,8,0:0:0:0:
222,160,295265,1,0,0:0:0:0:
222,160,295358,1,0,0:0:0:0:
222,160,295452,1,8,0:0:0:0:
222,160,295546,1,0,0:0:0:0:
222,160,295640,1,0,0:0:0:0:
222,160,295733,1,8,0:0:0:0:
222,160,295827,1,0,0:0:0:0:
222,160,295921,1,0,0:0:0:0:
222,160,296015,1,12,0:0:0:0:
256,192,296202,12,8,296952,0:0:0:0:
104,136,297140,5,8,0:0:0:0:
176,160,297515,1,4,0:0:0:0:
176,160,298077,1,0,0:0:0:0:
176,160,298640,1,0,0:0:0:0:
176,160,299202,1,0,0:0:0:0:
176,160,300515,1,8,0:0:0:0:
176,160,301077,1,8,0:0:0:0:
176,160,301640,1,8,0:0:0:0:
176,160,302202,1,8,0:0:0:0:
176,160,302765,1,0,0:0:0:0:
256,192,303515,12,0,307640,0:0:0:0:
