osu file format v14

[General]
AudioFilename: hardcore.mp3
AudioLeadIn: 0
PreviewTime: 28276
Countdown: 0
SampleSet: Normal
StackLeniency: 0.7
Mode: 1
LetterboxInBreaks: 0
WidescreenStoryboard: 0

[Editor]
DistanceSpacing: 0.8
BeatDivisor: 4
GridSize: 32
TimelineZoom: 1.599999

[Metadata]
Title:SIVA
TitleUnicode:SIVA
Artist:sky_delta
ArtistUnicode:sky_delta
Creator:Nishizumi
Version:Kantan
Source:
Tags:Hardcore
BeatmapID:1226332
BeatmapSetID:476505

[Difficulty]
HPDrainRate:7
CircleSize:5
OverallDifficulty:3.5
ApproachRate:5
SliderMultiplier:1.4
SliderTickRate:1

[Events]
//Background and Video events
0,0,"bg.jpg",0,33
//Break Periods
//Storyboard Layer 0 (Background)
//Storyboard Layer 1 (Fail)
//Storyboard Layer 2 (Pass)
//Storyboard Layer 3 (Foreground)
//Storyboard Sound Samples

[TimingPoints]
2095,272.727272727273,4,1,0,100,1,0
2095,-111.111111111111,4,1,0,100,0,0
28276,-111.111111111111,4,1,0,100,0,1
45731,-111.111111111111,4,1,0,100,0,0
45867,-111.111111111111,4,1,0,75,0,0
54458,-111.111111111111,4,1,0,100,0,0
65367,250,4,1,0,100,1,0
65367,-117.64705882353,4,1,0,100,0,0
67367,230.769230769231,4,1,0,100,1,0
67367,-120.481927710843,4,1,0,100,0,0
68290,226.415094339623,4,1,0,100,1,0
68290,-121.951219512195,4,1,0,100,0,0
68748,222.222222222222,4,1,0,100,1,8
68748,-123.456790123457,4,1,0,100,0,8
69202,218.181818181818,4,1,0,100,1,0
69202,-125,4,1,0,100,0,0
69653,214.285714285714,4,1,0,100,1,8
69653,-126.582278481013,4,1,0,100,0,8
70081,206.896551724138,4,1,0,100,1,0
70081,-129.87012987013,4,1,0,100,0,0
70908,200,4,1,0,100,1,0
70908,-133.333333333333,4,1,0,100,0,0
71708,187.5,4,1,0,100,1,0
71708,-138.888888888889,4,1,0,100,0,0
72458,176.470588235294,4,1,0,100,1,0
72458,-142.857142857143,4,1,0,100,0,0
73163,171.428571428571,4,1,0,100,1,0
73163,-153.846153846153,4,1,0,100,0,0
73848,166.666666666667,4,1,0,100,1,0
73848,-158.730158730159,4,1,0,100,0,0
74514,162.162162162162,4,1,0,100,1,0
74514,-163.934426229508,4,1,0,100,0,0
75162,157.894736842105,4,1,0,100,1,0
75162,-169.491525423729,4,1,0,100,0,0
75793,153.846153846154,4,1,0,100,1,0
75793,-175.438596491229,4,1,0,100,0,0
78254,153.846153846154,4,1,0,100,1,8
78254,-175.438596491229,4,1,0,100,0,0
78565,272.727272727273,4,1,0,100,1,0
78565,-111.111111111111,4,1,0,100,0,1
87292,-111.111111111111,4,1,0,80,0,0
89474,-111.111111111111,4,1,0,100,0,1
98065,-111.111111111111,4,1,0,100,0,0
98201,-111.111111111111,4,1,0,80,0,0
102565,-111.111111111111,4,1,0,100,0,0

[HitObjects]
256,192,2095,5,4,0:0:0:0:
256,192,4276,5,4,0:0:0:0:
256,192,6458,5,4,0:0:0:0:
256,192,7549,5,4,0:0:0:0:
256,192,8640,5,4,0:0:0:0:
256,192,9731,5,4,0:0:0:0:
256,192,10822,5,4,0:0:0:0:
256,192,11367,1,8,0:0:0:0:
256,192,11913,1,0,0:0:0:0:
256,192,13004,1,0,0:0:0:0:
256,192,13549,1,8,0:0:0:0:
256,192,14095,1,0,0:0:0:0:
256,192,14367,1,0,0:0:0:0:
256,192,14640,1,8,0:0:0:0:
256,192,15185,1,4,0:0:0:0:
256,192,15731,1,8,0:0:0:0:
256,192,16276,1,0,0:0:0:0:
256,192,17367,1,0,0:0:0:0:
256,192,17913,1,8,0:0:0:0:
256,192,18458,1,8,0:0:0:0:
256,192,18731,1,8,0:0:0:0:
256,192,19549,1,4,0:0:0:0:
256,192,20095,1,8,0:0:0:0:
256,192,20640,1,8,0:0:0:0:
256,192,21185,1,8,0:0:0:0:
256,192,21731,1,0,0:0:0:0:
256,192,22276,1,8,0:0:0:0:
256,192,22549,1,0,0:0:0:0:
256,192,22822,1,8,0:0:0:0:
256,192,23913,1,4,0:0:0:0:
256,192,24458,1,8,0:0:0:0:
256,192,25004,1,0,0:0:0:0:
256,192,25549,1,8,0:0:0:0:
256,192,26095,12,0,27185,0:0:0:0:
256,192,28276,5,4,0:0:0:0:
256,192,28822,1,8,0:0:0:0:
256,192,29095,1,8,0:0:0:0:
256,192,29367,1,0,0:0:0:0:
256,192,29913,1,8,0:0:0:0:
256,192,30458,1,0,0:0:0:0:
256,192,31004,1,8,0:0:0:0:
256,192,31276,1,8,0:0:0:0:
256,192,31549,1,0,0:0:0:0:
256,192,32640,1,0,0:0:0:0:
256,192,33185,1,8,0:0:0:0:
256,192,33458,1,0,0:0:0:0:
256,192,33731,1,8,0:0:0:0:
256,192,34276,1,8,0:0:0:0:
256,192,34822,1,0,0:0:0:0:
256,192,35367,1,8,0:0:0:0:
256,192,35913,1,8,0:0:0:0:
256,192,36185,1,8,0:0:0:0:
256,192,37004,5,4,0:0:0:0:
256,192,37550,1,8,0:0:0:0:
256,192,37823,1,8,0:0:0:0:
256,192,38095,1,0,0:0:0:0:
256,192,38641,1,8,0:0:0:0:
256,192,39186,1,0,0:0:0:0:
256,192,39732,1,8,0:0:0:0:
256,192,40004,1,8,0:0:0:0:
256,192,40276,1,0,0:0:0:0:
256,192,41368,1,4,0:0:0:0:
256,192,41913,1,8,0:0:0:0:
256,192,42185,1,0,0:0:0:0:
256,192,42459,1,8,0:0:0:0:
256,192,43004,1,8,0:0:0:0:
256,192,43550,1,0,0:0:0:0:
256,192,44095,1,8,0:0:0:0:
256,192,44641,1,8,0:0:0:0:
256,192,44913,1,8,0:0:0:0:
256,192,45458,1,8,0:0:0:0:
256,192,45731,1,4,0:0:0:0:
256,192,47913,1,0,0:0:0:0:
256,192,50095,1,0,0:0:0:0:
256,192,52276,1,0,0:0:0:0:
256,192,53367,1,0,0:0:0:0:
256,192,54458,1,4,0:0:0:0:
256,192,55004,1,8,0:0:0:0:
256,192,56095,1,8,0:0:0:0:
256,192,56640,1,0,0:0:0:0:
256,192,57185,1,8,0:0:0:0:
256,192,58276,1,0,0:0:0:0:
256,192,58822,1,0,0:0:0:0:
256,192,59367,1,8,0:0:0:0:
256,192,60458,1,8,0:0:0:0:
256,192,61004,1,0,0:0:0:0:
256,192,61549,1,8,0:0:0:0:
256,192,62640,1,8,0:0:0:0:
256,192,63185,1,4,0:0:0:0:
256,192,64276,1,8,0:0:0:0:
256,192,65367,1,4,0:0:0:0:
256,192,66367,1,8,0:0:0:0:
256,192,67367,1,4,0:0:0:0:
256,192,68290,1,4,0:0:0:0:
256,192,69202,1,4,0:0:0:0:
256,192,70081,1,4,0:0:0:0:
256,192,70908,1,4,0:0:0:0:
256,192,72458,1,0,0:0:0:0:
256,192,73848,1,0,0:0:0:0:
256,192,75162,1,0,0:0:0:0:
256,192,75793,1,0,0:0:0:0:
256,192,76408,1,8,0:0:0:0:
256,192,76562,12,0,78330,0:0:0:0:
256,192,78565,5,4,0:0:0:0:
256,192,79110,1,8,0:0:0:0:
256,192,79383,1,8,0:0:0:0:
256,192,79655,1,0,0:0:0:0:
256,192,80746,1,8,0:0:0:0:
256,192,81292,1,0,0:0:0:0:
256,192,81565,1,0,0:0:0:0:
256,192,81837,1,8,0:0:0:0:
256,192,82383,1,8,0:0:0:0:
256,192,82928,1,4,0:0:0:0:
256,192,83474,1,8,0:0:0:0:
256,192,83746,1,8,0:0:0:0:
256,192,84019,1,0,0:0:0:0:
256,192,85110,1,8,0:0:0:0:
256,192,85655,1,0,0:0:0:0:
256,192,85928,1,0,0:0:0:0:
256,192,86201,1,8,0:0:0:0:
256,192,86746,1,8,0:0:0:0:
256,192,87292,12,0,89201,0:0:0:0:
256,192,89474,5,4,0:0:0:0:
256,192,89746,1,0,0:0:0:0:
256,192,90019,1,8,0:0:0:0:
256,192,90292,1,8,0:0:0:0:
256,192,90565,1,0,0:0:0:0:
256,192,91655,1,0,0:0:0:0:
256,192,91928,1,8,0:0:0:0:
256,192,92201,1,0,0:0:0:0:
256,192,92474,1,0,0:0:0:0:
256,192,92746,1,8,0:0:0:0:
256,192,93292,1,8,0:0:0:0:
256,192,93837,1,0,0:0:0:0:
256,192,94110,1,0,0:0:0:0:
256,192,94383,1,8,0:0:0:0:
256,192,94655,1,8,0:0:0:0:
256,192,94928,1,0,0:0:0:0:
256,192,96019,1,12,0:0:0:0:
256,192,96837,1,12,0:0:0:0:
256,192,97655,1,12,0:0:0:0:
256,192,98065,1,4,0:0:0:0:
256,192,98201,12,0,102292,0:0:0:0:
256,192,102565,5,4,0:0:0:0:
