osu file format v14

[General]
AudioFilename: hardcore.mp3
AudioLeadIn: 0
PreviewTime: 28276
Countdown: 0
SampleSet: Normal
StackLeniency: 0.7
Mode: 1
LetterboxInBreaks: 0
WidescreenStoryboard: 0

[Editor]
DistanceSpacing: 0.8
BeatDivisor: 4
GridSize: 32
TimelineZoom: 1.7

[Metadata]
Title:SIVA
TitleUnicode:SIVA
Artist:sky_delta
ArtistUnicode:sky_delta
Creator:Nishizumi
Version:Muzukashii
Source:
Tags:Hardcore
BeatmapID:1019106
BeatmapSetID:476505

[Difficulty]
HPDrainRate:5
CircleSize:5
OverallDifficulty:5
ApproachRate:5
SliderMultiplier:1.4
SliderTickRate:1

[Events]
//Background and Video events
0,0,"bg.jpg",0,33
//Break Periods
//Storyboard Layer 0 (Background)
//Storyboard Layer 1 (Fail)
//Storyboard Layer 2 (Pass)
//Storyboard Layer 3 (Foreground)
//Storyboard Sound Samples

[TimingPoints]
2095,272.727272727273,4,1,0,100,1,0
28276,-100,4,1,0,100,0,1
45731,-100,4,1,0,100,0,0
45867,-100,4,1,0,75,0,0
47913,-117.647058823529,4,1,0,75,0,0
53913,-109.89010989011,4,1,0,80,0,0
54185,-106.382978723404,4,1,0,90,0,0
54322,-103.092783505155,4,1,0,95,0,0
54458,-100,4,1,0,100,0,0
65367,250,4,1,0,100,1,0
65367,-102.040816326531,4,1,0,100,0,0
67367,230.769230769231,4,1,0,100,1,0
67367,-104.166666666667,4,1,0,100,0,0
68290,226.415094339623,4,1,0,100,1,0
68290,-105.263157894737,4,1,0,100,0,0
68748,222.222222222222,4,1,0,100,1,8
68748,-106.382978723404,4,1,0,100,0,8
69202,218.181818181818,4,1,0,100,1,0
69202,-107.52688172043,4,1,0,100,0,0
69653,214.285714285714,4,1,0,100,1,8
69653,-108.695652173913,4,1,0,100,0,8
70081,206.896551724138,4,1,0,100,1,0
70081,-111.111111111111,4,1,0,100,0,0
70908,200,4,1,0,100,1,0
70908,-113.636363636364,4,1,0,100,0,0
71708,187.5,4,1,0,100,1,0
71708,-117.647058823529,4,1,0,100,0,0
72458,176.470588235294,4,1,0,100,1,0
72458,-121.951219512195,4,1,0,100,0,0
73163,171.428571428571,4,1,0,100,1,0
73163,-125,4,1,0,100,0,0
73848,166.666666666667,4,1,0,100,1,0
73848,-125,4,1,0,100,0,0
74514,162.162162162162,4,1,0,100,1,0
74514,-125,4,1,0,100,0,0
75162,157.894736842105,4,1,0,100,1,0
75162,-125,4,1,0,100,0,0
75793,153.846153846154,4,1,0,100,1,0
75793,-125,4,1,0,100,0,0
76485,-111.111111111111,4,1,0,100,0,0
78254,153.846153846154,4,1,0,100,1,8
78254,-111.111111111111,4,1,0,100,0,8
78565,272.727272727273,4,1,0,100,1,1
87292,-100,4,1,0,80,0,0
89201,-100,4,1,0,100,0,0
89474,-100,4,1,0,100,0,1
98065,-100,4,1,0,100,0,0
98201,-100,4,1,0,80,0,0
102565,-100,4,1,0,100,0,0

[HitObjects]
256,192,2095,5,4,0:0:0:0:
256,192,3867,1,4,0:0:0:0:
256,192,4276,1,4,0:0:0:0:
256,192,6185,1,4,0:0:0:0:
256,192,6458,1,4,0:0:0:0:
256,192,7549,1,4,0:0:0:0:
256,192,8640,1,4,0:0:0:0:
256,192,9185,1,4,0:0:0:0:
256,192,9731,1,4,0:0:0:0:
256,192,10004,1,4,0:0:0:0:
256,192,10413,1,4,0:0:0:0:
256,192,10549,1,12,0:0:0:0:
256,192,10822,1,4,0:0:0:0:
256,192,11095,1,8,0:0:0:0:
256,192,11231,1,0,0:0:0:0:
256,192,11367,1,8,0:0:0:0:
256,192,11504,1,0,0:0:0:0:
256,192,11640,1,8,0:0:0:0:
256,192,11913,1,0,0:0:0:0:
256,192,12185,1,8,0:0:0:0:
256,192,12595,1,0,0:0:0:0:
256,192,12731,1,8,0:0:0:0:
256,192,13004,1,0,0:0:0:0:
256,192,13276,1,8,0:0:0:0:
256,192,13413,1,0,0:0:0:0:
256,192,13549,1,8,0:0:0:0:
256,192,13685,1,0,0:0:0:0:
256,192,13822,1,8,0:0:0:0:
256,192,14095,1,0,0:0:0:0:
256,192,14367,1,8,0:0:0:0:
256,192,14504,1,8,0:0:0:0:
256,192,14776,1,0,0:0:0:0:
256,192,14913,1,8,0:0:0:0:
256,192,15185,1,4,0:0:0:0:
256,192,15458,1,8,0:0:0:0:
256,192,15595,1,8,0:0:0:0:
256,192,15731,1,0,0:0:0:0:
256,192,15867,1,0,0:0:0:0:
256,192,16004,1,8,0:0:0:0:
256,192,16276,1,0,0:0:0:0:
256,192,16549,1,8,0:0:0:0:
256,192,16958,1,0,0:0:0:0:
256,192,17095,1,8,0:0:0:0:
256,192,17367,1,0,0:0:0:0:
256,192,17640,1,8,0:0:0:0:
256,192,17776,1,8,0:0:0:0:
256,192,17913,1,0,0:0:0:0:
256,192,18049,1,0,0:0:0:0:
256,192,18185,1,8,0:0:0:0:
256,192,18458,1,12,0:0:0:0:
256,192,18731,1,12,0:0:0:0:
256,192,19276,1,8,0:0:0:0:
256,192,19549,1,4,0:0:0:0:
256,192,19822,1,8,0:0:0:0:
256,192,19958,1,0,0:0:0:0:
256,192,20095,1,8,0:0:0:0:
256,192,20231,1,0,0:0:0:0:
256,192,20367,1,8,0:0:0:0:
256,192,20640,1,0,0:0:0:0:
256,192,20913,1,8,0:0:0:0:
256,192,21322,1,0,0:0:0:0:
256,192,21458,1,8,0:0:0:0:
256,192,21731,1,0,0:0:0:0:
256,192,22004,1,8,0:0:0:0:
256,192,22140,1,0,0:0:0:0:
256,192,22276,1,8,0:0:0:0:
256,192,22413,1,0,0:0:0:0:
256,192,22549,1,8,0:0:0:0:
256,192,22822,1,0,0:0:0:0:
256,192,23095,1,8,0:0:0:0:
256,192,23231,1,0,0:0:0:0:
256,192,23504,1,0,0:0:0:0:
256,192,23640,1,8,0:0:0:0:
256,192,23913,1,4,0:0:0:0:
256,192,24185,1,8,0:0:0:0:
256,192,24322,1,0,0:0:0:0:
256,192,24458,1,0,0:0:0:0:
256,192,24595,1,0,0:0:0:0:
256,192,24731,1,8,0:0:0:0:
256,192,25004,1,4,0:0:0:0:
256,192,25276,1,8,0:0:0:0:
256,192,25413,1,8,0:0:0:0:
256,192,25549,1,0,0:0:0:0:
256,192,25685,1,0,0:0:0:0:
256,192,25822,1,8,0:0:0:0:
256,192,26095,1,0,0:0:0:0:
256,192,26231,1,8,0:0:0:0:
256,192,26299,1,8,0:0:0:0:
256,192,26367,1,8,0:0:0:0:
256,192,26504,1,0,0:0:0:0:
256,192,26640,1,8,0:0:0:0:
256,192,26913,1,8,0:0:0:0:
256,192,27049,1,8,0:0:0:0:
256,192,27185,1,4,0:0:0:0:
256,192,27458,1,12,0:0:0:0:
256,192,27731,1,12,0:0:0:0:
256,192,28276,1,4,0:0:0:0:
256,192,28549,1,8,0:0:0:0:
256,192,28822,1,8,0:0:0:0:
256,192,28958,1,8,0:0:0:0:
256,192,29095,1,0,0:0:0:0:
256,192,29231,1,0,0:0:0:0:
256,192,29367,1,8,0:0:0:0:
256,192,29640,1,0,0:0:0:0:
256,192,29776,1,0,0:0:0:0:
256,192,29913,1,8,0:0:0:0:
256,192,30185,1,8,0:0:0:0:
256,192,30458,1,0,0:0:0:0:
256,192,30731,1,8,0:0:0:0:
256,192,31004,1,8,0:0:0:0:
256,192,31140,1,8,0:0:0:0:
256,192,31276,1,0,0:0:0:0:
256,192,31413,1,0,0:0:0:0:
256,192,31549,1,8,0:0:0:0:
256,192,31822,1,8,0:0:0:0:
256,192,32231,1,0,0:0:0:0:
256,192,32367,1,8,0:0:0:0:
256,192,32640,1,4,0:0:0:0:
256,192,32913,1,8,0:0:0:0:
256,192,33185,1,8,0:0:0:0:
256,192,33322,1,8,0:0:0:0:
256,192,33458,1,0,0:0:0:0:
256,192,33595,1,0,0:0:0:0:
256,192,33731,1,8,0:0:0:0:
256,192,34004,1,0,0:0:0:0:
256,192,34140,1,0,0:0:0:0:
256,192,34276,1,8,0:0:0:0:
256,192,34549,1,8,0:0:0:0:
256,192,34822,1,4,0:0:0:0:
256,192,35095,1,8,0:0:0:0:
256,192,35367,1,8,0:0:0:0:
256,192,35504,1,8,0:0:0:0:
256,192,35640,1,0,0:0:0:0:
256,192,35776,1,0,0:0:0:0:
256,192,35913,1,8,0:0:0:0:
256,192,36185,1,8,0:0:0:0:
256,192,36595,1,0,0:0:0:0:
256,192,36731,1,8,0:0:0:0:
256,192,37004,1,4,0:0:0:0:
256,192,37276,1,8,0:0:0:0:
256,192,37549,1,0,0:0:0:0:
256,192,37685,1,8,0:0:0:0:
256,192,37822,1,0,0:0:0:0:
256,192,37958,1,0,0:0:0:0:
256,192,38095,1,8,0:0:0:0:
256,192,38367,1,0,0:0:0:0:
256,192,38504,1,0,0:0:0:0:
256,192,38640,1,8,0:0:0:0:
256,192,38913,1,8,0:0:0:0:
256,192,39185,1,0,0:0:0:0:
256,192,39458,1,8,0:0:0:0:
256,192,39731,1,0,0:0:0:0:
256,192,39867,1,8,0:0:0:0:
256,192,40004,1,0,0:0:0:0:
256,192,40140,1,0,0:0:0:0:
256,192,40276,1,8,0:0:0:0:
256,192,40549,1,0,0:0:0:0:
256,192,40958,1,0,0:0:0:0:
256,192,41095,1,8,0:0:0:0:
256,192,41367,1,4,0:0:0:0:
256,192,41640,1,8,0:0:0:0:
256,192,41913,1,8,0:0:0:0:
256,192,42049,1,8,0:0:0:0:
256,192,42185,1,0,0:0:0:0:
256,192,42254,1,0,0:0:0:0:
256,192,42322,1,0,0:0:0:0:
256,192,42458,1,8,0:0:0:0:
256,192,42731,1,0,0:0:0:0:
256,192,43004,1,8,0:0:0:0:
256,192,43140,1,0,0:0:0:0:
256,192,43276,1,8,0:0:0:0:
256,192,43345,1,8,0:0:0:0:
256,192,43413,1,8,0:0:0:0:
256,192,43549,1,4,0:0:0:0:
256,192,43822,1,8,0:0:0:0:
256,192,43958,1,0,0:0:0:0:
256,192,44095,1,8,0:0:0:0:
256,192,44231,1,0,0:0:0:0:
256,192,44367,1,8,0:0:0:0:
256,192,44504,1,8,0:0:0:0:
256,192,44640,1,0,0:0:0:0:
256,192,44913,1,8,0:0:0:0:
256,192,45049,1,0,0:0:0:0:
256,192,45322,1,8,0:0:0:0:
256,192,45458,1,0,0:0:0:0:
256,192,45595,1,8,0:0:0:0:
256,192,45731,1,4,0:0:0:0:
256,192,45867,12,0,47640,0:0:0:0:
256,192,47913,5,0,0:0:0:0:
256,192,50095,1,0,0:0:0:0:
256,192,52276,1,0,0:0:0:0:
256,192,53367,1,0,0:0:0:0:
256,192,53913,1,8,0:0:0:0:
256,192,54185,1,8,0:0:0:0:
256,192,54322,1,8,0:0:0:0:
256,192,54458,1,4,0:0:0:0:
256,192,55004,1,8,0:0:0:0:
256,192,55276,1,0,0:0:0:0:
256,192,55549,1,0,0:0:0:0:
256,192,55822,1,0,0:0:0:0:
256,192,56095,1,8,0:0:0:0:
256,192,56640,1,0,0:0:0:0:
256,192,57185,1,8,0:0:0:0:
256,192,57458,1,0,0:0:0:0:
256,192,57731,1,0,0:0:0:0:
256,192,58004,1,8,0:0:0:0:
256,192,58276,1,0,0:0:0:0:
256,192,58822,1,0,0:0:0:0:
256,192,59367,1,8,0:0:0:0:
256,192,59640,1,0,0:0:0:0:
256,192,59913,1,0,0:0:0:0:
256,192,60185,1,0,0:0:0:0:
256,192,60458,1,8,0:0:0:0:
256,192,61004,1,0,0:0:0:0:
256,192,61549,1,8,0:0:0:0:
256,192,61822,1,0,0:0:0:0:
256,192,62095,1,0,0:0:0:0:
256,192,62367,1,0,0:0:0:0:
256,192,62640,1,8,0:0:0:0:
256,192,63185,1,4,0:0:0:0:
256,192,63731,1,8,0:0:0:0:
256,192,64004,1,0,0:0:0:0:
256,192,64140,1,0,0:0:0:0:
256,192,64276,1,8,0:0:0:0:
256,192,64822,1,8,0:0:0:0:
256,192,65095,1,12,0:0:0:0:
256,192,65367,1,4,0:0:0:0:
256,192,65867,1,8,0:0:0:0:
256,192,66117,1,0,0:0:0:0:
256,192,66242,1,0,0:0:0:0:
256,192,66367,1,8,0:0:0:0:
256,192,66867,1,8,0:0:0:0:
256,192,67117,1,12,0:0:0:0:
256,192,67367,1,4,0:0:0:0:
256,192,67828,1,8,0:0:0:0:
256,192,68059,1,0,0:0:0:0:
256,192,68290,1,4,0:0:0:0:
256,192,68748,1,4,0:0:0:0:
256,192,68970,1,8,0:0:0:0:
256,192,69202,1,4,0:0:0:0:
256,192,69653,1,4,0:0:0:0:
256,192,69867,1,8,0:0:0:0:
256,192,70081,1,4,0:0:0:0:
256,192,70391,1,4,0:0:0:0:
256,192,70701,1,4,0:0:0:0:
256,192,70908,1,4,0:0:0:0:
256,192,71308,1,8,0:0:0:0:
256,192,71508,1,8,0:0:0:0:
256,192,71708,1,4,0:0:0:0:
256,192,72083,1,8,0:0:0:0:
256,192,72270,1,8,0:0:0:0:
256,192,72458,1,4,0:0:0:0:
256,192,72810,1,8,0:0:0:0:
256,192,72987,1,8,0:0:0:0:
256,192,73163,1,4,0:0:0:0:
256,192,73505,1,8,0:0:0:0:
256,192,73677,1,8,0:0:0:0:
256,192,73848,1,4,0:0:0:0:
256,192,74181,1,8,0:0:0:0:
256,192,74348,1,8,0:0:0:0:
256,192,74514,1,4,0:0:0:0:
256,192,74838,1,8,0:0:0:0:
256,192,75000,1,8,0:0:0:0:
256,192,75162,1,4,0:0:0:0:
256,192,75477,1,8,0:0:0:0:
256,192,75635,1,8,0:0:0:0:
256,192,75793,1,0,0:0:0:0:
256,192,75946,1,0,0:0:0:0:
256,192,76100,1,8,0:0:0:0:
256,192,76254,1,8,0:0:0:0:
256,192,76408,1,0,0:0:0:0:
256,192,76562,12,0,78331,0:0:0:0:
256,192,78565,5,4,0:0:0:0:
256,192,78701,1,8,0:0:0:0:
256,192,78837,1,8,0:0:0:0:
256,192,78974,1,0,0:0:0:0:
256,192,79110,1,8,0:0:0:0:
256,192,79246,1,8,0:0:0:0:
256,192,79519,1,0,0:0:0:0:
256,192,79655,1,8,0:0:0:0:
256,192,79792,1,0,0:0:0:0:
256,192,79928,1,0,0:0:0:0:
256,192,80065,1,0,0:0:0:0:
256,192,80201,1,8,0:0:0:0:
256,192,80474,1,8,0:0:0:0:
256,192,80746,1,0,0:0:0:0:
256,192,80883,1,8,0:0:0:0:
256,192,81019,1,8,0:0:0:0:
256,192,81155,1,0,0:0:0:0:
256,192,81292,1,8,0:0:0:0:
256,192,81428,1,8,0:0:0:0:
256,192,81701,1,0,0:0:0:0:
256,192,81837,1,8,0:0:0:0:
256,192,81974,1,8,0:0:0:0:
256,192,82110,1,0,0:0:0:0:
256,192,82246,1,0,0:0:0:0:
256,192,82383,1,8,0:0:0:0:
256,192,82655,1,8,0:0:0:0:
256,192,82928,1,4,0:0:0:0:
256,192,83065,1,8,0:0:0:0:
256,192,83201,1,0,0:0:0:0:
256,192,83337,1,0,0:0:0:0:
256,192,83474,1,8,0:0:0:0:
256,192,83610,1,8,0:0:0:0:
256,192,83883,1,0,0:0:0:0:
256,192,84019,1,8,0:0:0:0:
256,192,84155,1,8,0:0:0:0:
256,192,84292,1,0,0:0:0:0:
256,192,84428,1,0,0:0:0:0:
256,192,84565,1,8,0:0:0:0:
256,192,84837,1,8,0:0:0:0:
256,192,85110,1,4,0:0:0:0:
256,192,85246,1,8,0:0:0:0:
256,192,85383,1,0,0:0:0:0:
256,192,85519,1,0,0:0:0:0:
256,192,85655,1,8,0:0:0:0:
256,192,85792,1,8,0:0:0:0:
256,192,86065,1,0,0:0:0:0:
256,192,86201,1,12,0:0:0:0:
256,192,86337,1,0,0:0:0:0:
256,192,86474,1,12,0:0:0:0:
256,192,86610,1,0,0:0:0:0:
256,192,86746,1,12,0:0:0:0:
256,192,87019,1,8,0:0:0:0:
256,192,87155,1,8,0:0:0:0:
256,192,87292,12,0,89065,0:0:0:0:
256,192,89201,5,12,0:0:0:0:
256,192,89474,1,4,0:0:0:0:
256,192,89610,1,8,0:0:0:0:
256,192,89746,1,8,0:0:0:0:
256,192,89883,1,0,0:0:0:0:
256,192,90019,1,8,0:0:0:0:
256,192,90155,1,8,0:0:0:0:
256,192,90292,1,0,0:0:0:0:
256,192,90428,1,0,0:0:0:0:
256,192,90565,1,8,0:0:0:0:
256,192,90837,1,8,0:0:0:0:
256,192,90974,1,0,0:0:0:0:
256,192,91110,1,8,0:0:0:0:
256,192,91246,1,8,0:0:0:0:
256,192,91383,1,0,0:0:0:0:
256,192,91655,1,4,0:0:0:0:
256,192,91792,1,8,0:0:0:0:
256,192,91928,1,8,0:0:0:0:
256,192,92065,1,0,0:0:0:0:
256,192,92201,1,8,0:0:0:0:
256,192,92337,1,8,0:0:0:0:
256,192,92474,1,0,0:0:0:0:
256,192,92610,1,0,0:0:0:0:
256,192,92746,1,8,0:0:0:0:
256,192,93019,1,0,0:0:0:0:
256,192,93155,1,0,0:0:0:0:
256,192,93292,1,8,0:0:0:0:
256,192,93428,1,8,0:0:0:0:
256,192,93565,1,0,0:0:0:0:
256,192,93837,1,4,0:0:0:0:
256,192,93974,1,8,0:0:0:0:
256,192,94110,1,0,0:0:0:0:
256,192,94246,1,0,0:0:0:0:
256,192,94383,1,8,0:0:0:0:
256,192,94519,1,8,0:0:0:0:
256,192,94655,1,0,0:0:0:0:
256,192,94792,1,0,0:0:0:0:
256,192,94928,1,8,0:0:0:0:
256,192,95201,1,8,0:0:0:0:
256,192,95337,1,0,0:0:0:0:
256,192,95474,1,8,0:0:0:0:
256,192,95610,1,8,0:0:0:0:
256,192,95746,1,0,0:0:0:0:
256,192,96019,1,12,0:0:0:0:
256,192,96292,1,0,0:0:0:0:
256,192,96428,1,12,0:0:0:0:
256,192,96701,1,0,0:0:0:0:
256,192,96837,1,12,0:0:0:0:
256,192,97110,1,0,0:0:0:0:
256,192,97246,1,12,0:0:0:0:
256,192,97519,1,0,0:0:0:0:
256,192,97655,1,8,0:0:0:0:
256,192,97792,1,8,0:0:0:0:
256,192,97928,1,8,0:0:0:0:
256,192,98065,1,4,0:0:0:0:
256,192,98201,12,0,102292,0:0:0:0:
256,192,102565,5,4,0:0:0:0:
