osu file format v14

[General]
AudioFilename: hardcore.mp3
AudioLeadIn: 0
PreviewTime: 28276
Countdown: 0
SampleSet: Normal
StackLeniency: 0.7
Mode: 1
LetterboxInBreaks: 0
WidescreenStoryboard: 0

[Editor]
DistanceSpacing: 0.8
BeatDivisor: 4
GridSize: 32
TimelineZoom: 1.879999

[Metadata]
Title:SIVA
TitleUnicode:SIVA
Artist:sky_delta
ArtistUnicode:sky_delta
Creator:Nishizumi
Version:Inner Oni
Source:
Tags:Hardcore
BeatmapID:1017779
BeatmapSetID:476505

[Difficulty]
HPDrainRate:6
CircleSize:5
OverallDifficulty:6.5
ApproachRate:5
SliderMultiplier:1.4
SliderTickRate:1

[Events]
//Background and Video events
0,0,"bg.jpg",0,33
//Break Periods
//Storyboard Layer 0 (Background)
//Storyboard Layer 1 (Fail)
//Storyboard Layer 2 (Pass)
//Storyboard Layer 3 (Foreground)
//Storyboard Sound Samples

[TimingPoints]
2095,272.727272727273,4,1,0,100,1,0
28004,-99.009900990099,4,1,0,100,0,0
28049,-98.0392156862745,4,1,0,100,0,0
28095,-97.0873786407767,4,1,0,100,0,0
28140,-96.1538461538461,4,1,0,100,0,0
28185,-95.2380952380952,4,1,0,100,0,0
28231,-94.3396226415094,4,1,0,100,0,0
28276,-93.4579439252336,4,1,0,100,0,1
28345,-90.9090909090909,4,1,0,100,0,1
45731,-90.9090909090909,4,1,0,100,0,0
45867,-90.9090909090909,4,1,0,75,0,0
47913,-133.333333333333,4,1,0,75,0,0
53913,-125,4,1,0,80,0,0
54049,-117.647058823529,4,1,0,85,0,0
54185,-111.111111111111,4,1,0,90,0,0
54322,-105.263157894737,4,1,0,95,0,0
54458,-100,4,1,0,100,0,0
65367,250,4,1,0,100,1,0
65367,-102.040816326531,4,1,0,100,0,0
67367,230.769230769231,4,1,0,100,1,0
67367,-104.166666666667,4,1,0,100,0,0
68290,226.415094339623,4,1,0,100,1,0
68290,-105.263157894737,4,1,0,100,0,0
68748,222.222222222222,4,1,0,100,1,8
68748,-106.382978723404,4,1,0,100,0,8
69202,218.181818181818,4,1,0,100,1,0
69202,-107.52688172043,4,1,0,100,0,0
69653,214.285714285714,4,1,0,100,1,8
69653,-108.695652173913,4,1,0,100,0,8
70081,206.896551724138,4,1,0,100,1,0
70081,-111.111111111111,4,1,0,100,0,0
70908,200,4,1,0,100,1,0
70908,-113.636363636364,4,1,0,100,0,0
71708,187.5,4,1,0,100,1,0
71708,-117.647058823529,4,1,0,100,0,0
72458,176.470588235294,4,1,0,100,1,0
72458,-121.951219512195,4,1,0,100,0,0
73163,171.428571428571,4,1,0,100,1,0
73163,-125,4,1,0,100,0,0
73848,166.666666666667,4,1,0,100,1,0
73848,-125,4,1,0,100,0,0
74514,162.162162162162,4,1,0,100,1,0
74514,-125,4,1,0,100,0,0
75162,157.894736842105,4,1,0,100,1,0
75162,-125,4,1,0,100,0,0
75793,153.846153846154,4,1,0,100,1,0
75793,-125,4,1,0,100,0,0
76485,-111.111111111111,4,1,0,100,0,0
78254,153.846153846154,4,1,0,100,1,8
78254,-111.111111111111,4,1,0,100,0,0
78565,272.727272727273,4,1,0,100,1,0
78565,-90.9090909090909,4,1,0,100,0,1
87292,-66.6666666666667,4,1,0,80,0,0
89201,-50,4,1,0,100,0,0
89474,-86.9565217391304,4,1,0,100,0,1
98065,-86.9565217391304,4,1,0,100,0,0
98201,-86.9565217391304,4,1,0,80,0,0
102565,-86.9565217391304,4,1,0,100,0,0

[HitObjects]
256,192,2095,5,4,0:0:0:0:
256,192,3867,1,4,0:0:0:0:
256,192,4276,1,4,0:0:0:0:
256,192,6185,1,4,0:0:0:0:
256,192,6458,1,4,0:0:0:0:
256,192,7549,1,4,0:0:0:0:
256,192,8640,1,4,0:0:0:0:
256,192,9185,1,4,0:0:0:0:
256,192,9731,1,4,0:0:0:0:
256,192,10004,1,4,0:0:0:0:
256,192,10413,1,4,0:0:0:0:
256,192,10549,1,12,0:0:0:0:
256,192,10822,1,4,0:0:0:0:
256,192,10958,1,0,0:0:0:0:
256,192,11026,1,0,0:0:0:0:
256,192,11094,1,8,0:0:0:0:
256,192,11230,1,0,0:0:0:0:
256,192,11367,1,8,0:0:0:0:
256,192,11504,1,8,0:0:0:0:
256,192,11572,1,8,0:0:0:0:
256,192,11640,1,0,0:0:0:0:
256,192,11776,1,0,0:0:0:0:
256,192,11913,1,8,0:0:0:0:
256,192,12049,1,0,0:0:0:0:
256,192,12117,1,0,0:0:0:0:
256,192,12185,1,8,0:0:0:0:
256,192,12322,1,0,0:0:0:0:
256,192,12458,1,8,0:0:0:0:
256,192,12595,1,8,0:0:0:0:
256,192,12663,1,0,0:0:0:0:
256,192,12731,1,8,0:0:0:0:
256,192,13004,1,0,0:0:0:0:
256,192,13140,1,0,0:0:0:0:
256,192,13208,1,0,0:0:0:0:
256,192,13276,1,8,0:0:0:0:
256,192,13413,1,0,0:0:0:0:
256,192,13549,1,8,0:0:0:0:
256,192,13685,1,0,0:0:0:0:
256,192,13754,1,0,0:0:0:0:
256,192,13822,1,0,0:0:0:0:
256,192,13958,1,0,0:0:0:0:
256,192,14095,1,8,0:0:0:0:
256,192,14163,1,8,0:0:0:0:
256,192,14231,1,0,0:0:0:0:
256,192,14367,1,0,0:0:0:0:
256,192,14435,1,0,0:0:0:0:
256,192,14504,1,8,0:0:0:0:
256,192,14572,1,0,0:0:0:0:
256,192,14640,1,8,0:0:0:0:
256,192,14776,1,0,0:0:0:0:
256,192,14845,1,0,0:0:0:0:
256,192,14913,1,8,0:0:0:0:
256,192,14981,1,8,0:0:0:0:
256,192,15049,1,0,0:0:0:0:
256,192,15185,1,4,0:0:0:0:
256,192,15322,1,0,0:0:0:0:
256,192,15390,1,0,0:0:0:0:
256,192,15458,1,8,0:0:0:0:
256,192,15595,1,0,0:0:0:0:
256,192,15731,1,8,0:0:0:0:
256,192,15867,1,8,0:0:0:0:
256,192,15935,1,8,0:0:0:0:
256,192,16004,1,0,0:0:0:0:
256,192,16140,1,0,0:0:0:0:
256,192,16276,1,12,0:0:0:0:
256,192,16413,1,0,0:0:0:0:
256,192,16481,1,0,0:0:0:0:
256,192,16549,1,8,0:0:0:0:
256,192,16685,1,0,0:0:0:0:
256,192,16822,1,8,0:0:0:0:
256,192,16890,1,8,0:0:0:0:
256,192,16958,1,0,0:0:0:0:
256,192,17026,1,0,0:0:0:0:
256,192,17095,1,8,0:0:0:0:
256,192,17231,1,8,0:0:0:0:
256,192,17367,1,4,0:0:0:0:
256,192,17504,1,0,0:0:0:0:
256,192,17572,1,0,0:0:0:0:
256,192,17640,1,8,0:0:0:0:
256,192,17776,1,0,0:0:0:0:
256,192,17913,1,12,0:0:0:0:
256,192,18049,1,8,0:0:0:0:
256,192,18117,1,8,0:0:0:0:
256,192,18185,1,0,0:0:0:0:
256,192,18322,1,0,0:0:0:0:
256,192,18458,1,12,0:0:0:0:
256,192,18595,1,0,0:0:0:0:
256,192,18663,1,0,0:0:0:0:
256,192,18731,1,8,0:0:0:0:
256,192,18867,1,0,0:0:0:0:
256,192,19140,1,12,0:0:0:0:
256,192,19276,1,12,0:0:0:0:
256,192,19413,1,8,0:0:0:0:
256,192,19458,1,8,0:0:0:0:
256,192,19504,1,8,0:0:0:0:
256,192,19549,1,0,0:0:0:0:
256,192,19685,1,0,0:0:0:0:
256,192,19754,1,0,0:0:0:0:
256,192,19822,1,8,0:0:0:0:
256,192,19958,1,0,0:0:0:0:
256,192,20095,1,8,0:0:0:0:
256,192,20163,1,0,0:0:0:0:
256,192,20231,1,8,0:0:0:0:
256,192,20367,1,0,0:0:0:0:
256,192,20504,1,0,0:0:0:0:
256,192,20640,1,8,0:0:0:0:
256,192,20776,1,0,0:0:0:0:
256,192,20845,1,0,0:0:0:0:
256,192,20913,1,8,0:0:0:0:
256,192,21049,1,8,0:0:0:0:
256,192,21185,1,0,0:0:0:0:
256,192,21254,1,0,0:0:0:0:
256,192,21322,1,0,0:0:0:0:
256,192,21458,1,8,0:0:0:0:
256,192,21731,1,0,0:0:0:0:
256,192,21867,1,0,0:0:0:0:
256,192,21935,1,0,0:0:0:0:
256,192,22004,1,8,0:0:0:0:
256,192,22140,1,0,0:0:0:0:
256,192,22276,1,8,0:0:0:0:
256,192,22345,1,8,0:0:0:0:
256,192,22413,1,8,0:0:0:0:
256,192,22549,1,0,0:0:0:0:
256,192,22685,1,0,0:0:0:0:
256,192,22822,1,8,0:0:0:0:
256,192,22958,1,0,0:0:0:0:
256,192,23026,1,0,0:0:0:0:
256,192,23095,1,8,0:0:0:0:
256,192,23231,1,0,0:0:0:0:
256,192,23367,1,8,0:0:0:0:
256,192,23504,1,8,0:0:0:0:
256,192,23572,1,8,0:0:0:0:
256,192,23640,1,0,0:0:0:0:
256,192,23913,1,4,0:0:0:0:
256,192,24049,1,0,0:0:0:0:
256,192,24185,1,8,0:0:0:0:
256,192,24322,1,0,0:0:0:0:
256,192,24458,1,0,0:0:0:0:
256,192,24595,1,0,0:0:0:0:
256,192,24731,1,8,0:0:0:0:
256,192,24867,1,8,0:0:0:0:
256,192,25004,1,4,0:0:0:0:
256,192,25140,1,0,0:0:0:0:
256,192,25276,1,8,0:0:0:0:
256,192,25413,1,0,0:0:0:0:
256,192,25549,1,0,0:0:0:0:
256,192,25685,1,0,0:0:0:0:
256,192,25822,1,8,0:0:0:0:
256,192,25958,1,8,0:0:0:0:
256,192,26095,5,0,0:0:0:0:
256,192,26163,1,0,0:0:0:0:
256,192,26231,1,0,0:0:0:0:
256,192,26299,1,0,0:0:0:0:
256,192,26367,1,8,0:0:0:0:
256,192,26435,1,8,0:0:0:0:
256,192,26504,1,8,0:0:0:0:
256,192,26572,1,8,0:0:0:0:
256,192,26640,1,0,0:0:0:0:
256,192,26708,1,0,0:0:0:0:
256,192,26776,1,0,0:0:0:0:
256,192,26845,1,0,0:0:0:0:
256,192,26913,1,8,0:0:0:0:
256,192,26981,1,0,0:0:0:0:
256,192,27049,1,8,0:0:0:0:
256,192,27117,1,8,0:0:0:0:
256,192,27185,1,0,0:0:0:0:
256,192,27458,1,12,0:0:0:0:
256,192,27731,1,12,0:0:0:0:
256,192,28004,1,8,0:0:0:0:
256,192,28049,1,8,0:0:0:0:
256,192,28095,1,8,0:0:0:0:
256,192,28140,1,8,0:0:0:0:
256,192,28185,1,8,0:0:0:0:
256,192,28231,1,8,0:0:0:0:
256,192,28276,1,0,0:0:0:0:
256,192,28413,1,0,0:0:0:0:
256,192,28481,1,0,0:0:0:0:
256,192,28549,1,8,0:0:0:0:
256,192,28685,1,0,0:0:0:0:
256,192,28822,1,8,0:0:0:0:
256,192,28890,1,0,0:0:0:0:
256,192,28958,1,8,0:0:0:0:
256,192,29026,1,8,0:0:0:0:
256,192,29095,1,0,0:0:0:0:
256,192,29231,1,0,0:0:0:0:
256,192,29367,1,8,0:0:0:0:
256,192,29504,1,0,0:0:0:0:
256,192,29572,1,0,0:0:0:0:
256,192,29640,1,8,0:0:0:0:
256,192,29776,1,0,0:0:0:0:
256,192,29913,1,8,0:0:0:0:
256,192,29981,1,8,0:0:0:0:
256,192,30049,1,0,0:0:0:0:
256,192,30185,1,8,0:0:0:0:
256,192,30458,1,0,0:0:0:0:
256,192,30595,1,0,0:0:0:0:
256,192,30663,1,0,0:0:0:0:
256,192,30731,1,8,0:0:0:0:
256,192,30867,1,0,0:0:0:0:
256,192,31004,1,8,0:0:0:0:
256,192,31072,1,0,0:0:0:0:
256,192,31140,1,8,0:0:0:0:
256,192,31208,1,8,0:0:0:0:
256,192,31276,1,0,0:0:0:0:
256,192,31413,1,0,0:0:0:0:
256,192,31549,1,8,0:0:0:0:
256,192,31685,1,0,0:0:0:0:
256,192,31754,1,0,0:0:0:0:
256,192,31822,1,8,0:0:0:0:
256,192,31890,1,8,0:0:0:0:
256,192,31958,1,0,0:0:0:0:
256,192,32231,1,8,0:0:0:0:
256,192,32367,1,8,0:0:0:0:
256,192,32504,1,8,0:0:0:0:
256,192,32572,1,8,0:0:0:0:
256,192,32640,1,0,0:0:0:0:
256,192,32776,1,0,0:0:0:0:
256,192,32845,1,0,0:0:0:0:
256,192,32913,1,8,0:0:0:0:
256,192,33049,1,0,0:0:0:0:
256,192,33185,1,8,0:0:0:0:
256,192,33254,1,8,0:0:0:0:
256,192,33322,1,0,0:0:0:0:
256,192,33390,1,0,0:0:0:0:
256,192,33458,1,8,0:0:0:0:
256,192,33595,1,0,0:0:0:0:
256,192,33731,1,8,0:0:0:0:
256,192,33867,1,0,0:0:0:0:
256,192,33935,1,0,0:0:0:0:
256,192,34004,1,8,0:0:0:0:
256,192,34140,1,0,0:0:0:0:
256,192,34276,1,8,0:0:0:0:
256,192,34345,1,8,0:0:0:0:
256,192,34413,1,0,0:0:0:0:
256,192,34549,1,8,0:0:0:0:
256,192,34822,1,4,0:0:0:0:
256,192,34958,1,0,0:0:0:0:
256,192,35026,1,0,0:0:0:0:
256,192,35095,1,8,0:0:0:0:
256,192,35231,1,0,0:0:0:0:
256,192,35367,1,8,0:0:0:0:
256,192,35435,1,8,0:0:0:0:
256,192,35504,1,0,0:0:0:0:
256,192,35572,1,0,0:0:0:0:
256,192,35640,1,8,0:0:0:0:
256,192,35776,1,0,0:0:0:0:
256,192,35913,1,12,0:0:0:0:
256,192,36049,1,0,0:0:0:0:
256,192,36117,1,0,0:0:0:0:
256,192,36185,1,8,0:0:0:0:
256,192,36322,1,0,0:0:0:0:
256,192,36595,1,12,0:0:0:0:
256,192,36731,1,12,0:0:0:0:
256,192,36867,1,8,0:0:0:0:
256,192,36913,1,8,0:0:0:0:
256,192,36958,1,8,0:0:0:0:
256,192,37004,1,0,0:0:0:0:
256,192,37140,1,0,0:0:0:0:
256,192,37208,1,0,0:0:0:0:
256,192,37276,1,8,0:0:0:0:
256,192,37412,1,0,0:0:0:0:
256,192,37549,1,8,0:0:0:0:
256,192,37617,1,0,0:0:0:0:
256,192,37685,1,8,0:0:0:0:
256,192,37753,1,8,0:0:0:0:
256,192,37822,1,0,0:0:0:0:
256,192,37958,1,0,0:0:0:0:
256,192,38094,1,8,0:0:0:0:
256,192,38231,1,0,0:0:0:0:
256,192,38299,1,0,0:0:0:0:
256,192,38367,1,8,0:0:0:0:
256,192,38503,1,0,0:0:0:0:
256,192,38640,1,8,0:0:0:0:
256,192,38708,1,8,0:0:0:0:
256,192,38776,1,0,0:0:0:0:
256,192,38845,1,0,0:0:0:0:
256,192,38912,1,8,0:0:0:0:
256,192,38981,1,0,0:0:0:0:
256,192,39049,1,8,0:0:0:0:
256,192,39185,1,0,0:0:0:0:
256,192,39322,1,0,0:0:0:0:
256,192,39390,1,0,0:0:0:0:
256,192,39458,1,8,0:0:0:0:
256,192,39594,1,0,0:0:0:0:
256,192,39731,1,8,0:0:0:0:
256,192,39799,1,8,0:0:0:0:
256,192,39867,1,0,0:0:0:0:
256,192,39935,1,0,0:0:0:0:
256,192,40003,1,8,0:0:0:0:
256,192,40140,1,0,0:0:0:0:
256,192,40276,1,8,0:0:0:0:
256,192,40412,1,8,0:0:0:0:
256,192,40481,1,0,0:0:0:0:
256,192,40549,1,8,0:0:0:0:
256,192,40617,1,8,0:0:0:0:
256,192,40685,1,0,0:0:0:0:
256,192,40958,1,8,0:0:0:0:
256,192,41095,1,8,0:0:0:0:
256,192,41231,1,8,0:0:0:0:
256,192,41299,1,8,0:0:0:0:
256,192,41367,1,0,0:0:0:0:
256,192,41504,1,0,0:0:0:0:
256,192,41572,1,0,0:0:0:0:
256,192,41640,1,8,0:0:0:0:
256,192,41776,1,0,0:0:0:0:
256,192,41913,1,8,0:0:0:0:
256,192,41981,1,0,0:0:0:0:
256,192,42049,1,8,0:0:0:0:
256,192,42117,1,8,0:0:0:0:
256,192,42185,1,0,0:0:0:0:
256,192,42254,1,0,0:0:0:0:
256,192,42322,1,0,0:0:0:0:
256,192,42390,1,0,0:0:0:0:
256,192,42458,1,8,0:0:0:0:
256,192,42595,1,0,0:0:0:0:
256,192,42663,1,0,0:0:0:0:
256,192,42731,1,8,0:0:0:0:
256,192,42867,1,0,0:0:0:0:
256,192,43004,1,8,0:0:0:0:
256,192,43072,1,8,0:0:0:0:
256,192,43140,1,0,0:0:0:0:
256,192,43208,1,0,0:0:0:0:
256,192,43276,1,8,0:0:0:0:
256,192,43345,1,0,0:0:0:0:
256,192,43413,1,8,0:0:0:0:
256,192,43458,1,8,0:0:0:0:
256,192,43504,1,8,0:0:0:0:
256,192,43549,1,0,0:0:0:0:
256,192,43685,1,8,0:0:0:0:
256,192,43754,1,8,0:0:0:0:
256,192,43822,1,0,0:0:0:0:
256,192,43890,1,0,0:0:0:0:
256,192,43958,1,8,0:0:0:0:
256,192,44026,1,0,0:0:0:0:
256,192,44095,1,8,0:0:0:0:
256,192,44163,1,8,0:0:0:0:
256,192,44231,1,8,0:0:0:0:
256,192,44299,1,0,0:0:0:0:
256,192,44367,1,8,0:0:0:0:
256,192,44435,1,8,0:0:0:0:
256,192,44504,1,8,0:0:0:0:
256,192,44572,1,8,0:0:0:0:
256,192,44640,1,0,0:0:0:0:
256,192,44776,1,0,0:0:0:0:
256,192,44845,1,0,0:0:0:0:
256,192,44913,1,8,0:0:0:0:
256,192,44958,1,8,0:0:0:0:
256,192,45004,1,8,0:0:0:0:
256,192,45049,1,0,0:0:0:0:
256,192,45185,1,0,0:0:0:0:
256,192,45322,1,8,0:0:0:0:
256,192,45367,1,8,0:0:0:0:
256,192,45413,1,8,0:0:0:0:
256,192,45458,1,0,0:0:0:0:
256,192,45526,1,0,0:0:0:0:
256,192,45595,1,8,0:0:0:0:
256,192,45640,1,8,0:0:0:0:
256,192,45685,1,8,0:0:0:0:
256,192,45731,1,0,0:0:0:0:
256,192,45867,12,0,47640,0:0:0:0:
256,192,47913,5,0,0:0:0:0:
256,192,50095,1,0,0:0:0:0:
256,192,52276,1,0,0:0:0:0:
256,192,53367,1,0,0:0:0:0:
256,192,53913,1,8,0:0:0:0:
256,192,54049,1,0,0:0:0:0:
256,192,54185,1,8,0:0:0:0:
256,192,54322,1,8,0:0:0:0:
256,192,54458,1,4,0:0:0:0:
256,192,55004,1,8,0:0:0:0:
256,192,55276,1,0,0:0:0:0:
256,192,55413,1,0,0:0:0:0:
256,192,55549,1,0,0:0:0:0:
256,192,55822,1,0,0:0:0:0:
256,192,56095,1,8,0:0:0:0:
256,192,56367,1,8,0:0:0:0:
256,192,56640,1,0,0:0:0:0:
256,192,57185,1,8,0:0:0:0:
256,192,57458,1,0,0:0:0:0:
256,192,57595,1,0,0:0:0:0:
256,192,57731,1,0,0:0:0:0:
256,192,58004,1,8,0:0:0:0:
256,192,58276,1,0,0:0:0:0:
256,192,58549,1,8,0:0:0:0:
256,192,58822,1,0,0:0:0:0:
256,192,59367,1,8,0:0:0:0:
256,192,59640,1,0,0:0:0:0:
256,192,59776,1,0,0:0:0:0:
256,192,59913,1,0,0:0:0:0:
256,192,60185,1,0,0:0:0:0:
256,192,60458,1,8,0:0:0:0:
256,192,60731,1,8,0:0:0:0:
256,192,61004,1,0,0:0:0:0:
256,192,61549,1,8,0:0:0:0:
256,192,61822,1,0,0:0:0:0:
256,192,61958,1,0,0:0:0:0:
256,192,62095,1,0,0:0:0:0:
256,192,62367,1,0,0:0:0:0:
256,192,62640,1,12,0:0:0:0:
256,192,62913,1,12,0:0:0:0:
256,192,63185,1,4,0:0:0:0:
256,192,63458,1,0,0:0:0:0:
256,192,63731,1,8,0:0:0:0:
256,192,63867,1,8,0:0:0:0:
256,192,64004,1,0,0:0:0:0:
256,192,64140,1,0,0:0:0:0:
256,192,64276,1,8,0:0:0:0:
256,192,64549,1,8,0:0:0:0:
256,192,64685,1,0,0:0:0:0:
256,192,64822,1,8,0:0:0:0:
256,192,64958,1,0,0:0:0:0:
256,192,65095,1,12,0:0:0:0:
256,192,65367,1,4,0:0:0:0:
256,192,65617,1,0,0:0:0:0:
256,192,65867,1,8,0:0:0:0:
256,192,65992,1,8,0:0:0:0:
256,192,66117,1,0,0:0:0:0:
256,192,66242,1,0,0:0:0:0:
256,192,66367,1,8,0:0:0:0:
256,192,66617,1,8,0:0:0:0:
256,192,66742,1,0,0:0:0:0:
256,192,66867,1,8,0:0:0:0:
256,192,66992,1,0,0:0:0:0:
256,192,67117,1,12,0:0:0:0:
256,192,67367,1,4,0:0:0:0:
256,192,67597,1,0,0:0:0:0:
256,192,67828,1,8,0:0:0:0:
256,192,67943,1,8,0:0:0:0:
256,192,68059,1,0,0:0:0:0:
256,192,68174,1,0,0:0:0:0:
256,192,68290,1,12,0:0:0:0:
256,192,68516,1,8,0:0:0:0:
256,192,68629,1,0,0:0:0:0:
256,192,68748,1,12,0:0:0:0:
256,192,68970,1,0,0:0:0:0:
256,192,69202,1,12,0:0:0:0:
256,192,69420,1,0,0:0:0:0:
256,192,69529,1,0,0:0:0:0:
256,192,69653,1,12,0:0:0:0:
256,192,69867,1,0,0:0:0:0:
256,192,70081,1,12,0:0:0:0:
256,192,70287,1,0,0:0:0:0:
256,192,70391,1,12,0:0:0:0:
256,192,70598,1,0,0:0:0:0:
256,192,70701,1,12,0:0:0:0:
256,192,70908,1,4,0:0:0:0:
256,192,71108,1,8,0:0:0:0:
256,192,71208,1,0,0:0:0:0:
256,192,71308,1,8,0:0:0:0:
256,192,71408,1,0,0:0:0:0:
256,192,71508,1,0,0:0:0:0:
256,192,71608,1,0,0:0:0:0:
256,192,71708,1,12,0:0:0:0:
256,192,71895,1,0,0:0:0:0:
256,192,71989,1,0,0:0:0:0:
256,192,72083,1,8,0:0:0:0:
256,192,72176,1,0,0:0:0:0:
256,192,72270,1,8,0:0:0:0:
256,192,72364,1,8,0:0:0:0:
256,192,72458,1,4,0:0:0:0:
256,192,72634,1,8,0:0:0:0:
256,192,72722,1,0,0:0:0:0:
256,192,72810,1,8,0:0:0:0:
256,192,72899,1,0,0:0:0:0:
256,192,72987,1,0,0:0:0:0:
256,192,73075,1,0,0:0:0:0:
256,192,73163,1,12,0:0:0:0:
256,192,73334,1,0,0:0:0:0:
256,192,73420,1,0,0:0:0:0:
256,192,73505,1,8,0:0:0:0:
256,192,73591,1,0,0:0:0:0:
256,192,73677,1,8,0:0:0:0:
256,192,73763,1,8,0:0:0:0:
256,192,73848,1,4,0:0:0:0:
256,192,74014,1,0,0:0:0:0:
256,192,74098,1,0,0:0:0:0:
256,192,74181,1,12,0:0:0:0:
256,192,74348,1,8,0:0:0:0:
256,192,74431,1,8,0:0:0:0:
256,192,74514,1,4,0:0:0:0:
256,192,74676,1,0,0:0:0:0:
256,192,74757,1,0,0:0:0:0:
256,192,74838,1,12,0:0:0:0:
256,192,75000,1,8,0:0:0:0:
256,192,75081,1,8,0:0:0:0:
256,192,75162,1,4,0:0:0:0:
256,192,75319,1,0,0:0:0:0:
256,192,75398,1,0,0:0:0:0:
256,192,75477,1,12,0:0:0:0:
256,192,75635,1,8,0:0:0:0:
256,192,75714,1,8,0:0:0:0:
256,192,75793,1,0,0:0:0:0:
256,192,75869,1,0,0:0:0:0:
256,192,75946,1,8,0:0:0:0:
256,192,76023,1,0,0:0:0:0:
256,192,76100,1,8,0:0:0:0:
256,192,76177,1,0,0:0:0:0:
256,192,76254,1,8,0:0:0:0:
256,192,76331,1,8,0:0:0:0:
256,192,76408,1,0,0:0:0:0:
256,192,76485,12,0,78330,0:0:0:0:
256,192,78565,5,4,0:0:0:0:
256,192,78701,1,8,0:0:0:0:
256,192,78769,1,8,0:0:0:0:
256,192,78837,1,0,0:0:0:0:
256,192,78974,1,8,0:0:0:0:
256,192,79110,1,0,0:0:0:0:
256,192,79178,1,0,0:0:0:0:
256,192,79246,1,8,0:0:0:0:
256,192,79315,1,0,0:0:0:0:
256,192,79383,1,8,0:0:0:0:
256,192,79451,1,8,0:0:0:0:
256,192,79519,1,0,0:0:0:0:
256,192,79587,1,0,0:0:0:0:
256,192,79655,1,8,0:0:0:0:
256,192,79792,1,8,0:0:0:0:
256,192,79860,1,0,0:0:0:0:
256,192,79928,1,8,0:0:0:0:
256,192,80065,1,0,0:0:0:0:
256,192,80201,1,8,0:0:0:0:
256,192,80269,1,8,0:0:0:0:
256,192,80337,1,0,0:0:0:0:
256,192,80405,1,0,0:0:0:0:
256,192,80474,1,8,0:0:0:0:
256,192,80542,1,0,0:0:0:0:
256,192,80610,1,8,0:0:0:0:
256,192,80678,1,8,0:0:0:0:
256,192,80746,1,0,0:0:0:0:
256,192,80883,1,8,0:0:0:0:
256,192,80951,1,8,0:0:0:0:
256,192,81019,1,0,0:0:0:0:
256,192,81155,1,8,0:0:0:0:
256,192,81292,1,0,0:0:0:0:
256,192,81360,1,0,0:0:0:0:
256,192,81428,1,8,0:0:0:0:
256,192,81496,1,0,0:0:0:0:
256,192,81565,1,8,0:0:0:0:
256,192,81633,1,8,0:0:0:0:
256,192,81701,1,0,0:0:0:0:
256,192,81769,1,0,0:0:0:0:
256,192,81837,1,8,0:0:0:0:
256,192,81905,1,8,0:0:0:0:
256,192,81974,1,8,0:0:0:0:
256,192,82042,1,0,0:0:0:0:
256,192,82110,1,8,0:0:0:0:
256,192,82178,1,8,0:0:0:0:
256,192,82246,1,0,0:0:0:0:
256,192,82315,1,0,0:0:0:0:
256,192,82383,1,8,0:0:0:0:
256,192,82451,1,8,0:0:0:0:
256,192,82519,1,0,0:0:0:0:
256,192,82587,1,8,0:0:0:0:
256,192,82655,1,0,0:0:0:0:
256,192,82724,1,0,0:0:0:0:
256,192,82792,1,8,0:0:0:0:
256,192,82928,1,4,0:0:0:0:
256,192,83065,1,8,0:0:0:0:
256,192,83133,1,8,0:0:0:0:
256,192,83201,1,0,0:0:0:0:
256,192,83337,1,8,0:0:0:0:
256,192,83474,1,0,0:0:0:0:
256,192,83542,1,0,0:0:0:0:
256,192,83610,1,8,0:0:0:0:
256,192,83678,1,8,0:0:0:0:
256,192,83746,1,0,0:0:0:0:
256,192,83815,1,0,0:0:0:0:
256,192,83883,1,8,0:0:0:0:
256,192,83951,1,0,0:0:0:0:
256,192,84019,1,8,0:0:0:0:
256,192,84155,1,8,0:0:0:0:
256,192,84224,1,0,0:0:0:0:
256,192,84292,1,8,0:0:0:0:
256,192,84428,1,0,0:0:0:0:
256,192,84565,1,8,0:0:0:0:
256,192,84633,1,0,0:0:0:0:
256,192,84701,1,8,0:0:0:0:
256,192,84769,1,8,0:0:0:0:
256,192,84837,1,0,0:0:0:0:
256,192,84905,1,0,0:0:0:0:
256,192,84974,1,8,0:0:0:0:
256,192,85110,1,4,0:0:0:0:
256,192,85246,1,8,0:0:0:0:
256,192,85315,1,8,0:0:0:0:
256,192,85383,1,0,0:0:0:0:
256,192,85519,1,8,0:0:0:0:
256,192,85655,1,0,0:0:0:0:
256,192,85724,1,0,0:0:0:0:
256,192,85792,1,8,0:0:0:0:
256,192,85860,1,8,0:0:0:0:
256,192,85928,1,0,0:0:0:0:
256,192,85996,1,0,0:0:0:0:
256,192,86065,1,8,0:0:0:0:
256,192,86133,1,0,0:0:0:0:
256,192,86201,1,8,0:0:0:0:
256,192,86269,1,0,0:0:0:0:
256,192,86337,1,8,0:0:0:0:
256,192,86405,1,8,0:0:0:0:
256,192,86474,1,0,0:0:0:0:
256,192,86542,1,8,0:0:0:0:
256,192,86610,1,0,0:0:0:0:
256,192,86678,1,0,0:0:0:0:
256,192,86746,1,8,0:0:0:0:
256,192,86883,1,0,0:0:0:0:
256,192,86928,1,0,0:0:0:0:
256,192,86974,1,0,0:0:0:0:
256,192,87019,1,8,0:0:0:0:
256,192,87155,1,8,0:0:0:0:
43,213,87292,6,4,P|27:154|130:321,1,1365.00005207062
256,192,89201,1,12,0:0:0:0:
256,192,89474,1,0,0:0:0:0:
256,192,89542,1,0,0:0:0:0:
256,192,89610,1,8,0:0:0:0:
256,192,89678,1,8,0:0:0:0:
256,192,89746,1,0,0:0:0:0:
256,192,89815,1,0,0:0:0:0:
256,192,89883,1,8,0:0:0:0:
256,192,89928,1,0,0:0:0:0:
256,192,89974,1,0,0:0:0:0:
256,192,90019,1,8,0:0:0:0:
256,192,90087,1,0,0:0:0:0:
256,192,90155,1,8,0:0:0:0:
256,192,90201,1,8,0:0:0:0:
256,192,90246,1,8,0:0:0:0:
256,192,90292,1,0,0:0:0:0:
256,192,90360,1,0,0:0:0:0:
256,192,90428,1,8,0:0:0:0:
256,192,90496,1,0,0:0:0:0:
256,192,90565,1,8,0:0:0:0:
256,192,90633,1,8,0:0:0:0:
256,192,90701,1,0,0:0:0:0:
256,192,90769,1,0,0:0:0:0:
256,192,90837,1,8,0:0:0:0:
256,192,90905,1,8,0:0:0:0:
256,192,90974,1,0,0:0:0:0:
256,192,91042,1,8,0:0:0:0:
256,192,91110,1,8,0:0:0:0:
256,192,91178,1,0,0:0:0:0:
256,192,91246,1,8,0:0:0:0:
256,192,91315,1,0,0:0:0:0:
256,192,91383,1,0,0:0:0:0:
256,192,91451,1,0,0:0:0:0:
256,192,91519,1,8,0:0:0:0:
256,192,91587,1,8,0:0:0:0:
256,192,91655,1,0,0:0:0:0:
256,192,91792,1,8,0:0:0:0:
256,192,91860,1,8,0:0:0:0:
256,192,91928,1,0,0:0:0:0:
256,192,92065,1,8,0:0:0:0:
256,192,92201,1,0,0:0:0:0:
256,192,92269,1,0,0:0:0:0:
256,192,92337,1,8,0:0:0:0:
256,192,92405,1,8,0:0:0:0:
256,192,92474,1,0,0:0:0:0:
256,192,92610,1,8,0:0:0:0:
256,192,92678,1,0,0:0:0:0:
256,192,92746,1,8,0:0:0:0:
256,192,92883,1,0,0:0:0:0:
256,192,93019,1,8,0:0:0:0:
256,192,93087,1,8,0:0:0:0:
256,192,93155,1,0,0:0:0:0:
256,192,93224,1,0,0:0:0:0:
256,192,93292,1,8,0:0:0:0:
256,192,93428,1,0,0:0:0:0:
256,192,93565,1,8,0:0:0:0:
256,192,93701,1,8,0:0:0:0:
256,192,93769,1,8,0:0:0:0:
256,192,93837,1,0,0:0:0:0:
256,192,93905,1,8,0:0:0:0:
256,192,93974,1,0,0:0:0:0:
256,192,94042,1,0,0:0:0:0:
256,192,94110,1,8,0:0:0:0:
256,192,94178,1,0,0:0:0:0:
256,192,94246,1,8,0:0:0:0:
256,192,94315,1,8,0:0:0:0:
256,192,94383,1,0,0:0:0:0:
256,192,94451,1,0,0:0:0:0:
256,192,94519,1,8,0:0:0:0:
256,192,94587,1,8,0:0:0:0:
256,192,94655,1,8,0:0:0:0:
256,192,94724,1,0,0:0:0:0:
256,192,94792,1,0,0:0:0:0:
256,192,94860,1,0,0:0:0:0:
256,192,94928,1,8,0:0:0:0:
256,192,95065,1,0,0:0:0:0:
256,192,95133,1,0,0:0:0:0:
256,192,95201,1,8,0:0:0:0:
256,192,95246,1,8,0:0:0:0:
256,192,95292,1,8,0:0:0:0:
256,192,95337,1,0,0:0:0:0:
256,192,95474,1,0,0:0:0:0:
256,192,95610,1,8,0:0:0:0:
256,192,95655,1,8,0:0:0:0:
256,192,95701,1,8,0:0:0:0:
256,192,95746,1,0,0:0:0:0:
256,192,95883,1,0,0:0:0:0:
256,192,96019,1,12,0:0:0:0:
256,192,96155,1,0,0:0:0:0:
256,192,96224,1,0,0:0:0:0:
256,192,96292,1,0,0:0:0:0:
256,192,96428,1,12,0:0:0:0:
256,192,96565,1,0,0:0:0:0:
256,192,96633,1,0,0:0:0:0:
256,192,96701,1,0,0:0:0:0:
256,192,96837,1,12,0:0:0:0:
256,192,96974,1,0,0:0:0:0:
256,192,97042,1,0,0:0:0:0:
256,192,97110,1,0,0:0:0:0:
256,192,97246,1,12,0:0:0:0:
256,192,97383,1,0,0:0:0:0:
256,192,97451,1,0,0:0:0:0:
256,192,97519,1,0,0:0:0:0:
256,192,97655,1,8,0:0:0:0:
256,192,97724,1,0,0:0:0:0:
256,192,97792,1,8,0:0:0:0:
256,192,97928,1,8,0:0:0:0:
256,192,98065,1,4,0:0:0:0:
256,192,98201,12,0,102292,0:0:0:0:
256,192,102565,5,4,0:0:0:0:
