osu file format v14

[General]
AudioFilename: audio.mp3
AudioLeadIn: 0
PreviewTime: 78993
Countdown: 0
SampleSet: Soft
StackLeniency: 0.7
Mode: 0
LetterboxInBreaks: 0
WidescreenStoryboard: 1

[Editor]
DistanceSpacing: 1.4
BeatDivisor: 4
GridSize: 4
TimelineZoom: 2.3

[Metadata]
Title:Cryonix
TitleUnicode:Cryonix
Artist:sky_delta
ArtistUnicode:sky_delta
Creator:captin1
Version:Hard
Source:BMS
Tags:endorfin. bof of fighter 2015 artcore doormat meg iMage--
BeatmapID:1078438
BeatmapSetID:486599

[Difficulty]
HPDrainRate:5
CircleSize:4
OverallDifficulty:6
ApproachRate:7.5
SliderMultiplier:1.4
SliderTickRate:1

[Events]
//Background and Video events
0,0,"cryonix.jpg",0,0
//Break Periods
2,69329,73521
//Storyboard Layer 0 (Background)
//Storyboard Layer 1 (Fail)
//Storyboard Layer 2 (Pass)
//Storyboard Layer 3 (Foreground)
//Storyboard Sound Samples

[TimingPoints]
1303,326.086956521739,4,2,1,60,1,0
1303,-133.333333333333,4,2,1,60,0,0
20868,-90.9090909090909,4,2,1,70,0,0
21683,-133.333333333333,4,2,1,50,0,0
22172,-100,4,2,1,70,0,0
32281,-100,4,2,1,60,0,0
32362,-100,4,2,1,70,0,0
37009,-90.9090909090909,4,2,1,70,0,0
37824,-100,4,2,1,70,0,0
43042,-90.9090909090909,4,2,1,70,0,0
58042,-100,4,2,1,60,0,0
74346,-133.333333333333,4,2,1,40,0,0
75650,-100,4,2,1,50,0,0
76955,-100,4,2,1,60,0,0
79400,-90.9090909090909,4,2,1,60,0,1
79563,-90.9090909090909,4,2,1,70,0,1
93259,-90.9090909090909,4,2,1,70,0,1
93748,-90.9090909090909,4,2,1,70,0,1
100433,-133.333333333333,4,2,1,50,0,0

[Colours]
Combo1 : 255,94,55
Combo2 : 173,255,95
Combo3 : 17,254,176
Combo4 : 255,88,100

[HitObjects]
109,119,1303,6,0,P|152:116|214:106,1,105.000004005432,2|0,0:0|0:0,0:0:0:0:
240,174,1792,2,0,P|292:178|344:186,1,105.000004005432,2|0,0:0|0:0,0:0:0:0:
409,153,2281,1,2,0:0:0:0:
409,153,2444,2,0,P|449:145|475:139,1,52.5000020027161,0|0,0:0|0:0,0:0:0:0:
499,204,2770,2,0,L|495:271,1,52.5000020027161,2|0,0:0|0:0,0:0:0:0:
493,329,3096,1,0,0:0:0:0:
493,329,3259,2,0,P|448:316|384:304,1,105.000004005432,2|2,0:0|0:0,0:0:0:0:
311,181,3911,6,0,L|302:71,1,105.000004005432,2|0,0:0|0:0,0:0:0:0:
233,101,4400,2,0,L|224:211,1,105.000004005432,2|0,0:0|0:0,0:0:0:0:
168,253,4889,1,2,0:0:0:0:
168,253,5052,2,0,P|129:239|98:233,1,52.5000020027161,0|0,0:0|0:0,0:0:0:0:
100,164,5379,2,0,P|61:178|30:184,1,52.5000020027161,2|0,0:0|0:0,0:0:0:0:
52,107,5705,2,0,L|181:119,1,105.000004005432,2|0,0:0|0:0,0:0:0:0:
220,79,6194,2,0,P|234:49|241:26,1,52.5000020027161,2|0,0:0|0:0,0:0:0:0:
224,156,6520,6,0,L|241:281,1,105.000004005432,2|0,0:0|0:0,0:0:0:0:
200,323,7009,2,0,P|254:301|315:307,1,105.000004005432,2|0,0:0|0:0,0:0:0:0:
370,333,7498,1,2,0:0:0:0:
370,333,7661,2,0,P|399:318|418:301,1,52.5000020027161,0|0,0:0|0:0,0:0:0:0:
485,287,7987,2,0,P|494:255|496:230,1,52.5000020027161,2|0,0:0|0:0,0:0:0:0:
447,181,8313,1,0,0:0:0:0:
447,181,8476,2,0,L|436:53,1,105.000004005432,2|2,0:0|0:0,0:0:0:0:
295,36,9129,6,0,P|258:61|178:57,1,105.000004005432,2|0,0:0|0:0,0:0:0:0:
132,33,9618,2,0,L|117:149,1,105.000004005432,2|0,0:0|0:0,0:0:0:0:
76,197,10107,1,2,0:0:0:0:
76,197,10270,2,0,P|86:237|89:256,1,52.5000020027161,0|0,0:0|0:0,0:0:0:0:
175,296,10596,1,2,0:0:0:0:
175,296,10759,2,0,P|165:256|162:237,1,52.5000020027161,0|0,0:0|0:0,0:0:0:0:
209,188,11085,2,0,B|260:200|260:200|311:187|311:187|375:204,1,157.500006008148,0|0,0:0|0:0,0:0:0:0:
396,265,11737,6,0,P|425:239|428:170,1,105.000004005432,2|0,1:2|0:0,0:0:0:0:
376,126,12226,2,0,L|369:57,1,52.5000020027161,2|8,0:0|0:0,0:0:0:0:
226,44,12716,1,2,0:0:0:0:
226,44,12879,2,0,L|237:152,1,105.000004005432,0|0,1:0|0:0,0:0:0:0:
196,210,13368,1,2,1:2:0:0:
60,153,13694,2,0,P|97:154|127:161,1,52.5000020027161,8|0,0:0|0:0,0:0:0:0:
83,225,14020,2,0,L|89:283,1,52.5000020027161,2|2,0:0|0:0,0:0:0:0:
141,328,14346,6,0,P|174:311|245:306,1,105.000004005432,2|0,1:2|0:0,0:0:0:0:
302,344,14835,2,0,L|366:359,1,52.5000020027161,2|8,1:2|0:0,0:0:0:0:
474,273,15324,1,0,0:0:0:0:
474,273,15487,2,0,P|436:272|361:289,1,105.000004005432,0|0,1:0|1:0,0:0:0:0:
316,235,15976,2,0,L|310:180,1,52.5000020027161,2|2,0:0|0:0,0:0:0:0:
429,96,16466,1,0,1:0:0:0:
429,96,16629,2,0,L|430:69,3,26.2500010013581,10|0|10|0,0:0|0:0|0:0|0:0,0:0:0:0:
441,130,16955,6,0,P|395:121|325:84,1,105.000004005432,2|8,1:2|1:2,0:0:0:0:
286,49,17444,2,0,L|166:58,1,105.000004005432,2|0,0:0|0:0,0:0:0:0:
107,59,17933,2,0,P|124:107|170:129,1,105.000004005432,10|0,1:2|1:0,0:0:0:0:
317,134,18585,1,8,1:2:0:0:
317,134,18748,2,0,P|325:166|329:204,1,52.5000020027161,2|0,0:0|1:0,0:0:0:0:
376,240,19074,2,0,P|367:272|364:310,1,52.5000020027161,2|8,0:0|1:2,0:0:0:0:
306,335,19400,1,2,0:0:0:0:
306,335,19482,1,0,0:0:0:0:
306,335,19563,6,0,L|235:326,1,52.5000020027161,2|0,1:2|1:0,0:0:0:0:
194,285,19889,2,0,L|123:276,1,52.5000020027161,8|0,1:2|1:0,0:0:0:0:
90,225,20216,2,0,L|84:194,3,26.2500010013581,0|0|0|0,1:0|1:0|1:0|1:0,0:0:0:0:
107,170,20542,2,0,L|113:139,3,26.2500010013581,8|0|0|0,1:2|1:0|1:0|1:0,0:0:0:0:
178,112,20868,6,0,B|224:118|224:118|245:110|245:110|318:117,2,115.50000352478,4|8|4,1:2|1:3|1:2,0:0:0:0:
70,46,21683,1,8,0:1:0:0:
321,44,22172,6,0,L|405:33,1,70,4|0,1:0|0:0,0:0:0:0:
463,76,22498,1,8,1:2:0:0:
418,147,22661,2,0,P|403:195|426:294,1,140,0|0,0:0|0:0,0:0:0:0:
285,322,23150,2,0,L|354:336,1,70,8|0,1:2|0:0,0:0:0:0:
296,233,23476,1,0,1:0:0:0:
212,242,23639,2,0,P|162:255|124:268,1,70,0|8,0:0|1:2,0:0:0:0:
89,324,23966,2,0,B|59:288|59:288|67:179,1,140,0|0,0:0|0:0,0:0:0:0:
133,145,24455,2,0,L|123:70,1,70,8|0,1:2|0:0,0:0:0:0:
187,21,24781,6,0,L|272:35,1,70,0|0,1:0|0:0,0:0:0:0:
300,103,25107,1,8,1:2:0:0:
378,73,25270,2,0,P|422:92|517:108,1,140,0|0,0:0|0:0,0:0:0:0:
481,250,25759,2,0,L|472:181,1,70,8|0,1:2|0:0,0:0:0:0:
388,178,26085,1,0,1:0:0:0:
328,237,26248,2,0,L|337:306,1,70,0|8,0:0|1:2,0:0:0:0:
265,348,26574,2,0,P|228:336|200:320,1,70,0|0,0:0|1:0,0:0:0:0:
148,255,26900,1,0,0:0:0:0:
148,255,26982,1,0,0:0:0:0:
148,255,27063,2,0,L|58:269,1,70,8|0,1:2|0:0,0:0:0:0:
24,151,27389,6,0,L|114:137,1,70,0|0,1:0|0:0,0:0:0:0:
155,83,27716,1,8,1:2:0:0:
232,114,27879,2,0,P|251:158|246:262,1,140,0|0,0:0|0:0,0:0:0:0:
334,355,28368,2,0,L|325:286,1,70,8|0,1:2|0:0,0:0:0:0:
378,221,28694,1,0,1:0:0:0:
459,240,28857,2,0,P|476:203|485:165,1,70,0|8,0:0|1:2,0:0:0:0:
434,106,29183,2,0,B|383:114|383:114|357:107|357:107|288:117,1,140,0|0,0:0|0:0,0:0:0:0:
220,80,29672,1,8,1:2:0:0:
148,124,29835,1,0,0:0:0:0:
148,124,29917,1,0,0:0:0:0:
148,124,29998,6,0,L|69:109,2,70,12|0|0,0:0|1:0|1:0,0:0:0:0:
195,193,30487,2,0,L|206:336,1,140,12|0,0:0|1:0,0:0:0:0:
282,297,30976,2,0,P|326:313|362:324,1,70,12|0,0:0|1:0,0:0:0:0:
427,292,31302,1,12,0:0:0:0:
452,211,31466,1,0,1:0:0:0:
394,149,31629,2,0,L|386:63,1,70,0|0,1:0|1:0,0:0:0:0:
309,48,31955,2,0,L|266:60,3,35,0|0|0|0,1:0|1:0|1:0|1:0,0:0:0:0:
251,92,32281,2,0,L|208:104,3,35,8|0|0|0,0:1|0:0|0:0|0:0,0:0:0:0:
195,137,32607,6,0,P|151:94|69:96,1,140,0|8,1:0|1:2,0:0:0:0:
24,159,33096,6,0,L|39:302,1,140,0|0,0:0|0:0,0:0:0:0:
112,338,33585,1,8,1:2:0:0:
168,275,33748,2,0,P|222:233|290:241,1,140,0|0,0:0|0:0,0:0:0:0:
328,316,34237,1,8,1:2:0:0:
244,311,34400,2,0,L|229:165,1,140,0|0,0:0|0:0,0:0:0:0:
166,117,34889,1,8,1:2:0:0:
244,85,35052,1,0,0:0:0:0:
307,140,35216,6,0,L|382:130,1,70,0|0,1:0|0:0,0:0:0:0:
433,68,35542,1,8,1:2:0:0:
463,146,35705,2,0,P|458:183|449:219,1,70,0|0,0:0|1:0,0:0:0:0:
293,276,36194,2,0,L|218:286,1,70,8|0,1:2|0:0,0:0:0:0:
167,348,36520,1,0,1:0:0:0:
137,270,36683,2,0,P|142:233|151:197,1,70,0|8,0:0|1:2,0:0:0:0:
254,97,37009,6,0,P|181:77|119:119,1,154.000004699707,12|0,0:0|1:0,0:0:0:0:
95,208,37498,2,0,L|105:296,1,77.0000023498536,8|0,1:2|1:0,0:0:0:0:
62,346,37743,1,0,1:0:0:0:
62,346,37824,6,0,P|93:358|138:352,1,70,4|0,1:0|0:0,0:0:0:0:
204,318,38150,2,0,L|287:330,1,70,8|0,1:2|0:0,0:0:0:0:
346,286,38476,2,0,L|381:281,3,35,0|0|0|0,1:0|0:0|0:0|0:0,0:0:0:0:
404,246,38802,2,0,L|439:251,3,35,8|0|0|0,1:2|0:0|0:0|1:0,0:0:0:0:
477,232,39129,2,0,P|492:197|497:158,1,70,4|0,1:2|0:0,0:0:0:0:
420,45,39455,2,0,L|429:115,1,70,8|0,1:2|0:0,0:0:0:0:
377,181,39781,2,0,P|345:195|311:203,1,70,0|0,1:0|0:0,0:0:0:0:
241,155,40107,1,8,1:2:0:0:
159,175,40270,1,0,1:0:0:0:
119,249,40433,6,0,L|112:320,1,70,4|0,1:2|1:0,0:0:0:0:
191,292,40759,2,0,L|184:363,1,70,0|0,1:0|1:0,0:0:0:0:
266,346,41085,1,4,1:2:0:0:
348,331,41248,1,0,1:0:0:0:
389,257,41411,1,0,1:0:0:0:
471,242,41574,1,0,1:0:0:0:
471,242,41656,1,0,1:0:0:0:
471,242,41737,6,0,L|463:200,3,35,0|0|0|0,1:0|0:0|1:0|0:0,0:0:0:0:
441,172,42063,2,0,L|449:130,3,35,0|0|0|0,1:0|0:0|1:0|0:0,0:0:0:0:
472,103,42389,1,8,1:3:0:0:
451,97,42471,1,0,1:0:0:0:
430,91,42552,1,8,1:3:0:0:
409,86,42634,1,0,1:0:0:0:
388,81,42716,2,0,L|311:96,1,70,0|0,0:0|0:0,0:0:0:0:
235,216,43042,6,0,P|199:150|227:80,1,154.000004699707,4|0,1:2|0:0,0:0:0:0:
321,186,43531,2,0,L|339:350,1,154.000004699707,4|0,1:2|0:0,0:0:0:0:
251,307,44020,1,4,1:2:0:0:
167,345,44183,2,0,L|74:332,1,77.0000023498536,0|0,0:0|0:0,0:0:0:0:
140,256,44509,2,0,B|133:198|133:198|147:171|147:171|140:98,1,154.000004699707,4|0,1:2|1:0,0:0:0:0:
76,38,44998,2,0,P|108:18|146:13,1,77.0000023498536,8|0,1:2|1:0,0:0:0:0:
239,128,45324,2,0,P|201:122|168:102,1,77.0000023498536,8|0,1:2|0:0,0:0:0:0:
234,36,45650,6,0,L|398:23,1,154.000004699707,4|0,1:2|0:0,0:0:0:0:
456,85,46139,2,0,B|426:124|426:124|443:246,1,154.000004699707,4|0,1:2|0:0,0:0:0:0:
462,318,46629,1,4,1:2:0:0:
373,290,46792,2,0,L|274:298,1,77.0000023498536,0|0,0:0|0:0,0:0:0:0:
222,351,47118,2,0,B|127:332|127:332|67:352,1,154.000004699707,4|0,1:2|1:0,0:0:0:0:
97,261,47607,1,8,1:2:0:0:
50,181,47770,1,0,1:0:0:0:
103,105,47933,2,0,L|195:92,1,77.0000023498536,8|0,1:0|0:0,0:0:0:0:
361,136,48259,6,0,P|284:124|227:172,1,154.000004699707,4|0,1:2|0:0,0:0:0:0:
309,213,48748,2,0,L|145:199,1,154.000004699707,4|0,1:2|0:0,0:0:0:0:
79,147,49237,1,4,1:2:0:0:
68,238,49400,2,0,L|77:330,1,77.0000023498536,0|0,0:0|0:0,0:0:0:0:
158,355,49726,2,0,B|201:338|201:338|321:349,1,154.000004699707,4|0,1:2|1:0,0:0:0:0:
390,304,50216,2,0,P|419:267|427:232,1,77.0000023498536,8|0,1:2|1:0,0:0:0:0:
308,164,50542,2,0,P|319:200|344:229,1,77.0000023498536,8|0,1:2|1:0,0:0:0:0:
392,158,50868,6,0,L|383:75,2,77.0000023498536,4|0|0,1:2|1:0|1:0,0:0:0:0:
297,77,51357,2,0,P|301:35|308:-3,2,77.0000023498536,4|0|0,1:2|1:0|1:0,0:0:0:0:
219,127,51846,2,0,L|127:141,2,77.0000023498536,4|0|0,1:2|1:0|1:0,0:0:0:0:
272,202,52335,2,0,P|280:245|282:282,1,77.0000023498536,4|0,1:2|1:0,0:0:0:0:
213,340,52661,2,0,L|48:313,1,154.000004699707,0|0,1:0|1:0,0:0:0:0:
21,231,53150,1,8,1:2:0:0:
77,158,53313,1,0,0:0:0:0:
77,158,53395,1,0,0:0:0:0:
77,158,53476,5,4,1:2:0:0:
256,192,53639,12,2,58042,0:0:0:0:
215,232,58694,6,0,L|60:210,2,140,4|0|0,1:0|0:0|0:0,0:0:0:0:
337,346,59672,1,2,0:0:0:0:
337,346,59835,2,0,P|368:310|463:327,1,140,2|0,0:0|0:0,0:0:0:0:
482,238,60324,2,0,L|460:80,1,140,0|0,0:0|0:0,0:0:0:0:
300,55,60976,1,2,0:0:0:0:
300,55,61139,6,0,L|278:213,1,140,6|0,1:2|0:0,0:0:0:0:
177,327,61792,2,0,P|120:291|115:224,1,140,0|0,0:0|0:0,0:0:0:0:
271,163,62444,2,0,L|417:156,1,140,6|0,1:2|0:0,0:0:0:0:
473,100,62933,1,0,0:0:0:0:
381,240,63259,2,0,L|396:330,1,70,6|0,1:2|0:0,0:0:0:0:
392,309,63748,6,0,B|337:299|337:299|309:309|309:309|234:295,1,140,6|0,1:2|0:0,0:0:0:0:
186,251,64237,1,0,0:0:0:0:
45,342,64563,1,0,0:0:0:0:
37,174,64889,1,2,0:0:0:0:
37,174,65052,6,0,L|190:151,1,140,2|0,0:0|0:0,0:0:0:0:
283,24,65705,2,0,L|267:103,1,70,12|0,1:0|0:0,0:0:0:0:
293,172,66031,1,2,0:0:0:0:
293,172,66520,6,0,L|279:341,1,140,6|0,1:2|0:0,0:0:0:0:
212,359,67009,2,0,P|173:325|82:324,1,140,2|0,0:0|0:0,0:0:0:0:
14,361,67498,1,2,0:0:0:0:
109,222,67824,2,0,L|196:232,1,70,0|0,0:0|0:0,0:0:0:0:
250,187,68150,2,0,L|337:197,1,70,0|0,0:0|0:0,0:0:0:0:
384,142,68476,1,2,0:0:0:0:
452,190,68639,2,0,L|445:228,2,35,0|8|0,0:0|0:3|0:0,0:0:0:0:
498,119,68966,1,8,0:3:0:0:
480,36,69129,5,4,1:2:0:0:
278,236,74346,6,0,L|263:356,1,105.000004005432,0|8,1:0|1:2,0:0:0:0:
201,196,74998,2,0,P|165:209|92:224,1,105.000004005432,0|8,1:0|1:2,0:0:0:0:
231,118,75650,6,0,L|237:45,1,70,0|0,1:0|1:0,0:0:0:0:
306,95,75976,2,0,L|312:22,1,70,8|0,1:2|1:0,0:0:0:0:
390,55,76302,1,0,1:0:0:0:
474,46,76466,1,0,1:0:0:0:
460,128,76629,2,0,L|383:139,1,70,8|0,1:2|1:0,0:0:0:0:
323,188,76955,6,0,L|331:229,3,35,0|0|0|0,1:0|1:0|1:0|1:0,0:0:0:0:
303,255,77281,2,0,L|290:298,3,35,0|0|0|0,1:0|1:0|1:0|1:0,0:0:0:0:
262,317,77607,2,0,L|219:304,3,35,0|0|0|0,1:0|1:0|1:0|1:0,0:0:0:0:
186,312,77933,1,0,1:0:0:0:
165,316,78014,1,0,1:0:0:0:
144,320,78096,1,0,1:0:0:0:
123,325,78177,1,0,1:0:0:0:
100,330,78259,6,0,L|92:250,1,70,4|0,1:2|0:0,0:0:0:0:
62,231,78504,2,0,L|75:140,1,70,4|0,1:2|0:0,0:0:0:0:
81,121,78748,1,4,1:2:0:0:
240,69,79074,1,0,1:0:0:0:
240,69,79400,6,0,P|286:108|392:94,1,154.000004699707,12|0,1:0|0:0,0:0:0:0:
458,62,79889,2,0,L|437:223,1,154.000004699707,8|0,1:2|1:0,0:0:0:0:
360,263,80379,2,0,L|283:254,1,77.0000023498536,2|8,0:0|1:2,0:0:0:0:
206,307,80705,2,0,P|215:344|230:379,1,77.0000023498536,2|0,0:0|1:0,0:0:0:0:
92,345,81031,2,0,P|106:309|116:272,1,77.0000023498536,2|8,0:0|1:2,0:0:0:0:
65,194,81357,1,2,0:0:0:0:
113,115,81520,1,0,1:0:0:0:
113,115,81683,2,0,B|180:98|196:150|272:126,1,154.000004699707,2|2,0:0|0:0,0:0:0:0:
334,69,82172,6,0,P|378:105|372:198,1,154.000004699707,0|8,1:0|1:2,0:0:0:0:
292,240,82661,1,2,0:0:0:0:
209,197,82824,2,0,L|119:187,2,77.0000023498536,0|2|8,1:0|0:0|1:2,0:0:0:0:
273,262,83313,1,2,0:0:0:0:
342,322,83476,2,0,L|503:310,1,154.000004699707,0|8,1:0|1:2,0:0:0:0:
470,126,84129,2,0,P|429:78|335:88,1,154.000004699707,0|8,1:0|1:2,0:0:0:0:
263,127,84618,1,2,0:0:0:0:
263,127,84699,1,0,0:0:0:0:
263,127,84781,6,0,L|277:226,1,77.0000023498536,0|2,1:0|0:0,0:0:0:0:
191,245,85107,2,0,L|177:344,1,77.0000023498536,8|2,1:2|0:0,0:0:0:0:
269,297,85433,2,0,P|301:322|335:345,1,77.0000023498536,0|2,1:0|0:0,0:0:0:0:
418,312,85759,1,8,1:2:0:0:
453,226,85922,1,2,0:0:0:0:
453,226,86085,2,0,B|445:171|445:171|460:140|460:140|449:69,1,154.000004699707,0|8,1:0|1:2,0:0:0:0:
369,121,86574,2,0,P|319:146|278:144,1,77.0000023498536,2|0,0:0|1:0,0:0:0:0:
183,45,86900,2,0,P|220:50|253:71,1,77.0000023498536,2|8,0:0|1:2,0:0:0:0:
257,215,87226,1,2,0:0:0:0:
257,215,87308,1,0,0:0:0:0:
257,215,87389,6,0,L|246:370,1,154.000004699707,0|8,1:0|1:2,0:0:0:0:
205,284,87879,2,0,B|162:255|162:255|60:249,1,154.000004699707,2|2,0:0|0:0,0:0:0:0:
20,167,88368,2,0,P|11:93|67:45,1,154.000004699707,8|0,1:2|1:0,0:0:0:0:
99,130,88857,1,2,0:0:0:0:
99,130,89020,2,0,L|258:118,1,154.000004699707,8|0,1:2|1:0,0:0:0:0:
332,72,89509,1,0,0:0:0:0:
332,72,89672,1,8,1:2:0:0:
390,143,89835,1,0,1:0:0:0:
312,193,89998,6,0,B|302:292|302:292|320:347,1,154.000004699707,4|8,1:0|1:2,0:0:0:0:
399,299,90487,2,0,L|408:211,1,77.0000023498536,2|0,0:0|1:0,0:0:0:0:
479,164,90813,2,0,L|488:76,1,77.0000023498536,2|8,0:0|1:2,0:0:0:0:
403,48,91139,2,0,P|347:90|259:86,1,154.000004699707,2|2,0:0|0:0,0:0:0:0:
185,42,91629,1,8,1:2:0:0:
93,53,91792,1,2,0:0:0:0:
93,53,91955,2,0,L|9:34,2,77.0000023498536,0|2|8,1:0|0:0|1:2,0:0:0:0:
146,128,92444,6,0,B|135:178|135:178|141:207|141:207|125:279,1,154.000004699707,2|2,0:0|0:0,0:0:0:0:
181,351,92933,2,0,P|230:341|263:325,1,77.0000023498536,8|2,1:2|0:0,0:0:0:0:
282,259,93177,1,0,0:0:0:0:
282,259,93259,6,0,L|378:279,1,77.0000023498536,4|0,1:2|0:0,0:0:0:0:
386,310,93504,2,0,L|482:330,1,77.0000023498536,4|0,1:2|0:0,0:0:0:0:
498,298,93748,2,0,P|511:249|450:175,1,154.000004699707,4|4,1:2|1:2,0:0:0:0:
221,126,94400,6,0,L|387:116,1,154.000004699707,12|0,1:2|1:0,0:0:0:0:
433,45,94889,1,8,1:2:0:0:
342,25,95052,1,0,1:0:0:0:
342,25,95134,1,0,1:0:0:0:
342,25,95216,5,4,1:0:0:0:
307,206,95542,2,0,L|311:282,1,77.0000023498536,8|0,1:2|1:0,0:0:0:0:
224,165,95868,2,0,L|155:130,1,77.0000023498536,0|0,1:0|1:0,0:0:0:0:
300,113,96194,2,0,L|364:70,1,77.0000023498536,8|0,1:2|1:0,0:0:0:0:
449,202,96520,6,0,L|454:291,1,77.0000023498536,4|0,1:2|1:0,0:0:0:0:
381,337,96846,1,8,1:2:0:0:
289,326,97009,1,0,1:0:0:0:
255,239,97172,2,0,L|260:150,1,77.0000023498536,0|0,1:0|1:0,0:0:0:0:
187,104,97498,1,8,1:2:0:0:
95,115,97661,1,0,1:0:0:0:
36,186,97824,6,0,L|31:231,3,38.5000011749268,0|0|0|0,1:0|0:0|1:0|0:0,0:0:0:0:
68,253,98150,2,0,L|63:298,3,38.5000011749268,8|0|0|0,1:2|0:0|1:0|0:0,0:0:0:0:
94,318,98476,2,0,P|141:301|185:300,1,77.0000023498536,0|0,1:0|1:0,0:0:0:0:
307,251,98802,2,0,P|268:246|233:231,1,77.0000023498536,8|0,1:2|1:0,0:0:0:0:
207,142,99129,6,0,L|198:94,3,38.5000011749268,4|0|0|0,1:2|0:0|1:0|0:0,0:0:0:0:
233,71,99455,2,0,L|242:23,3,38.5000011749268,8|0|0|0,1:2|0:0|1:0|0:0,0:0:0:0:
286,32,99781,2,0,L|323:24,3,38.5000011749268,0|0|0|0,1:0|0:0|1:0|0:0,0:0:0:0:
366,43,100107,1,8,1:2:0:0:
388,48,100188,1,0,0:0:0:0:
410,54,100270,1,0,1:0:0:0:
432,60,100351,1,0,0:0:0:0:
454,66,100433,5,4,1:2:0:0:
495,206,100759,1,2,0:0:0:0:
370,284,101085,1,2,0:0:0:0:
329,144,101411,1,2,0:0:0:0:
329,144,101574,2,0,L|213:152,1,105.000004005432,2|2,0:0|0:0,0:0:0:0:
84,107,102226,1,2,0:0:0:0:
84,107,102389,2,0,P|69:152|65:173,1,52.5000020027161,2|0,0:0|0:0,0:0:0:0:
89,227,102716,2,0,P|104:272|108:293,1,52.5000020027161,2|0,0:0|0:0,0:0:0:0:
58,333,103042,5,2,0:0:0:0:
199,292,103368,1,2,0:0:0:0:
340,333,103694,1,2,0:0:0:0:
481,292,104020,1,2,0:0:0:0:
481,292,104183,2,0,L|470:166,1,105.000004005432,2|2,0:0|0:0,0:0:0:0:
363,87,104835,1,2,0:0:0:0:
363,87,104998,2,0,P|323:98|298:100,1,52.5000020027161,2|0,0:0|0:0,0:0:0:0:
254,144,105324,2,0,P|214:133|189:131,1,52.5000020027161,2|0,0:0|0:0,0:0:0:0:
150,80,105650,5,2,0:0:0:0:
129,225,105976,1,2,0:0:0:0:
274,246,106302,1,2,0:0:0:0:
295,101,106629,1,2,0:0:0:0:
295,101,106792,2,0,L|409:92,1,105.000004005432,2|2,0:0|0:0,0:0:0:0:
479,216,107444,1,2,0:0:0:0:
479,216,107607,2,0,P|469:256|459:277,1,52.5000020027161,2|0,0:0|0:0,0:0:0:0:
395,290,107933,2,0,P|400:315|409:340,1,52.5000020027161,2|0,0:0|0:0,0:0:0:0:
256,192,108259,12,0,110705,0:0:0:0:
