osu file format v14

[General]
AudioFilename: audio.mp3
AudioLeadIn: 0
PreviewTime: 78993
Countdown: 0
SampleSet: Soft
StackLeniency: 0.7
Mode: 0
LetterboxInBreaks: 0
WidescreenStoryboard: 0

[Editor]
DistanceSpacing: 1
BeatDivisor: 4
GridSize: 4
TimelineZoom: 2.3

[Metadata]
Title:Cryonix
TitleUnicode:Cryonix
Artist:sky_delta
ArtistUnicode:sky_delta
Creator:captin1
Version:Easy
Source:BMS
Tags:endorfin. bof of fighter 2015 artcore doormat meg iMage--
BeatmapID:1037837
BeatmapSetID:486599

[Difficulty]
HPDrainRate:2
CircleSize:3
OverallDifficulty:2
ApproachRate:3
SliderMultiplier:0.999999999999999
SliderTickRate:1

[Events]
//Background and Video events
0,0,"cryonix.jpg",0,0
//Break Periods
2,69329,72906
//Storyboard Layer 0 (Background)
//Storyboard Layer 1 (Fail)
//Storyboard Layer 2 (Pass)
//Storyboard Layer 3 (Foreground)
//Storyboard Sound Samples

[TimingPoints]
1303,326.086956521739,4,2,1,60,1,0
53476,-133.333333333333,4,2,1,60,0,0
58694,-100,4,2,1,60,0,0
79400,-100,4,2,1,60,0,1
100433,-100,4,2,1,50,0,0

[Colours]
Combo1 : 255,94,55
Combo2 : 173,255,95
Combo3 : 17,254,176
Combo4 : 255,88,100

[HitObjects]
57,217,1303,6,0,L|218:200,1,150,2|2,0:0|0:0,0:0:0:0:
327,112,2281,2,0,P|369:170|350:241,1,150,2|2,0:0|0:0,0:0:0:0:
240,342,3259,1,2,0:0:0:0:
130,174,3911,6,0,L|143:17,1,150,2|2,0:0|0:0,0:0:0:0:
50,142,4889,2,0,P|53:212|119:259,1,150,2|2,0:0|0:0,0:0:0:0:
210,228,5705,2,0,L|358:251,1,150,2|2,0:0|0:0,0:0:0:0:
436,313,6520,6,0,P|464:261|482:168,1,150,2|2,0:0|0:0,0:0:0:0:
377,65,7498,2,0,L|229:88,1,150,2|2,0:0|0:0,0:0:0:0:
90,29,8476,2,0,L|79:129,1,99.9999999999999
165,214,9129,6,0,B|180:288|180:288|155:372,1,150,2|2,0:0|0:0,0:0:0:0:
294,296,10107,2,0,B|279:222|279:222|304:138,1,150,2|2,0:0|0:0,0:0:0:0:
194,44,11085,2,0,B|205:75|205:75|195:106|195:106|208:145,1,99.9999999999999,0|0,0:0|0:0,0:0:0:0:
154,223,11737,6,0,L|3:207,2,150,2|2|2,1:2|0:0|0:0,0:0:0:0:
315,341,13368,2,0,P|373:264|349:170,1,200,2|2,1:2|0:0,0:0:0:0:
259,127,14346,5,2,1:2:0:0:
112,157,14835,1,2,1:2:0:0:
337,320,16139,2,0,L|350:163,1,150,2|10,0:0|0:0,0:0:0:0:
396,82,16955,6,0,P|345:72|264:120,1,150,2|2,1:2|0:0,0:0:0:0:
252,268,17933,2,0,B|183:301|183:301|105:290,1,150,10|0,1:2|0:0,0:0:0:0:
35,225,18748,1,2,0:0:0:0:
77,134,19074,1,2,0:0:0:0:
199,219,19563,6,0,L|307:204,1,99.9999999999999,2|8,1:2|1:2,0:0:0:0:
378,265,20216,2,0,P|398:228|411:167,1,99.9999999999999,0|8,1:0|1:2,0:0:0:0:
333,108,20868,2,0,L|350:26,2,74.9999999999999,4|8|4,1:2|1:3|1:2,0:0:0:0:
252,167,21683,1,8,0:1:0:0:
291,313,22172,6,0,B|242:335|242:335|135:312,1,150,4|0,1:0|0:0,0:0:0:0:
39,211,23150,2,0,B|88:189|88:189|195:212,1,150,8|0,1:2|0:0,0:0:0:0:
282,217,23966,2,0,L|442:188,1,150,0|8,0:0|1:2,0:0:0:0:
462,95,24781,6,0,P|428:71|310:94,1,150,0|0,1:0|0:0,0:0:0:0:
240,204,25759,2,0,P|274:228|392:205,1,150,8|0,1:2|0:0,0:0:0:0:
438,296,26574,1,0,0:0:0:0:
289,319,27063,1,8,1:2:0:0:
190,334,27389,6,0,L|26:353,1,150,0|0,1:0|0:0,0:0:0:0:
97,212,28368,2,0,L|261:193,1,150,8|0,1:2|0:0,0:0:0:0:
338,232,29183,2,0,P|367:198|356:93,1,150,0|8,0:0|1:2,0:0:0:0:
264,67,29998,5,12,0:0:0:0:
212,207,30487,1,12,0:0:0:0:
267,346,30976,1,12,0:0:0:0:
340,278,31302,2,0,L|440:292,2,99.9999999999999,12|0|0,0:0|1:0|1:0,0:0:0:0:
303,184,32281,1,8,0:1:0:0:
148,57,32933,6,0,L|162:170,1,99.9999999999999,8|0,1:2|1:0,0:0:0:0:
101,237,33585,1,8,1:2:0:0:
199,250,33911,2,0,B|306:223|289:277|411:249,1,200,0|0,0:0|1:0,0:0:0:0:
471,186,34889,1,8,1:2:0:0:
411,105,35216,6,0,L|249:122,1,150,0|0,1:0|0:0,0:0:0:0:
117,80,36194,2,0,P|147:156|155:235,1,150,8|0,1:2|0:0,0:0:0:0:
113,314,37009,1,12,0:0:0:0:
249,251,37498,1,8,1:2:0:0:
298,337,37824,6,0,L|401:352,1,99.9999999999999,4|8,1:0|1:2,0:0:0:0:
462,276,38476,2,0,L|359:261,1,99.9999999999999,0|8,1:0|1:2,0:0:0:0:
294,188,39129,2,0,P|269:125|260:73,1,99.9999999999999,4|8,1:2|1:2,0:0:0:0:
360,71,39781,2,0,P|385:134|394:186,1,99.9999999999999,0|8,1:0|1:2,0:0:0:0:
363,261,40433,6,0,L|251:276,1,99.9999999999999,4|0,1:2|1:0,0:0:0:0:
185,336,41085,2,0,L|73:321,1,99.9999999999999,4|0,1:2|1:0,0:0:0:0:
32,237,41737,1,0,1:0:0:0:
83,151,42063,1,0,1:0:0:0:
135,66,42389,2,0,P|186:57|246:61,1,99.9999999999999,8|0,1:3|0:0,0:0:0:0:
302,132,43042,6,0,L|463:120,1,150,4|4,1:2|1:2,0:0:0:0:
464,268,44020,2,0,L|303:280,1,150,4|4,1:2|1:2,0:0:0:0:
210,132,45650,6,0,L|49:120,1,150,4|4,1:2|1:2,0:0:0:0:
48,268,46628,2,0,L|209:280,1,150,4|4,1:2|1:2,0:0:0:0:
490,90,48259,5,4,1:2:0:0:
342,118,48748,1,4,1:2:0:0:
456,214,49237,1,4,1:2:0:0:
308,242,49726,1,4,1:2:0:0:
22,90,50868,5,4,1:2:0:0:
170,118,51357,1,4,1:2:0:0:
56,214,51846,1,4,1:2:0:0:
204,242,52335,1,4,1:2:0:0:
224,74,53476,6,0,B|270:95|283:143|266:192|266:192|292:177|335:175|352:238|337:275|284:288|242:286|215:279|175:242|180:192|193:149|193:149|157:169|131:174|92:166|92:166|99:215|109:268|123:300|159:341|191:355|227:371|274:372|315:363|355:344|376:323|391:300|400:274|407:238,1,1050.00004005432,4|0,1:2|0:0,0:0:0:0:
370,50,58694,6,0,L|475:61,2,99.9999999999999,4|0|0,1:2|0:0|0:0,0:0:0:0:
317,134,59672,1,2,0:0:0:0:
264,219,59998,2,0,L|249:335,2,99.9999999999999,0|0|0,0:0|0:0|0:0,0:0:0:0:
409,174,61139,6,0,P|455:230|445:302,1,150,6|0,1:2|0:0,0:0:0:0:
347,323,61955,2,0,L|185:315,1,150,0|6,0:0|1:2,0:0:0:0:
95,87,63259,1,6,1:2:0:0:
232,27,63748,6,0,L|209:184,1,150,6|0,1:2|0:0,0:0:0:0:
282,245,64563,2,0,P|315:239|434:209,1,150,0|2,0:0|0:0,0:0:0:0:
481,294,65379,1,0,0:0:0:0:
400,353,65705,2,0,B|355:332|355:332|291:343,1,99.9999999999999,12|2,1:0|0:0,0:0:0:0:
172,273,66520,6,0,L|9:289,2,150,6|2|2,1:2|0:0|0:0,0:0:0:0:
231,191,67824,2,0,P|242:160|258:88,1,99.9999999999999,0|0,0:0|0:0,0:0:0:0:
183,27,68476,1,2,0:0:0:0:
30,157,69129,5,4,1:2:0:0:
256,192,74346,12,4,78259,1:2:0:0:
304,49,79400,6,0,L|283:211,1,150,12|8,1:0|1:2,0:0:0:0:
218,272,80216,2,0,P|168:235|122:214,1,99.9999999999999,0|8,1:0|1:2,0:0:0:0:
48,270,80868,2,0,L|62:381,1,99.9999999999999,0|8,1:0|1:2,0:0:0:0:
160,363,81520,1,0,1:0:0:0:
238,301,81846,1,8,1:2:0:0:
335,321,82172,6,0,P|390:307|505:381,2,200,0|0|0,1:0|1:0|1:0,0:0:0:0:
303,226,83802,1,8,1:2:0:0:
375,157,84129,2,0,L|367:45,1,99.9999999999999,0|8,1:0|1:2,0:0:0:0:
271,28,84781,6,0,P|192:66|67:44,1,200,0|0,1:0|1:0,0:0:0:0:
9,120,85759,1,8,1:2:0:0:
73,196,86085,2,0,L|87:297,1,99.9999999999999,0|8,1:0|1:2,0:0:0:0:
172,345,86737,2,0,P|207:331|266:300,1,99.9999999999999,0|8,1:0|1:2,0:0:0:0:
307,213,87389,6,0,L|411:228,1,99.9999999999999,0|8,1:0|1:2,0:0:0:0:
465,146,88042,2,0,P|419:125|367:93,1,99.9999999999999,0|8,1:0|1:2,0:0:0:0:
288,52,88694,2,0,L|167:61,1,99.9999999999999,0|8,1:0|1:2,0:0:0:0:
96,18,89346,1,0,1:0:0:0:
104,117,89672,1,8,1:2:0:0:
113,216,89998,6,0,L|95:327,1,99.9999999999999,4|8,1:0|1:2,0:0:0:0:
188,355,90650,2,0,P|220:338|282:321,1,99.9999999999999,0|8,1:0|1:2,0:0:0:0:
374,356,91302,1,0,1:0:0:0:
465,315,91629,1,8,1:2:0:0:
412,229,91955,2,0,L|422:123,1,99.9999999999999,0|8,1:0|1:2,0:0:0:0:
446,32,92607,6,0,P|393:50|344:60,1,99.9999999999999,0|8,1:0|1:2,0:0:0:0:
256,95,93259,2,0,L|169:86,2,74.9999999999999,4|4|4,1:2|1:2|1:2,0:0:0:0:
301,183,94074,1,4,1:2:0:0:
230,253,94400,2,0,B|188:282|188:282|80:270,1,150,8|8,1:2|1:2,0:0:0:0:
64,174,95216,6,0,L|180:188,1,99.9999999999999,0|8,1:0|1:2,0:0:0:0:
245,130,95868,2,0,P|259:85|269:18,1,99.9999999999999,0|8,1:0|1:2,0:0:0:0:
168,47,96520,2,0,L|53:32,1,99.9999999999999,4|8,1:2|1:2,0:0:0:0:
8,113,97172,2,0,P|16:162|30:210,1,99.9999999999999,0|8,1:0|1:2,0:0:0:0:
102,279,97824,5,0,1:0:0:0:
198,252,98150,1,8,1:2:0:0:
294,226,98476,2,0,P|346:238|400:262,1,99.9999999999999,0|8,1:0|1:2,0:0:0:0:
467,193,99129,2,0,L|477:76,1,99.9999999999999,4|8,1:2|1:2,0:0:0:0:
391,38,99781,1,0,1:0:0:0:
307,93,100107,1,8,1:2:0:0:
219,45,100433,6,0,P|167:44|135:170,1,200,4|2,1:2|0:0,0:0:0:0:
279,180,101574,2,0,L|390:168,1,99.9999999999999,2|2,0:0|0:0,0:0:0:0:
450,99,102226,2,0,B|479:147|479:147|467:247,1,150,2|2,0:0|0:0,0:0:0:0:
392,306,103042,6,0,B|298:272|288:325|194:298,1,200,2|2,0:0|0:0,0:0:0:0:
74,209,104183,2,0,L|87:107,1,99.9999999999999,2|2,0:0|0:0,0:0:0:0:
166,49,104835,2,0,P|204:91|305:87,1,150,2|2,0:0|0:0,0:0:0:0:
364,24,105650,6,0,B|394:72|394:72|377:219,1,200,2|2,0:0|0:0,0:0:0:0:
304,345,106792,2,0,L|184:324,1,99.9999999999999,2|2,0:0|0:0,0:0:0:0:
157,240,107444,2,0,P|117:256|29:327,1,150,2|2,0:0|0:0,0:0:0:0:
256,192,108259,12,0,110705,0:0:0:0:
