osu file format v14

[General]
AudioFilename: audio.mp3
AudioLeadIn: 0
PreviewTime: 78993
Countdown: 0
SampleSet: Soft
StackLeniency: 0.7
Mode: 0
LetterboxInBreaks: 0
WidescreenStoryboard: 0

[Editor]
DistanceSpacing: 0.5
BeatDivisor: 4
GridSize: 4
TimelineZoom: 2.3

[Metadata]
Title:Cryonix
TitleUnicode:Cryonix
Artist:sky_delta
ArtistUnicode:sky_delta
Creator:captin1
Version:Another
Source:BMS
Tags:endorfin. bof of fighter 2015 artcore doormat meg iMage--
BeatmapID:1037583
BeatmapSetID:486599

[Difficulty]
HPDrainRate:6
CircleSize:4.2
OverallDifficulty:8.5
ApproachRate:9.3
SliderMultiplier:1.8
SliderTickRate:1

[Events]
//Background and Video events
0,0,"cryonix.jpg",0,0
//Break Periods
2,69329,73629
//Storyboard Layer 0 (Background)
//Storyboard Layer 1 (Fail)
//Storyboard Layer 2 (Pass)
//Storyboard Layer 3 (Foreground)
//Storyboard Sound Samples

[TimingPoints]
1303,326.086956521739,4,2,1,60,1,0
1303,-133.333333333333,4,2,1,60,0,0
11085,-100,4,2,1,60,0,0
11737,-133.333333333333,4,2,1,60,0,0
20868,-66.6666666666667,4,2,1,70,0,0
21683,-133.333333333333,4,2,1,50,0,0
22172,-100,4,2,1,70,0,0
32281,-100,4,2,1,60,0,0
32362,-100,4,2,1,70,0,0
37009,-83.3333333333333,4,2,1,70,0,0
37824,-100,4,2,1,70,0,0
43042,-83.3333333333333,4,2,1,70,0,0
47933,-83.3333333333333,4,2,1,50,0,0
48259,-83.3333333333333,4,2,1,70,0,0
58042,-133.333333333333,4,2,1,60,0,0
65705,-133.333333333333,4,2,1,50,0,0
66031,-133.333333333333,4,2,1,60,0,0
74346,-133.333333333333,4,2,1,40,0,0
75650,-100,4,2,1,50,0,0
76955,-100,4,2,1,60,0,0
78259,-66.6666666666667,4,2,1,60,0,0
79074,-133.333333333333,4,2,1,60,0,0
79400,-90.9090909090909,4,2,1,60,0,1
79563,-90.9090909090909,4,2,1,70,0,1
93259,-76.9230769230769,4,2,1,70,0,1
93748,-90.9090909090909,4,2,1,70,0,1
100433,-200,4,2,1,50,0,0

[Colours]
Combo1 : 255,94,55
Combo2 : 173,255,95
Combo3 : 17,254,176
Combo4 : 255,88,100

[HitObjects]
206,241,1303,6,0,P|177:252|139:260,2,67.5000025749208,2|0|0,0:0|0:0|0:0,0:0:0:0:
323,210,1792,2,0,P|349:232|371:257,2,67.5000025749208,2|0|0,0:0|0:0|0:0,0:0:0:0:
238,124,2281,2,0,P|244:90|254:58,2,67.5000025749208,2|0|0,0:0|0:0|0:0,0:0:0:0:
250,251,2770,6,0,L|242:326,1,67.5000025749208,2|0,0:0|0:0,0:0:0:0:
58,320,3096,1,0,0:0:0:0:
90,313,3177,1,0,0:0:0:0:
123,307,3259,1,2,0:0:0:0:
133,321,3341,1,0,0:0:0:0:
142,334,3422,1,0,0:0:0:0:
243,318,3585,2,0,L|309:309,1,67.5000025749208,2|0,0:0|0:0,0:0:0:0:
387,236,3911,6,0,P|423:251|450:262,2,67.5000025749208,2|0|0,0:0|0:0|0:0,0:0:0:0:
281,120,4400,2,0,P|317:105|344:94,2,67.5000025749208,2|0|0,0:0|0:0|0:0,0:0:0:0:
175,236,4889,2,0,P|211:251|238:262,2,67.5000025749208,2|0|0,0:0|0:0|0:0,0:0:0:0:
43,142,5379,6,0,L|37:74,1,67.5000025749208,2|0,0:0|0:0,0:0:0:0:
203,154,5705,2,0,B|209:207|209:207|190:239|190:239|197:302,1,135.000005149842,2|0,0:0|0:0,0:0:0:0:
70,340,6194,2,0,L|76:272,1,67.5000025749208,2|0,0:0|0:0,0:0:0:0:
181,124,6520,5,2,0:0:0:0:
279,179,6683,2,0,L|273:252,1,67.5000025749208
175,149,7009,1,2,0:0:0:0:
173,36,7172,2,0,L|239:4,1,67.5000025749208
200,142,7498,1,2,0:0:0:0:
103,199,7661,2,0,L|42:157,1,67.5000025749208
310,176,7987,6,0,L|304:249,1,67.5000025749208,2|0,0:0|0:0,0:0:0:0:
443,358,8313,1,0,0:0:0:0:
376,243,8476,1,2,0:0:0:0:
258,302,8639,1,0,0:0:0:0:
374,319,8802,2,0,L|452:312,1,67.5000025749208,2|0,0:0|0:0,0:0:0:0:
329,154,9129,5,2,0:0:0:0:
402,91,9292,2,0,L|477:80,1,67.5000025749208
256,217,9618,1,2,0:0:0:0:
329,280,9781,2,0,L|404:291,1,67.5000025749208
183,154,10107,1,2,0:0:0:0:
256,91,10270,2,0,L|331:80,1,67.5000025749208
56,123,10596,5,2,0:0:0:0:
183,280,10759,1,0,0:0:0:0:
256,91,10922,1,0,0:0:0:0:
124,194,11085,6,0,B|145:204|155:216|155:216|184:184|225:178|225:178|249:203|249:203|306:192|306:192|360:220,1,270
423,140,11737,6,0,L|410:6,1,135.000005149842,2|0,1:2|0:0,0:0:0:0:
352,201,12226,1,2,0:0:0:0:
353,217,12307,1,0,0:0:0:0:
355,234,12389,1,8,0:0:0:0:
418,310,12552,1,0,0:0:0:0:
262,251,12716,1,2,0:0:0:0:
359,104,12879,6,0,B|383:134|383:134|373:244,1,135.000005149842,0|0,1:0|0:0,0:0:0:0:
248,286,13368,2,0,L|102:271,1,135.000005149842,2|8,1:2|0:0,0:0:0:0:
23,325,13857,1,0,0:0:0:0:
178,308,14020,1,2,0:0:0:0:
181,274,14101,1,0,0:0:0:0:
184,240,14183,1,2,0:0:0:0:
187,206,14264,1,0,0:0:0:0:
164,180,14346,6,0,L|178:45,1,135.000005149842,2|0,1:2|0:0,0:0:0:0:
386,16,14835,1,2,1:2:0:0:
398,113,14998,1,8,0:0:0:0:
309,74,15161,1,0,0:0:0:0:
309,74,15243,1,0,0:0:0:0:
309,74,15324,1,0,0:0:0:0:
430,108,15487,6,0,L|416:243,1,135.000005149842,0|0,1:0|1:0,0:0:0:0:
214,272,15976,1,2,0:0:0:0:
308,208,16139,2,0,L|314:275,1,67.5000025749208,2|8,0:0|0:0,0:0:0:0:
200,367,16466,1,0,1:0:0:0:
132,214,16629,1,10,0:0:0:0:
165,218,16710,1,0,0:0:0:0:
198,222,16792,1,10,0:0:0:0:
231,226,16873,1,0,0:0:0:0:
264,230,16955,6,0,L|341:222,1,67.5000025749208,2|0,1:2|0:0,0:0:0:0:
207,144,17281,1,8,1:2:0:0:
286,320,17444,2,0,L|363:312,1,67.5000025749208,2|0,0:0|1:0,0:0:0:0:
207,144,17770,1,0,0:0:0:0:
136,299,17933,2,0,L|213:291,1,67.5000025749208,10|0,1:2|0:0,0:0:0:0:
361,230,18259,5,0,1:0:0:0:
364,253,18341,1,0,0:0:0:0:
367,276,18422,1,0,0:0:0:0:
370,299,18504,1,0,0:0:0:0:
373,322,18585,1,8,1:2:0:0:
286,132,18748,2,0,L|292:64,1,67.5000025749208,2|0,0:0|1:0,0:0:0:0:
396,115,19074,2,0,L|389:182,1,67.5000025749208,2|8,0:0|1:2,0:0:0:0:
178,264,19400,1,2,0:0:0:0:
141,257,19482,1,0,0:0:0:0:
104,251,19563,5,2,1:2:0:0:
361,129,19726,1,0,1:0:0:0:
223,332,19889,1,8,1:2:0:0:
113,112,20052,1,0,1:0:0:0:
361,129,20216,5,0,1:0:0:0:
357,145,20297,1,0,1:0:0:0:
353,161,20379,1,0,1:0:0:0:
350,177,20460,1,0,1:0:0:0:
366,224,20542,5,8,1:2:0:0:
358,256,20623,1,0,1:0:0:0:
350,288,20705,1,0,1:0:0:0:
344,320,20786,1,0,1:0:0:0:
309,358,20868,6,0,B|263:357|216:364|216:364|256:323,1,135.000005149842,4|0,1:2|0:0,0:0:0:0:
294,273,21112,1,8,1:3:0:0:
294,273,21194,2,0,P|304:233|308:191,1,67.5000025749208
269,144,21357,6,0,B|330:190|409:184|409:184|391:159|354:144,1,202.500007724762,4|0,1:2|0:0,0:0:0:0:
212,88,21683,6,0,B|188:126|188:126|201:231,1,135.000005149842,8|0,0:1|0:0,0:0:0:0:
172,294,22091,1,0,0:0:0:0:
172,294,22172,5,4,1:0:0:0:
106,155,22335,1,0,0:0:0:0:
284,185,22498,1,8,1:2:0:0:
156,332,22661,2,0,L|49:319,1,90,0|0,0:0|1:0,0:0:0:0:
244,204,22987,5,0,0:0:0:0:
264,194,23069,1,0,0:0:0:0:
284,185,23150,2,0,B|297:230|297:230|282:277,1,90,8|0,1:2|0:0,0:0:0:0:
236,347,23476,1,0,1:0:0:0:
122,214,23639,2,0,P|169:223|211:227,1,90,0|8,0:0|1:2,0:0:0:0:
398,145,23966,6,0,L|458:135,1,45
427,244,24129,2,0,L|487:254,1,45,0|0,1:0|0:0,0:0:0:0:
343,295,24292,1,0,0:0:0:0:
343,295,24373,1,0,0:0:0:0:
343,295,24455,2,0,L|355:385,1,90,8|0,1:2|0:0,0:0:0:0:
471,251,24781,5,0,1:0:0:0:
357,119,24944,1,0,0:0:0:0:
307,288,25107,1,8,1:2:0:0:
448,154,25270,2,0,P|457:108|462:57,1,90,0|0,0:0|1:0,0:0:0:0:
274,175,25596,5,0,0:0:0:0:
255,188,25677,1,0,0:0:0:0:
236,201,25759,2,0,L|130:187,1,90,8|0,1:2|0:0,0:0:0:0:
32,101,26085,1,0,1:0:0:0:
42,277,26248,2,0,P|56:229|65:177,1,90,0|8,0:0|1:2,0:0:0:0:
56,26,26574,6,0,L|66:77,1,45
154,172,26737,2,0,L|164:121,1,45,0|0,1:0|0:0,0:0:0:0:
254,43,26900,1,0,0:0:0:0:
286,26,26982,1,0,0:0:0:0:
321,26,27063,1,8,1:2:0:0:
353,41,27145,1,0,0:0:0:0:
371,71,27226,1,0,0:0:0:0:
377,106,27308,1,0,0:0:0:0:
367,140,27389,5,0,1:0:0:0:
213,172,27552,1,0,0:0:0:0:
341,163,27716,1,8,1:2:0:0:
324,343,27879,2,0,B|310:299|310:299|314:247,1,90,0|0,0:0|1:0,0:0:0:0:
264,91,28205,5,0,0:0:0:0:
242,97,28286,1,0,0:0:0:0:
220,103,28368,2,0,L|211:192,1,90,8|0,1:2|0:0,0:0:0:0:
246,320,28694,1,0,1:0:0:0:
72,273,28857,2,0,P|118:260|167:254,1,90,0|8,0:0|1:2,0:0:0:0:
371,277,29183,6,0,L|419:289,1,45
412,180,29346,2,0,L|460:168,1,45,0|0,1:0|0:0,0:0:0:0:
338,110,29509,1,0,0:0:0:0:
270,296,29672,5,8,1:2:0:0:
233,278,29754,1,0,0:0:0:0:
193,272,29835,1,0,0:0:0:0:
155,287,29917,1,0,0:0:0:0:
125,314,29998,5,12,0:0:0:0:
163,96,30161,1,0,1:0:0:0:
258,245,30324,1,0,1:0:0:0:
72,128,30487,5,12,0:0:0:0:
38,216,30650,1,0,1:0:0:0:
237,155,30813,1,0,1:0:0:0:
105,315,30976,6,0,L|97:362,1,45,12|0,0:0|0:0,0:0:0:0:
37,237,31139,1,0,1:0:0:0:
37,237,31221,1,0,1:0:0:0:
37,237,31302,5,12,0:0:0:0:
207,308,31466,1,0,1:0:0:0:
229,75,31629,1,0,1:0:0:0:
393,107,31792,5,0,1:0:0:0:
420,122,31874,1,0,1:0:0:0:
438,147,31955,1,0,1:0:0:0:
448,176,32037,1,0,1:0:0:0:
449,207,32118,1,0,1:0:0:0:
439,237,32200,1,0,1:0:0:0:
419,261,32281,5,8,0:1:0:0:
405,258,32362,1,0,0:0:0:0:
391,255,32444,1,0,0:0:0:0:
377,252,32525,1,0,0:0:0:0:
363,249,32607,1,0,1:0:0:0:
494,93,32933,6,0,L|434:85,1,45,8|0,1:2|0:0,0:0:0:0:
368,51,33096,2,0,L|248:67,1,90,0|0,0:0|1:0,0:0:0:0:
112,156,33422,1,0,0:0:0:0:
112,156,33504,1,0,0:0:0:0:
112,156,33585,1,8,1:2:0:0:
191,52,33748,6,0,P|249:117|234:203,1,180
163,283,34237,1,8,1:2:0:0:
70,128,34400,2,0,L|170:144,1,90,0|0,0:0|1:0,0:0:0:0:
331,174,34726,2,0,L|392:165,1,45
488,143,34889,1,8,1:2:0:0:
357,70,35052,1,0,0:0:0:0:
374,264,35216,6,0,L|468:282,1,90,0|0,1:0|0:0,0:0:0:0:
298,331,35542,1,8,1:2:0:0:
334,142,35705,1,0,0:0:0:0:
351,156,35786,1,0,0:0:0:0:
368,170,35868,2,0,B|378:214|378:214|362:257,1,90,0|0,1:0|0:0,0:0:0:0:
195,318,36194,6,0,L|98:305,1,90,8|0,1:2|0:0,0:0:0:0:
22,349,36520,1,0,1:0:0:0:
97,162,36683,1,0,0:0:0:0:
99,184,36764,1,0,0:0:0:0:
101,206,36846,1,8,1:2:0:0:
279,331,37009,6,0,L|286:275,1,53.9999983520508,12|0,0:0|0:0,0:0:0:0:
235,84,37172,2,0,L|228:140,1,53.9999983520508
357,271,37335,1,0,1:0:0:0:
393,281,37417,1,0,0:0:0:0:
429,271,37498,1,8,1:2:0:0:
448,238,37580,1,0,0:0:0:0:
445,200,37661,1,0,1:0:0:0:
425,167,37743,1,0,1:0:0:0:
388,156,37824,6,0,L|278:167,1,90,4|0,1:0|0:0,0:0:0:0:
212,127,38069,1,0,0:0:0:0:
212,127,38150,2,0,L|221:83,3,45,8|0|0|0,1:2|0:0|0:0|0:0,0:0:0:0:
133,177,38476,1,0,1:0:0:0:
135,190,38558,1,0,0:0:0:0:
137,203,38639,1,0,0:0:0:0:
139,216,38721,1,0,0:0:0:0:
141,229,38802,1,8,1:2:0:0:
143,242,38884,1,0,0:0:0:0:
145,255,38966,2,0,L|98:243,1,45,0|0,0:0|1:0,0:0:0:0:
20,347,39129,6,0,P|71:336|116:319,1,90,4|0,1:2|0:0,0:0:0:0:
215,298,39373,1,0,0:0:0:0:
215,298,39455,2,0,L|226:349,1,45,8|0,1:2|0:0,0:0:0:0:
329,314,39618,2,0,L|340:263,1,45
259,185,39781,2,0,L|211:172,3,45,0|0|0|0,1:0|0:0|0:0|0:0,0:0:0:0:
317,137,40107,1,8,1:2:0:0:
345,158,40188,1,0,0:0:0:0:
379,168,40270,1,0,1:0:0:0:
414,163,40351,1,0,0:0:0:0:
446,146,40433,5,4,1:2:0:0:
345,231,40596,1,0,1:0:0:0:
402,74,40759,1,0,1:0:0:0:
509,201,40922,1,0,1:0:0:0:
321,101,41085,5,4,1:2:0:0:
470,276,41248,1,0,1:0:0:0:
329,314,41411,1,0,1:0:0:0:
414,152,41574,2,0,L|463:141,1,45,0|0,1:0|1:0,1:0:0:0:
266,259,41737,5,0,1:0:0:0:
234,253,41819,1,0,0:0:0:0:
203,247,41900,1,0,1:0:0:0:
171,241,41982,1,0,0:0:0:0:
154,214,42063,5,0,1:0:0:0:
122,208,42145,1,0,0:0:0:0:
91,202,42226,1,0,1:0:0:0:
59,196,42308,1,0,0:0:0:0:
59,196,42389,6,0,L|69:246,1,45,8|0,1:3|1:0,1:0:0:0:
166,361,42552,2,0,L|176:311,1,45,8|0,1:3|1:0,1:0:0:0:
259,99,42716,2,0,B|234:128|234:128|242:243,1,135
290,286,43042,5,4,1:2:0:0:
60,274,43205,1,0,0:0:0:0:
342,222,43368,1,0,0:0:0:0:
175,317,43531,5,4,1:2:0:0:
149,112,43694,1,0,0:0:0:0:
339,191,43857,1,0,0:0:0:0:
116,198,44020,5,4,1:2:0:0:
309,290,44183,1,0,0:0:0:0:
293,77,44346,1,0,0:0:0:0:
228,328,44509,5,4,1:2:0:0:
285,101,44672,1,0,0:0:0:0:
309,290,44835,1,0,1:0:0:0:
156,179,44998,5,8,1:2:0:0:
153,151,45080,1,0,0:0:0:0:
150,124,45161,1,0,1:0:0:0:
148,96,45243,1,0,1:0:0:0:
146,69,45324,5,8,1:2:0:0:
172,76,45406,2,0,B|227:92|227:92|279:71,1,107.999996704102,0|0,1:0|1:0,0:0:0:0:
330,133,45650,5,4,1:2:0:0:
512,108,45813,1,0,0:0:0:0:
442,278,45976,1,0,0:0:0:0:
381,78,46139,5,4,1:2:0:0:
350,321,46302,1,0,0:0:0:0:
304,154,46466,1,0,0:0:0:0:
442,278,46629,5,4,1:2:0:0:
211,311,46792,1,0,0:0:0:0:
355,221,46955,1,0,0:0:0:0:
204,122,47118,5,4,1:2:0:0:
174,324,47281,1,0,0:0:0:0:
364,249,47444,1,0,1:0:0:0:
101,216,47607,6,0,L|162:206,1,53.9999983520508,8|0,1:2|0:0,0:0:0:0:
424,213,47770,2,0,L|363:223,1,53.9999983520508,0|0,1:0|0:0,0:0:0:0:
144,112,47933,6,0,P|191:67|293:94,1,161.999995056153,8|0,1:0|0:0,0:0:0:0:
262,151,48259,5,4,1:2:0:0:
264,179,48341,1,0,0:0:0:0:
266,206,48422,1,0,0:0:0:0:
269,233,48504,1,0,0:0:0:0:
272,260,48585,2,0,L|203:250,1,53.9999983520508
17,167,48748,5,4,1:2:0:0:
33,145,48830,1,0,0:0:0:0:
55,130,48911,1,0,0:0:0:0:
81,127,48993,1,0,0:0:0:0:
107,128,49074,2,0,L|119:184,1,53.9999983520508
122,324,49237,5,4,1:2:0:0:
145,337,49319,1,0,0:0:0:0:
171,331,49400,1,0,0:0:0:0:
197,325,49482,1,0,0:0:0:0:
223,319,49563,2,0,L|282:305,1,53.9999983520508
431,254,49726,5,4,1:2:0:0:
431,254,49808,1,0,0:0:0:0:
431,254,49889,2,0,L|369:242,1,53.9999983520508
296,108,50052,2,0,L|307:168,1,53.9999983520508,0|0,1:0|0:0,0:0:0:0:
344,346,50216,5,8,1:2:0:0:
186,199,50379,1,0,1:0:0:0:
187,183,50460,1,0,1:0:0:0:
188,166,50542,1,8,1:2:0:0:
189,150,50623,1,0,1:0:0:0:
191,133,50705,1,0,1:0:0:0:
193,117,50786,1,8,1:2:0:0:
193,100,50868,6,0,L|184:36,1,53.9999983520508,4|0,1:2|1:0,1:0:0:0:
368,133,51031,2,0,L|427:157,1,53.9999983520508,0|0,1:0|1:0,1:0:0:0:
251,268,51194,1,0,1:0:0:0:
299,92,51357,6,0,L|307:37,1,53.9999983520508,4|0,1:2|1:0,1:0:0:0:
336,294,51520,2,0,L|393:302,1,53.9999983520508,0|0,1:0|1:0,1:0:0:0:
218,142,51683,1,0,1:0:0:0:
90,305,51846,6,0,L|99:358,1,53.9999983520508,4|0,1:2|1:0,1:0:0:0:
23,128,52009,2,0,L|32:75,1,53.9999983520508,0|0,1:0|1:0,1:0:0:0:
208,156,52172,1,0,1:0:0:0:
10,279,52335,6,0,L|82:286,1,53.9999983520508,4|0,1:2|1:0,1:0:0:0:
300,175,52498,2,0,L|281:228,1,53.9999983520508,0|0,1:0|1:0,1:0:0:0:
190,352,52661,2,0,B|168:320|168:320|181:186,1,161.999995056153,0|0,1:0|0:0,0:0:0:0:
190,117,52987,1,0,1:0:0:0:
432,200,53150,5,8,1:2:0:0:
388,206,53232,1,0,0:0:0:0:
345,211,53313,1,0,0:0:0:0:
301,217,53395,1,0,0:0:0:0:
258,223,53476,5,4,1:2:0:0:
256,192,53558,12,0,57960,0:0:0:0:
203,157,58042,5,2,0:0:0:0:
291,139,58205,1,2,0:0:0:0:
309,227,58368,1,2,0:0:0:0:
167,324,58531,5,2,0:0:0:0:
291,139,58694,5,4,1:0:0:0:
405,237,58857,1,0,0:0:0:0:
405,237,58938,1,0,0:0:0:0:
405,237,59020,2,0,L|457:225,3,33.7500012874604
401,123,59346,2,0,L|453:111,3,33.7500012874604
301,68,59672,1,2,0:0:0:0:
456,87,59835,1,2,0:0:0:0:
324,222,59998,5,0,0:0:0:0:
286,88,60161,1,0,0:0:0:0:
286,88,60243,1,0,0:0:0:0:
286,88,60324,2,0,L|241:75,3,33.7500012874604
178,130,60650,1,0,0:0:0:0:
161,131,60732,1,0,0:0:0:0:
144,132,60813,1,0,0:0:0:0:
127,134,60895,1,0,0:0:0:0:
110,136,60976,1,2,0:0:0:0:
239,53,61139,6,0,L|223:208,1,135.000005149842,6|0,1:2|0:0,0:0:0:0:
270,267,61629,1,0,0:0:0:0:
149,232,61792,1,0,0:0:0:0:
149,232,61873,1,0,0:0:0:0:
149,232,61955,2,0,L|101:244,3,33.7500012874604
41,215,62281,1,0,0:0:0:0:
234,316,62444,6,0,P|271:261|262:195,1,135.000005149842,6|0,1:2|0:0,0:0:0:0:
164,150,62933,1,0,0:0:0:0:
256,51,63096,2,0,L|249:94,1,33.7500012874604
299,268,63259,6,0,L|446:250,1,135.000005149842,6|0,1:2|0:0,0:0:0:0:
223,339,63748,6,0,P|188:304|98:296,1,135.000005149842,6|0,1:2|0:0,0:0:0:0:
32,204,64237,1,0,0:0:0:0:
185,162,64400,1,0,0:0:0:0:
185,162,64482,1,0,0:0:0:0:
185,162,64563,2,0,L|176:205,3,33.7500012874604
111,92,64889,1,2,0:0:0:0:
170,238,65052,1,2,0:0:0:0:
302,155,65216,5,0,0:0:0:0:
98,119,65379,1,0,0:0:0:0:
94,145,65460,1,0,0:0:0:0:
90,171,65542,1,0,0:0:0:0:
86,197,65623,1,0,0:0:0:0:
82,223,65705,2,0,B|109:255|109:255|153:233|223:246,1,135.000005149842,12|2,1:0|0:0,0:0:0:0:
229,257,66520,6,0,L|221:342,1,67.5000025749208,6|0,1:2|0:0,0:0:0:0:
348,341,66846,1,0,0:0:0:0:
374,335,66927,1,0,0:0:0:0:
400,330,67009,2,0,L|486:336,1,67.5000025749208,2|0,0:0|0:0,0:0:0:0:
256,163,67335,1,0,0:0:0:0:
256,163,67417,1,0,0:0:0:0:
256,163,67498,2,0,L|170:169,1,67.5000025749208,2|0,0:0|0:0,0:0:0:0:
65,97,67824,6,0,L|21:107,3,33.7500012874604
107,168,68150,1,0,0:0:0:0:
104,195,68232,1,0,0:0:0:0:
101,221,68313,1,0,0:0:0:0:
98,248,68395,1,0,0:0:0:0:
95,274,68476,1,2,0:0:0:0:
246,290,68639,5,0,0:0:0:0:
246,290,68721,1,8,0:3:0:0:
246,290,68802,2,0,L|254:331,1,33.7500012874604
177,210,68966,2,0,L|185:169,1,33.7500012874604,8|0,0:3|0:0,0:0:0:0:
252,101,69129,5,4,1:2:0:0:
196,129,74183,5,0,0:0:0:0:
196,129,74264,1,0,0:0:0:0:
196,129,74346,2,0,L|191:60,1,67.5000025749208,0|0,1:0|0:0,0:0:0:0:
331,156,74672,2,0,L|326:87,1,67.5000025749208,8|0,1:2|0:0,0:0:0:0:
124,231,74998,2,0,L|119:162,1,67.5000025749208,0|0,1:0|0:0,0:0:0:0:
259,258,75324,2,0,L|254:189,1,67.5000025749208,8|0,1:2|0:0,0:0:0:0:
326,88,75650,5,0,1:0:0:0:
326,88,75813,1,0,1:0:0:0:
326,210,75976,1,8,1:2:0:0:
204,109,76139,1,0,1:0:0:0:
380,14,76302,5,0,1:0:0:0:
380,14,76466,1,0,1:0:0:0:
229,202,76629,1,8,1:2:0:0:
416,174,76792,1,0,1:0:0:0:
271,52,76955,5,0,1:0:0:0:
235,45,77036,1,0,1:0:0:0:
199,53,77118,1,0,1:0:0:0:
171,75,77199,1,0,1:0:0:0:
157,108,77281,5,0,1:0:0:0:
159,143,77362,1,0,1:0:0:0:
175,175,77444,1,0,1:0:0:0:
180,210,77525,1,0,1:0:0:0:
162,241,77607,5,0,1:0:0:0:
133,263,77688,1,0,1:0:0:0:
96,263,77770,1,0,1:0:0:0:
67,241,77851,1,0,1:0:0:0:
58,205,77933,5,0,1:0:0:0:
102,200,78014,1,0,1:0:0:0:
147,196,78096,1,0,1:0:0:0:
191,192,78177,1,0,1:0:0:0:
236,188,78259,6,0,B|326:180|326:180|372:207,1,135,4|0,1:2|0:0,0:0:0:0:
375,356,78504,5,4,1:2:0:0:
375,356,78585,2,0,P|354:319|345:291,1,67.5000025749208
417,133,78748,6,0,B|423:98|445:77|445:77|467:104|469:159|449:186|449:186|460:228,1,202.500007724762,4|0,1:2|0:0,0:0:0:0:
346,295,79074,6,0,B|320:302|320:302|295:291|295:291|274:300|241:303,1,101.250003862381,0|0,1:0|0:0,0:0:0:0:
170,238,79400,6,0,P|149:286|157:347,1,99.0000030212403,12|0,1:0|0:0,0:0:0:0:
278,185,79726,1,0,0:0:0:0:
278,185,79808,1,0,0:0:0:0:
278,185,79889,1,8,1:2:0:0:
112,134,80052,1,2,0:0:0:0:
267,45,80216,1,0,1:0:0:0:
270,69,80297,1,0,0:0:0:0:
273,93,80379,2,0,B|291:116|291:116|277:188,1,99.0000030212403,2|8,0:0|1:2,0:0:0:0:
397,348,80705,6,0,L|380:247,1,99.0000030212403,2|0,0:0|1:0,0:0:0:0:
462,102,81031,1,2,0:0:0:0:
462,102,81112,1,0,0:0:0:0:
462,102,81194,1,8,1:2:0:0:
449,291,81357,1,2,0:0:0:0:
266,216,81520,1,0,1:0:0:0:
370,154,81683,2,0,B|387:202|387:202|380:253,1,99.0000030212403,2|8,0:0|1:2,0:0:0:0:
314,301,81927,1,0,0:0:0:0:
289,304,82009,1,2,0:0:0:0:
264,307,82091,1,0,0:0:0:0:
239,310,82172,6,0,L|128:326,1,99.0000030212403,0|2,1:0|0:0,0:0:0:0:
75,278,82417,1,0,0:0:0:0:
75,278,82498,2,0,L|60:222,1,49.5000015106202,8|0,1:2|0:0,0:0:0:0:
213,208,82661,2,0,L|144:197,1,49.5000015106202,2|0,0:0|0:0,0:0:0:0:
289,108,82824,1,0,1:0:0:0:
310,87,82906,1,0,0:0:0:0:
322,60,82987,1,2,0:0:0:0:
323,30,83069,1,0,0:0:0:0:
312,2,83150,1,8,1:2:0:0:
171,93,83313,1,2,0:0:0:0:
346,182,83476,6,0,L|456:171,1,99.0000030212403,0|2,1:0|0:0,0:0:0:0:
510,229,83721,1,0,0:0:0:0:
510,229,83802,1,8,1:2:0:0:
359,287,83966,1,2,0:0:0:0:
381,88,84129,1,0,1:0:0:0:
384,68,84210,1,0,0:0:0:0:
387,48,84292,1,2,0:0:0:0:
430,201,84455,1,8,1:2:0:0:
283,112,84618,2,0,L|221:121,1,49.5000015106202,2|0,0:0|0:0,0:0:0:0:
86,159,84781,6,0,P|144:160|175:191,1,99.0000030212403,0|2,1:0|0:0,0:0:0:0:
160,267,85025,1,0,0:0:0:0:
188,258,85107,1,8,1:2:0:0:
217,256,85188,1,0,0:0:0:0:
245,266,85270,1,2,0:0:0:0:
267,284,85351,1,0,0:0:0:0:
290,303,85433,1,0,1:0:0:0:
318,308,85514,1,0,0:0:0:0:
346,300,85596,1,2,0:0:0:0:
366,278,85677,1,0,0:0:0:0:
376,250,85759,1,8,1:2:0:0:
280,66,85922,2,0,L|293:136,1,49.5000015106202,2|0,0:0|0:0,0:0:0:0:
173,313,86085,6,0,P|223:302|272:281,1,99.0000030212403,0|2,1:0|0:0,0:0:0:0:
468,176,86411,1,8,1:2:0:0:
468,176,86493,1,0,0:0:0:0:
468,176,86574,2,0,L|366:155,1,99.0000030212403,2|0,0:0|1:0,0:0:0:0:
106,98,86900,1,2,0:0:0:0:
257,46,87063,1,8,1:2:0:0:
187,237,87226,1,2,0:0:0:0:
195,265,87308,1,0,0:0:0:0:
203,293,87389,6,0,B|248:313|248:313|308:296,1,99.0000030212403,0|2,1:0|0:0,0:0:0:0:
208,110,87716,2,0,L|201:160,1,49.5000015106202,8|0,1:2|0:0,0:0:0:0:
113,273,87879,2,0,L|128:375,1,99.0000030212403,2|0,0:0|1:0,0:0:0:0:
10,176,88205,1,2,0:0:0:0:
10,176,88286,1,0,0:0:0:0:
10,176,88368,2,0,P|64:156|114:154,1,99.0000030212403,8|2,1:2|0:0,0:0:0:0:
255,230,88694,5,0,1:0:0:0:
200,331,88857,2,0,L|207:382,2,49.5000015106202,2|0|8,0:0|0:0|1:2,0:0:0:0:
202,135,89183,1,2,0:0:0:0:
426,248,89346,2,0,L|481:256,1,49.5000015106202,0|8,1:0|0:0,0:0:0:0:
225,236,89509,1,0,0:0:0:0:
265,51,89672,1,8,1:2:0:0:
325,314,89835,1,0,1:0:0:0:
295,320,89917,1,0,1:0:0:0:
266,327,89998,6,0,L|167:314,1,99.0000030212403,4|2,1:0|0:0,0:0:0:0:
29,140,90324,1,8,1:2:0:0:
29,140,90406,1,0,0:0:0:0:
29,140,90487,1,2,0:0:0:0:
127,77,90650,2,0,B|144:126|144:126|134:183,1,99.0000030212403,0|2,1:0|0:0,0:0:0:0:
101,256,90895,1,0,0:0:0:0:
101,256,90976,1,8,1:2:0:0:
319,173,91139,6,0,L|214:158,1,99.0000030212403,2|0,0:0|1:0,0:0:0:0:
46,330,91466,2,0,B|93:346|93:346|153:333,1,99.0000030212403,2|8,0:0|1:2,0:0:0:0:
199,278,91710,1,0,0:0:0:0:
228,282,91792,1,2,0:0:0:0:
257,286,91873,1,0,0:0:0:0:
286,291,91955,1,0,1:0:0:0:
400,115,92118,1,2,0:0:0:0:
448,230,92281,1,8,1:2:0:0:
286,161,92444,6,0,L|268:53,1,99.0000030212403,2|0,0:0|1:0,0:0:0:0:
202,25,92688,1,0,0:0:0:0:
202,25,92770,1,2,0:0:0:0:
226,242,92933,2,0,B|269:265|269:265|318:257,1,99.0000030212403,8|2,1:2|0:0,0:0:0:0:
406,195,93177,1,0,0:0:0:0:
406,195,93259,6,0,L|420:63,1,116.999994644165,4|0,1:2|0:0,0:0:0:0:
315,224,93504,2,0,L|329:356,1,116.999994644165,4|0,1:2|0:0,0:0:0:0:
224,172,93748,6,0,B|168:157|114:166|114:166|81:192,1,148.50000453186,4|0,1:2|0:0,0:0:0:0:
107,269,94074,1,4,1:2:0:0:
32,56,94237,5,0,0:0:0:0:
32,56,94319,1,0,1:0:0:0:
32,56,94400,2,0,L|184:74,1,148.50000453186,12|0,1:2|0:0,0:0:0:0:
286,52,94726,6,0,L|344:42,1,49.5000015106202,0|0,1:0|0:0,0:0:0:0:
415,164,94889,2,0,L|366:155,1,49.5000015106202,8|0,1:2|0:0,0:0:0:0:
267,203,95052,1,0,1:0:0:0:
262,232,95134,1,0,1:0:0:0:
257,261,95216,5,4,1:0:0:0:
45,207,95379,1,0,1:0:0:0:
310,179,95542,5,8,1:2:0:0:
117,242,95705,1,0,1:0:0:0:
250,119,95868,5,0,1:0:0:0:
285,336,96031,1,0,1:0:0:0:
162,157,96194,6,0,L|168:106,1,49.5000015106202,8|0,1:2|0:0,0:0:0:0:
379,224,96357,1,0,1:0:0:0:
283,37,96520,5,4,1:2:0:0:
238,283,96683,1,0,1:0:0:0:
448,121,96846,5,8,1:2:0:0:
139,174,97009,1,0,1:0:0:0:
356,55,97172,5,0,1:0:0:0:
406,344,97335,1,0,1:0:0:0:
285,139,97498,5,8,1:2:0:0:
388,160,97661,1,0,1:0:0:0:
220,228,97824,5,0,1:0:0:0:
220,228,97906,1,0,0:0:0:0:
220,228,97987,1,0,1:0:0:0:
220,228,98069,1,0,0:0:0:0:
193,241,98150,1,8,1:2:0:0:
163,247,98232,1,0,0:0:0:0:
134,239,98313,1,0,1:0:0:0:
107,224,98395,1,0,0:0:0:0:
78,216,98476,5,0,1:0:0:0:
48,217,98558,1,0,0:0:0:0:
20,227,98639,1,0,1:0:0:0:
25,256,98721,1,0,0:0:0:0:
30,284,98802,2,0,L|22:340,1,49.5000015106202,8|0,1:2|0:0,0:0:0:0:
166,156,98966,2,0,L|159:104,1,49.5000015106202,0|0,1:0|0:0,0:0:0:0:
104,44,99129,5,4,1:2:0:0:
137,23,99210,1,0,0:0:0:0:
176,21,99292,1,0,1:0:0:0:
211,37,99373,1,0,0:0:0:0:
231,71,99455,1,8,1:2:0:0:
262,94,99536,1,0,0:0:0:0:
301,97,99618,1,0,1:0:0:0:
336,79,99699,1,0,0:0:0:0:
361,48,99781,6,0,L|368:-1,1,49.5000015106202,0|0,1:0|0:0,0:0:0:0:
475,102,99944,2,0,L|482:151,1,49.5000015106202,0|0,1:0|0:0,0:0:0:0:
292,174,100107,2,0,L|226:184,1,49.5000015106202,8|0,1:2|0:0,0:0:0:0:
440,269,100270,2,0,L|494:280,1,49.5000015106202,0|0,1:0|0:0,0:0:0:0:
312,340,100433,5,4,1:2:0:0:
353,358,100759,2,0,P|318:343|297:331,1,45,2|0,0:0|0:0,0:0:0:0:
231,287,101085,2,0,P|196:302|175:314,1,45,2|0,0:0|0:0,0:0:0:0:
92,347,101411,1,2,0:0:0:0:
92,347,101574,2,0,P|81:315|76:297,1,45,2|0,0:0|0:0,0:0:0:0:
189,182,101900,2,0,P|182:203|174:224,1,45,2|0,0:0|0:0,0:0:0:0:
76,138,102226,1,2,0:0:0:0:
76,138,102389,2,0,P|49:148|17:155,1,45,2|0,0:0|0:0,0:0:0:0:
199,53,102716,2,0,P|172:43|140:36,1,45,2|0,0:0|0:0,0:0:0:0:
273,201,103042,6,0,P|293:209|315:215,1,45,2|0,0:0|0:0,0:0:0:0:
464,137,103368,2,0,P|437:147|405:154,1,45,2|0,0:0|0:0,0:0:0:0:
360,291,103694,2,0,P|365:312|374:333,1,45,2|0,0:0|0:0,0:0:0:0:
501,250,104020,1,2,0:0:0:0:
501,250,104183,2,0,P|495:228|486:207,1,45,2|0,0:0|0:0,0:0:0:0:
338,175,104509,2,0,P|316:169|295:160,1,45,2|0,0:0|0:0,0:0:0:0:
100,130,104835,1,2,0:0:0:0:
100,130,104998,2,0,P|120:121|142:115,1,45,2|0,0:0|0:0,0:0:0:0:
237,223,105324,2,0,P|245:243|251:265,1,45,2|0,0:0|0:0,0:0:0:0:
368,354,105650,6,0,P|373:332|382:311,1,45,2|0,0:0|0:0,0:0:0:0:
478,222,105976,2,0,P|472:200|463:179,1,45,2|0,0:0|0:0,0:0:0:0:
349,110,106302,2,0,P|340:130|334:152,1,45,2|0,0:0|0:0,0:0:0:0:
421,286,106629,1,2,0:0:0:0:
421,286,106792,2,0,P|400:294|378:300,1,45,2|0,0:0|0:0,0:0:0:0:
223,226,107118,2,0,P|244:231|265:240,1,45,2|0,0:0|0:0,0:0:0:0:
145,346,107444,1,2,0:0:0:0:
145,346,107607,2,0,P|136:325|130:303,1,45,2|0,0:0|0:0,0:0:0:0:
25,230,107933,2,0,P|33:209|39:187,1,45,2|0,0:0|0:0,0:0:0:0:
256,192,108259,12,0,110705,0:0:0:0:
