osu file format v14

[General]
AudioFilename: audio.mp3
AudioLeadIn: 0
PreviewTime: 43494
Countdown: 0
SampleSet: Soft
StackLeniency: 0.3
Mode: 0
LetterboxInBreaks: 0
WidescreenStoryboard: 0

[Editor]
Bookmarks: 11846,22395,32945,43494,64593,83055,85692,96242,106626,127890
DistanceSpacing: 2.6
BeatDivisor: 4
GridSize: 32
TimelineZoom: 1.7

[Metadata]
Title:Crepuscular Rays
TitleUnicode:Crepuscular Rays
Artist:sky_delta
ArtistUnicode:sky_delta
Creator:Nerova Riuz GX
Version:Stairway to Heaven
Source:
Tags:SF2015 Shooter's Festival 2015 Endorfin. k-shoot mania hatsune miku 初音ミク vocaloid -Last- MrSergio
BeatmapID:1187925
BeatmapSetID:561917

[Difficulty]
HPDrainRate:6.6
CircleSize:4.5
OverallDifficulty:8.7
ApproachRate:9.4
SliderMultiplier:1.7
SliderTickRate:1

[Events]
//Background and Video events
0,0,"crepuscular.png",0,0
//Break Periods
//Storyboard Layer 0 (Background)
//Storyboard Layer 1 (Fail)
//Storyboard Layer 2 (Pass)
//Storyboard Layer 3 (Foreground)
//Storyboard Layer 4 (Overlay)
//Storyboard Sound Samples

[TimingPoints]
1297,329.67032967033,4,2,0,40,1,0
1297,-200,4,2,0,40,0,0
11846,-166.666666666667,4,2,0,40,0,0
22395,-133.333333333333,4,2,0,60,0,0
32945,-111.111111111111,4,2,0,70,0,0
43494,-100,4,2,0,80,0,1
43577,-100,4,2,0,80,0,0
61956,-66.6666666666667,4,2,0,80,0,0
63275,-100,4,2,0,80,0,0
64593,-100,4,2,0,80,0,1
64676,-100,4,2,0,80,0,0
76956,-200,4,2,0,60,0,0
78110,-100,4,2,0,80,0,0
81406,-151.515151515152,4,2,0,60,0,0
83137,-151.515151515152,4,2,0,5,0,0
85692,-166.666666666667,4,2,0,40,0,0
96242,-111.111111111111,4,2,0,60,0,0
105967,-200,4,2,0,60,0,0
106626,-83.3333333333333,4,2,0,80,0,1
107286,-100,4,2,0,80,0,1
116516,-100,4,2,0,80,0,0
117176,-83.3333333333333,4,2,0,80,0,1
117670,-100,4,2,0,80,0,1
121297,-83.3333333333333,4,2,0,80,0,1
122615,-100,4,2,0,80,0,1
127395,-166.666666666667,4,2,0,80,0,1
127890,-166.666666666667,4,2,0,80,0,0

[Colours]
Combo1 : 255,239,191
Combo2 : 154,252,188
Combo3 : 172,209,255
Combo4 : 238,191,255

[HitObjects]
156,142,1297,6,0,L|205:148,11,42.5,4|0|0|0|0|0|0|0|0|0|0|0,0:0|0:0|0:0|0:0|0:0|0:0|0:0|0:0|0:0|0:0|0:0|0:0,0:0:0:0:
277,98,3275,2,0,P|272:76|273:50,3,42.5
391,186,3934,6,0,L|445:180,7,42.5,2|0|0|0|0|0|0|0,0:0|0:0|0:0|0:0|0:0|0:0|0:0|0:0,0:0:0:0:
352,284,5253,2,0,P|351:313|355:336,3,42.5
237,360,5912,2,0,P|239:338|237:317,3,42.5
102,233,6571,6,0,P|74:238|52:247,11,42.5,2|0|0|0|0|0|0|0|0|0|0|0,0:0|0:0|0:0|0:0|0:0|0:0|0:0|0:0|0:0|0:0|0:0|0:0,0:0:0:0:
132,113,8549,2,0,L|181:119,3,42.5
228,262,9209,6,0,L|233:315,7,42.5,2|0|0|0|0|0|0|0,0:0|0:0|0:0|0:0|0:0|0:0|0:0|0:0,0:0:0:0:
330,199,10527,2,0,L|333:156,3,42.5
408,323,11187,2,0,L|404:365,2,42.5
479,215,11681,5,0,0:0:0:0:
479,215,11764,1,2,0:0:0:0:
479,215,11846,2,0,P|488:193|494:162,9,50.9999984436036,2|0|0|0|0|0|0|0|0|0,0:0|0:0|0:0|0:0|0:0|0:0|0:0|0:0|0:0|0:0,0:0:0:0:
403,44,13494,6,0,L|406:115,2,50.9999984436036,2|0|0,0:0|0:0|0:0,0:0:0:0:
298,137,13989,2,0,L|295:208,2,50.9999984436036,2|0|0,0:0|0:0|0:0,0:0:0:0:
201,51,14483,6,0,P|170:33|143:29,5,50.9999984436036,2|0|0|0|0|0,0:0|0:0|0:0|0:0|0:0|0:0,0:0:0:0:
149,175,15472,1,2,0:0:0:0:
60,193,15637,2,0,P|35:200|14:214,5,50.9999984436036,2|0|0|0|0|0,0:0|0:0|0:0|0:0|0:0|0:0,0:0:0:0:
138,337,16626,6,0,P|159:352|184:358,1,50.9999984436036,2|0,0:0|0:0,0:0:0:0:
331,348,16956,1,2,0:0:0:0:
433,302,17121,2,0,L|497:308,6,50.9999984436036,2|0|0|0|0|0|0,0:0|0:0|0:0|0:0|0:0|0:0|0:0,0:0:0:0:
362,187,18275,5,2,0:0:0:0:
362,187,18357,1,2,0:0:0:0:
361,187,18439,2,0,P|368:162|382:141,2,50.9999984436036,2|0|0,0:0|0:0|0:0,0:0:0:0:
250,43,18934,2,0,P|264:63|270:88,1,50.9999984436036,2|0,0:0|0:0,0:0:0:0:
145,146,19264,2,0,L|94:149,2,50.9999984436036,2|0|0,0:0|0:0|0:0,0:0:0:0:
268,284,19758,6,0,P|270:310|264:340,7,50.9999984436036,2|0|0|0|0|0|0|0,0:0|0:0|0:0|0:0|0:0|0:0|0:0|0:0,0:0:0:0:
121,329,21077,2,0,P|119:303|125:273,3,50.9999984436036,2|0|0|0,0:0|0:0|0:0|0:0,0:0:0:0:
191,208,21736,5,0,0:0:0:0:
191,208,21818,1,0,0:0:0:0:
191,208,21901,1,0,0:0:0:0:
191,208,21983,1,0,0:0:0:0:
191,208,22066,5,0,0:0:0:0:
229,205,22148,1,0,0:0:0:0:
267,202,22230,1,2,0:0:0:0:
305,199,22313,1,2,0:0:0:0:
343,196,22395,6,0,P|371:229|382:275,1,63.7500024318696,4|0,0:0|0:0,0:0:0:0:
417,120,22725,1,0,0:0:0:0:
227,48,22890,2,0,L|355:40,1,127.500004863739
136,133,23384,2,0,P|107:76|109:13,1,127.500004863739
54,213,23879,2,0,P|25:270|27:333,1,127.500004863739
219,251,24373,6,0,L|148:245,1,63.7500024318696
310,359,24703,2,0,L|239:353,1,63.7500024318696
386,255,25033,5,2,0:0:0:0:
432,363,25198,1,0,0:0:0:0:
503,225,25362,1,0,0:0:0:0:
391,120,25527,2,0,P|378:158|375:249,1,127.500004863739,2|0,0:0|0:0,0:0:0:0:
499,84,26022,1,0,0:0:0:0:
330,26,26187,2,0,P|290:34|210:77,1,127.500004863739,2|0,0:0|0:0,0:0:0:0:
60,41,26681,2,0,L|139:35,1,63.7500024318696
214,173,27011,6,0,P|222:192|228:212,2,42.5000016212464,2|0|0,0:0|0:0|0:0,0:0:0:0:
83,247,27340,2,0,P|75:266|69:286,2,42.5000016212464,2|0|0,0:0|0:0|0:0,0:0:0:0:
190,344,27670,6,0,L|278:337,1,63.7500024318696,2|0,0:0|0:0,0:0:0:0:
253,338,27917,1,0,0:0:0:0:
253,338,28000,1,0,0:0:0:0:
482,280,28165,2,0,L|331:268,1,127.500004863739,2|0,0:0|0:0,0:0:0:0:
354,269,28577,1,0,0:0:0:0:
354,269,28659,1,0,0:0:0:0:
298,169,28824,1,0,0:0:0:0:
388,97,28989,6,0,P|421:88|466:85,1,63.7500024318696,2|0,0:0|0:0,0:0:0:0:
450,84,29236,1,0,0:0:0:0:
450,84,29318,1,0,0:0:0:0:
299,32,29483,2,0,P|237:16|173:19,1,127.500004863739,2|0,0:0|0:0,0:0:0:0:
137,104,29977,1,0,0:0:0:0:
134,125,30060,1,0,0:0:0:0:
131,146,30142,1,0,0:0:0:0:
128,167,30225,1,0,0:0:0:0:
125,188,30307,6,0,B|79:217|79:217|0:208,2,127.500004863739,2|0|0,0:0|0:0|0:0,0:0:0:0:
299,245,31132,1,0,0:0:0:0:
299,245,31297,1,0,0:0:0:0:
228,333,31461,6,0,P|189:313|103:312,1,127.500004863739
240,148,31956,1,0,0:0:0:0:
311,236,32120,2,0,P|350:216|436:215,1,127.500004863739
472,367,32615,2,0,L|482:290,1,63.7500024318696
401,53,32945,6,0,L|391:128,1,76.4999976654053,4|0,1:2|0:0,0:0:0:0:
230,5,33275,1,8,0:0:0:0:
198,98,33439,2,0,L|210:236,1,114.749996498108
211,232,33769,1,2,1:2:0:0:
45,89,33934,1,8,0:0:0:0:
69,199,34099,1,0,0:0:0:0:
283,95,34264,6,0,P|236:83|187:91,1,76.4999976654053,0|2,1:0|0:0,0:0:0:0:
310,192,34593,1,8,0:0:0:0:
463,30,34758,1,0,0:0:0:0:
463,30,34840,2,0,L|454:156,1,114.749996498108,0|0,1:0|1:0,0:0:0:0:
435,337,35253,1,8,0:0:0:0:
315,203,35417,1,0,0:0:0:0:
417,240,35582,5,0,1:0:0:0:
270,348,35747,1,2,0:0:0:0:
270,348,35829,1,0,1:0:0:0:
270,348,35912,2,0,L|188:344,1,76.4999976654053,8|0,0:0|0:0,0:0:0:0:
73,253,36242,1,0,0:0:0:0:
167,198,36406,1,2,1:2:0:0:
68,357,36571,1,8,0:0:0:0:
14,156,36736,1,2,0:0:0:0:
80,262,36901,6,0,P|117:274|166:272,1,76.4999976654053,0|0,1:0|0:0,0:0:0:0:
250,201,37231,1,8,0:0:0:0:
416,325,37395,2,0,L|322:331,1,76.4999976654053,0|0,1:0|0:0,0:0:0:0:
339,329,37643,1,0,1:0:0:0:
339,329,37725,1,0,1:0:0:0:
434,120,37890,1,8,0:0:0:0:
443,118,37972,1,0,0:0:0:0:
452,116,38054,1,0,0:0:0:0:
462,114,38137,1,0,0:0:0:0:
471,112,38219,5,4,0:0:0:0:
454,238,38549,1,0,0:0:0:0:
346,46,38879,1,0,0:0:0:0:
328,171,39209,1,0,0:0:0:0:
167,69,39538,6,0,P|203:59|241:54,1,76.4999976654053,0|0,1:0|0:0,0:0:0:0:
69,192,39868,2,0,P|33:178|0:159,1,76.4999976654053,0|0,1:0|0:0,0:0:0:0:
220,148,40198,2,0,P|240:180|257:214,1,76.4999976654053,0|0,1:0|0:0,0:0:0:0:
73,95,40527,2,0,P|75:56|82:19,1,76.4999976654053,0|0,1:0|0:0,0:0:0:0:
160,226,40857,5,2,1:2:0:0:
129,357,41022,1,0,1:0:0:0:
352,226,41187,5,2,1:2:0:0:
383,357,41352,1,0,1:0:0:0:
382,78,41516,5,2,1:2:0:0:
351,209,41681,1,0,1:0:0:0:
128,78,41846,5,2,1:2:0:0:
159,209,42011,1,0,1:0:0:0:
307,66,42176,5,0,1:0:0:0:
293,37,42258,1,0,1:0:0:0:
267,22,42340,1,0,1:0:0:0:
237,24,42423,1,0,1:0:0:0:
213,43,42505,1,0,1:0:0:0:
204,71,42588,1,0,1:0:0:0:
210,100,42670,1,0,1:0:0:0:
234,120,42752,1,0,1:0:0:0:
264,123,42835,5,0,1:0:0:0:
239,151,42917,1,0,1:0:0:0:
231,188,42999,1,2,0:0:0:0:
239,225,43082,1,2,0:0:0:0:
265,253,43164,1,8,0:0:0:0:
265,253,43494,6,0,L|371:247,1,85,4|2,0:0|0:0,0:0:0:0:
451,307,43824,1,8,0:0:0:0:
369,126,43989,6,0,L|285:131,1,85
182,207,44318,1,2,1:2:0:0:
248,14,44483,5,8,0:0:0:0:
290,140,44648,1,0,0:0:0:0:
149,327,44813,5,0,1:0:0:0:
191,201,44978,1,2,0:0:0:0:
247,373,45143,1,8,0:0:0:0:
75,269,45307,1,0,0:0:0:0:
64,273,45390,1,2,1:2:0:0:
277,224,45555,1,0,0:0:0:0:
288,228,45637,1,2,1:2:0:0:
97,127,45802,2,0,P|55:120|2:122,1,85,8|0,0:0|0:0,0:0:0:0:
205,106,46132,6,0,L|198:200,1,85,0|2,1:0|0:0,0:0:0:0:
255,18,46461,1,8,0:0:0:0:
354,172,46626,6,0,L|347:78,1,85
404,260,46955,1,2,1:2:0:0:
455,44,47121,5,8,0:0:0:0:
342,164,47286,1,0,0:0:0:0:
481,371,47450,6,0,L|487:286,1,85,0|2,1:0|0:0,0:0:0:0:
443,162,47780,1,8,0:0:0:0:
339,347,47945,1,0,1:0:0:0:
227,299,48110,1,0,1:0:0:0:
227,299,48192,1,0,1:0:0:0:
227,299,48275,1,0,1:0:0:0:
410,250,48439,1,8,0:0:0:0:
190,151,48604,5,0,0:0:0:0:
221,154,48686,1,8,0:0:0:0:
253,157,48769,1,0,1:0:0:0:
84,95,48934,1,2,0:0:0:0:
272,46,49099,1,8,0:0:0:0:
106,202,49264,1,0,0:0:0:0:
171,47,49428,1,2,0:0:0:0:
316,243,49593,1,0,1:0:0:0:
454,118,49758,2,0,L|352:124,1,85,8|0,0:0|0:0,0:0:0:0:
415,319,50088,6,0,L|499:314,1,85,0|2,1:0|0:0,0:0:0:0:
316,229,50417,1,8,0:0:0:0:
221,340,50582,1,0,0:0:0:0:
224,352,50665,1,2,1:2:0:0:
78,256,50829,1,0,0:0:0:0:
81,244,50912,1,2,1:2:0:0:
194,242,51077,1,8,0:0:0:0:
81,377,51242,1,2,0:0:0:0:
33,91,51406,5,2,1:2:0:0:
137,175,51571,1,0,0:0:0:0:
137,175,51654,1,0,1:0:0:0:
137,175,51736,1,8,0:0:0:0:
127,7,51901,1,0,0:0:0:0:
17,193,52066,1,2,0:0:0:0:
246,118,52231,1,0,1:0:0:0:
131,92,52395,1,8,0:0:0:0:
281,240,52560,1,0,0:0:0:0:
399,108,52725,6,0,L|406:23,1,85,2|0,1:2|0:0,0:0:0:0:
460,280,53055,2,0,L|452:364,1,85,8|0,0:0|0:0,0:0:0:0:
419,197,53384,1,0,1:0:0:0:
419,197,53467,1,0,1:0:0:0:
419,197,53549,1,2,0:0:0:0:
324,155,53714,1,8,0:0:0:0:
488,121,53879,1,0,0:0:0:0:
366,312,54044,5,4,1:2:0:0:
349,325,54126,1,0,0:0:0:0:
331,335,54208,1,0,0:0:0:0:
310,340,54291,1,0,0:0:0:0:
289,340,54373,1,8,0:0:0:0:
268,335,54456,1,0,0:0:0:0:
249,325,54538,1,0,0:0:0:0:
233,311,54620,1,0,0:0:0:0:
221,294,54703,5,2,0:0:0:0:
200,269,54786,1,0,0:0:0:0:
173,253,54868,1,0,1:0:0:0:
142,246,54951,1,0,0:0:0:0:
110,249,55033,1,8,0:0:0:0:
81,261,55116,1,0,0:0:0:0:
57,282,55198,1,2,0:0:0:0:
41,309,55280,1,0,0:0:0:0:
34,340,55362,5,2,1:2:0:0:
76,342,55445,1,0,0:0:0:0:
117,332,55527,1,0,0:0:0:0:
153,309,55610,1,0,0:0:0:0:
181,277,55692,1,8,0:0:0:0:
197,238,55775,1,0,0:0:0:0:
201,196,55857,1,0,0:0:0:0:
192,154,55939,1,0,1:0:0:0:
172,118,56022,6,0,L|119:111,1,42.5
21,116,56187,1,0,1:0:0:0:
253,57,56351,1,10,0:0:0:0:
263,58,56433,1,0,0:0:0:0:
274,60,56515,1,0,0:0:0:0:
284,61,56598,1,0,0:0:0:0:
295,63,56681,2,0,L|313:21,1,42.5,4|0,1:2|0:0,0:0:0:0:
405,209,56846,5,2,0:0:0:0:
429,191,56928,1,0,1:0:0:0:
461,181,57011,2,0,P|482:180|502:185,1,42.5,8|0,0:0|0:0,0:0:0:0:
419,81,57176,2,0,P|428:62|443:47,1,42.5
443,303,57340,1,0,0:0:0:0:
308,190,57505,6,0,L|240:193,1,42.5,2|0,1:2|0:0,0:0:0:0:
91,338,57670,1,8,0:0:0:0:
118,353,57752,1,0,0:0:0:0:
150,358,57834,1,2,0:0:0:0:
181,353,57917,1,0,0:0:0:0:
209,339,58000,5,2,1:2:0:0:
201,297,58082,1,0,0:0:0:0:
194,255,58164,1,0,0:0:0:0:
186,213,58247,1,0,0:0:0:0:
179,171,58329,1,8,0:0:0:0:
171,129,58412,1,0,0:0:0:0:
164,87,58494,2,0,P|144:79|123:76,1,42.5,2|0,1:2|0:0,0:0:0:0:
35,226,58659,5,0,1:0:0:0:
35,226,58742,1,0,1:0:0:0:
35,226,58824,2,0,P|55:222|75:215,1,42.5,2|0,0:0|0:0,0:0:0:0:
343,115,58989,2,0,L|258:108,1,85,8|0,0:0|0:0,0:0:0:0:
258,108,59236,1,0,0:0:0:0:
258,108,59318,1,4,1:2:0:0:
312,215,59483,5,2,0:0:0:0:
360,22,59648,1,8,0:0:0:0:
461,182,59813,1,0,0:0:0:0:
354,120,59978,1,0,0:0:0:0:
387,320,60143,1,0,1:2:0:0:
467,176,60307,2,0,P|476:135|462:86,1,85,8|0,0:0|0:0,0:0:0:0:
298,300,60637,6,0,L|305:392,1,85,0|0,1:2|0:0,0:0:0:0:
398,228,60967,1,8,0:0:0:0:
193,308,61132,1,0,0:0:0:0:
193,308,61214,1,0,1:0:0:0:
193,308,61297,1,0,0:0:0:0:
395,329,61461,1,0,1:0:0:0:
244,92,61626,1,8,0:0:0:0:
234,216,61791,1,0,0:0:0:0:
84,166,61956,6,0,P|51:113|66:52,1,127.500004863739,4|0,1:2|0:0,0:0:0:0:
250,101,62203,2,0,B|241:150|241:150|249:176|249:176|240:226,1,127.500004863739,4|0,1:2|0:0,0:0:0:0:
398,234,62450,6,0,P|430:181|415:120,1,127.500004863739,4|0,1:2|0:0,0:0:0:0:
234,216,62698,2,0,B|242:265|242:265|234:291|234:291|243:341,1,127.500004863739,4|0,1:2|0:0,0:0:0:0:
246,353,62945,5,8,0:0:0:0:
339,168,63110,1,2,0:0:0:0:
147,274,63275,2,0,L|0:262,1,127.5,4|0,1:2|0:0,0:0:0:0:
0,261,63604,1,8,0:0:0:0:
141,99,63769,1,2,1:2:0:0:
250,227,63934,5,0,1:0:0:0:
250,227,64016,1,0,1:0:0:0:
250,227,64099,1,0,1:0:0:0:
250,227,64181,1,0,0:0:0:0:
250,227,64264,5,8,0:0:0:0:
281,224,64346,1,0,0:0:0:0:
313,221,64428,1,2,1:2:0:0:
345,219,64511,1,2,0:0:0:0:
377,216,64593,6,0,L|474:208,1,85,4|0,1:2|0:0,0:0:0:0:
370,329,64923,1,2,0:0:0:0:
370,329,65088,1,2,0:0:0:0:
250,146,65253,1,0,0:0:0:0:
250,146,65335,1,0,0:0:0:0:
250,146,65417,2,0,L|257:89,1,42.5,2|0,1:2|0:0,0:0:0:0:
267,10,65582,1,2,0:0:0:0:
118,190,65747,6,0,P|164:234|181:295,1,127.5,4|0,1:2|0:0,0:0:0:0:
180,314,66077,1,0,0:0:0:0:
250,146,66242,1,8,0:0:0:0:
72,293,66406,1,0,0:0:0:0:
295,260,66571,1,0,0:0:0:0:
118,190,66736,1,0,1:2:0:0:
341,157,66901,2,0,L|435:165,1,85,8|0,0:0|0:0,0:0:0:0:
323,350,67231,6,0,P|280:354|241:338,1,85,4|0,1:2|0:0,0:0:0:0:
160,85,67560,1,2,0:0:0:0:
160,85,67725,1,2,0:0:0:0:
118,190,67890,1,0,1:0:0:0:
118,190,67972,1,0,1:0:0:0:
118,190,68055,2,0,L|24:179,1,85,2|0,0:0|0:0,0:0:0:0:
277,68,68384,6,0,L|456:49,1,170,4|0,1:2|0:0,0:0:0:0:
404,278,68879,1,2,0:0:0:0:
341,157,69044,5,0,0:0:0:0:
341,157,69373,1,0,0:0:0:0:
482,267,69538,1,0,0:0:0:0:
479,288,69620,1,0,0:0:0:0:
477,309,69702,1,2,0:0:0:0:
474,330,69785,1,2,0:0:0:0:
472,351,69868,6,0,P|441:371|387:376,1,85,4|0,1:2|0:0,0:0:0:0:
272,210,70198,1,8,0:0:0:0:
46,306,70362,2,0,B|106:311|106:311|153:300|153:300|213:305,1,170,0|0,0:0|1:0,0:0:0:0:
214,305,70775,1,2,0:0:0:0:
214,305,70857,1,8,0:0:0:0:
146,108,71022,1,0,0:0:0:0:
105,218,71186,5,2,1:2:0:0:
261,87,71351,1,0,0:0:0:0:
70,16,71516,1,8,0:0:0:0:
272,210,71681,1,0,0:0:0:0:
282,221,71764,2,0,P|349:227|414:198,1,127.5,0|2,1:0|1:2,0:0:0:0:
463,69,72176,1,8,0:0:0:0:
463,69,72340,1,0,0:0:0:0:
490,269,72505,6,0,L|485:356,1,85,0|0,1:0|0:0,0:0:0:0:
485,353,72753,1,0,1:0:0:0:
485,353,72835,1,8,0:0:0:0:
486,162,73000,1,0,0:0:0:0:
339,262,73165,1,2,0:0:0:0:
499,153,73329,1,0,1:0:0:0:
268,24,73494,2,0,L|275:121,1,85,8|2,0:0|0:0,0:0:0:0:
262,214,73824,5,0,1:0:0:0:
376,105,73989,1,2,0:0:0:0:
118,155,74154,1,8,0:0:0:0:
269,225,74318,1,2,1:2:0:0:
144,27,74483,1,0,1:0:0:0:
144,27,74566,1,0,1:0:0:0:
144,27,74648,1,2,0:0:0:0:
105,250,74813,1,10,0:0:0:0:
106,271,74895,1,0,0:0:0:0:
108,292,74977,1,0,0:0:0:0:
110,313,75060,1,0,0:0:0:0:
112,334,75143,6,0,L|214:341,1,85,4|0,1:2|0:0,0:0:0:0:
22,256,75472,1,2,0:0:0:0:
202,160,75637,6,0,L|100:153,1,85
292,238,75966,1,2,0:0:0:0:
223,34,76132,5,4,1:2:0:0:
223,34,76297,2,0,P|291:46|377:0,1,170,4|0,1:2|1:0,0:0:0:0:
461,193,76791,1,0,0:0:0:0:
452,99,76956,6,0,L|449:184,1,85,2|0,0:0|0:0,0:0:0:0:
443,324,77450,1,0,1:0:0:0:
256,192,77780,5,2,0:0:0:0:
256,192,78110,6,0,P|184:148|101:157,1,170,6|0,1:2|0:0,0:0:0:0:
157,274,78604,1,0,1:0:0:0:
223,34,78769,1,8,0:0:0:0:
308,123,78934,5,2,1:2:0:0:
112,61,79099,1,2,0:0:0:0:
370,24,79264,1,0,1:0:0:0:
370,24,79346,1,0,1:0:0:0:
370,24,79428,2,0,P|385:55|394:107,1,85,8|0,0:0|0:0,0:0:0:0:
348,302,79758,1,0,0:0:0:0:
348,302,79840,1,0,1:0:0:0:
348,302,79923,1,0,0:0:0:0:
302,112,80088,1,8,0:0:0:0:
486,178,80253,5,2,0:0:0:0:
479,198,80335,1,2,0:0:0:0:
473,218,80417,2,0,B|428:209|390:230|390:230|362:198|319:188,1,170,4|8,1:2|0:0,0:0:0:0:
250,47,80912,2,0,B|264:89|302:111|302:111|288:152|301:194,1,170,0|8,1:0|0:0,0:0:0:0:
214,326,81406,6,0,B|243:292|244:248|244:248|285:240|316:207,1,168.299999486389,0|0,1:0|0:0,0:0:0:0:
315,207,82231,5,0,1:0:0:0:
133,93,82395,2,0,L|128:21,1,56.0999998287964,10|0,0:0|0:0,0:0:0:0:
83,291,82725,2,0,L|86:346,1,56.0999998287964,2|0,0:0|0:0,0:0:0:0:
108,192,83055,5,2,1:2:0:0:
256,192,83137,12,0,85362,0:0:0:0:
332,109,85692,6,0,P|377:130|428:129,2,101.999996887207,4|0|0,0:0|0:0|0:0,0:0:0:0:
332,109,86516,1,0,0:0:0:0:
143,35,86846,1,2,0:0:0:0:
91,124,87176,1,2,0:0:0:0:
181,176,87505,1,2,0:0:0:0:
231,86,87835,1,2,0:0:0:0:
91,124,88165,5,0,0:0:0:0:
91,124,88329,2,0,L|72:16,2,101.999996887207
61,195,89154,2,0,L|45:284,1,50.9999984436036
116,354,89483,1,2,0:0:0:0:
190,285,89812,1,2,0:0:0:0:
286,253,90142,1,2,0:0:0:0:
387,264,90472,1,2,0:0:0:0:
468,326,90802,5,0,0:0:0:0:
468,326,90967,1,0,0:0:0:0:
387,264,91132,2,0,P|368:308|372:361,2,101.999996887207,2|2|2,0:0|0:0|0:0,0:0:0:0:
457,200,91956,2,0,L|451:132,1,50.9999984436036
352,32,92286,5,0,0:0:0:0:
352,32,92450,2,0,L|341:153,2,101.999996887207,2|2|2,0:0|0:0|0:0,0:0:0:0:
209,98,93275,2,0,P|233:102|259:101,1,50.9999984436036
122,97,93604,6,0,P|105:48|77:6,1,101.999996887207,2|2,0:0|0:0,0:0:0:0:
164,172,94099,2,0,P|130:210|108:256,1,101.999996887207,2|2,0:0|0:0,0:0:0:0:
84,346,94593,2,0,L|12:342,1,50.9999984436036,2|0,0:0|0:0,0:0:0:0:
200,274,94923,2,0,L|272:270,1,50.9999984436036
375,359,95253,2,0,L|368:399,3,25.4999992218018,2|0|0|0,0:0|0:0|0:0|0:0,0:0:0:0:
362,310,95582,5,0,0:0:0:0:
401,281,95665,1,0,0:0:0:0:
400,232,95747,1,0,0:0:0:0:
358,207,95830,1,0,0:0:0:0:
314,227,95912,5,0,0:0:0:0:
320,238,95994,1,0,0:0:0:0:
329,247,96076,1,0,0:0:0:0:
470,198,96242,6,0,P|482:126|423:84,1,152.999995330811,4|2,0:0|0:0,0:0:0:0:
250,183,96736,2,0,L|263:30,1,152.999995330811
337,91,97231,1,2,0:0:0:0:
122,146,97395,1,0,0:0:0:0:
122,146,97560,6,0,P|109:74|168:32,1,152.999995330811,0|2,0:0|0:0,0:0:0:0:
261,179,98055,2,0,L|274:332,1,152.999995330811
361,365,98549,2,0,L|437:358,1,76.4999976654053,2|0,0:0|0:0,0:0:0:0:
179,309,98879,6,0,P|106:302|50:352,1,152.999995330811,0|2,0:0|0:0,0:0:0:0:
258,196,99373,2,0,P|331:188|387:238,1,152.999995330811
303,280,99868,1,2,0:0:0:0:
150,199,100033,1,0,0:0:0:0:
150,199,100198,6,0,B|106:135|106:135|132:63,1,152.999995330811,0|2,0:0|0:0,0:0:0:0:
212,122,100692,1,0,0:0:0:0:
333,26,100857,1,0,0:0:0:0:
333,26,100939,1,0,0:0:0:0:
333,26,101022,1,0,0:0:0:0:
237,31,101187,2,0,L|325:24,1,76.4999976654053,2|0,0:0|0:0,0:0:0:0:
411,111,101516,6,0,P|421:68|413:30,1,76.4999976654053,0|0,1:0|0:0,0:0:0:0:
300,118,101846,2,0,L|316:195,1,76.4999976654053,0|0,1:0|0:0,0:0:0:0:
463,266,102176,2,0,L|478:191,1,76.4999976654053,0|0,1:0|0:0,0:0:0:0:
358,280,102506,2,0,P|352:317|362:354,1,76.4999976654053,0|0,1:0|0:0,0:0:0:0:
149,354,102835,6,0,P|159:317|154:280,1,76.4999976654053,0|0,1:0|0:0,0:0:0:0:
33,191,103165,2,0,L|49:266,1,76.4999976654053,0|0,1:0|0:0,0:0:0:0:
196,192,103495,2,0,L|212:118,1,76.4999976654053,0|0,1:0|0:0,0:0:0:0:
96,36,103825,2,0,P|91:74|101:111,1,76.4999976654053,0|0,1:0|0:0,0:0:0:0:
199,208,104154,5,2,1:2:0:0:
82,325,104318,1,0,1:2:0:0:
330,306,104483,5,2,1:2:0:0:
101,225,104648,1,0,1:2:0:0:
410,225,104813,5,2,1:2:0:0:
181,306,104977,1,0,1:2:0:0:
429,325,105142,5,2,1:2:0:0:
312,208,105307,1,0,1:2:0:0:
256,366,105472,5,0,1:2:0:0:
256,346,105554,1,0,1:2:0:0:
256,327,105636,1,0,1:2:0:0:
256,308,105719,1,0,1:2:0:0:
256,289,105801,1,0,1:2:0:0:
256,270,105884,1,0,1:2:0:0:
256,251,105967,6,0,L|256:155,1,85,2|0,0:0|0:0,0:0:0:0:
323,96,106626,6,0,B|361:90|391:105|391:105|409:99|433:76|433:76|461:96|513:86,1,203.999993774414,4|0,1:2|0:0,0:0:0:0:
369,8,107121,1,8,0:0:0:0:
488,198,107286,2,0,L|430:207,1,42.5,2|0,0:0|0:0,0:0:0:0:
385,358,107450,2,0,L|443:367,1,42.5
278,265,107615,5,0,1:0:0:0:
278,265,107698,1,0,0:0:0:0:
278,265,107780,2,0,P|247:259|217:258,1,42.5,8|0,0:0|0:0,0:0:0:0:
158,365,107945,2,0,P|127:371|97:372,1,42.5,2|0,0:0|0:0,0:0:0:0:
0,156,108110,5,0,1:0:0:0:
31,157,108192,1,0,0:0:0:0:
63,159,108274,1,2,0:0:0:0:
95,161,108357,1,0,0:0:0:0:
127,163,108439,2,0,L|141:109,1,42.5,8|0,0:0|0:0,0:0:0:0:
278,265,108604,5,0,1:0:0:0:
283,315,108686,1,0,1:0:0:0:
289,366,108768,1,0,0:0:0:0:
357,136,108934,1,0,1:0:0:0:
466,278,109099,2,0,L|476:185,1,85,8|0,0:0|0:0,0:0:0:0:
259,39,109428,5,2,1:2:0:0:
360,122,109593,1,0,1:0:0:0:
487,99,109758,1,8,0:0:0:0:
388,16,109923,2,0,P|346:104|351:202,1,170,2|2,0:0|1:2,0:0:0:0:
372,283,110417,1,8,0:0:0:0:
242,147,110582,1,2,0:0:0:0:
83,190,110747,6,0,L|184:194,1,85,0|2,1:0|0:0,0:0:0:0:
14,127,111077,1,8,0:0:0:0:
88,277,111242,2,0,P|98:318|97:360,1,85,2|0,1:2|0:0,0:0:0:0:
163,91,111571,1,2,1:2:0:0:
163,91,111654,1,0,0:0:0:0:
163,91,111736,1,8,0:0:0:0:
250,155,111901,1,2,0:0:0:0:
451,39,112066,6,0,P|430:43|410:51,1,42.5,0|0,1:0|0:0,0:0:0:0:
353,141,112231,1,0,0:0:0:0:
355,176,112313,1,0,0:0:0:0:
372,206,112395,1,8,0:0:0:0:
402,226,112478,1,0,0:0:0:0:
431,245,112560,1,0,0:0:0:0:
449,275,112643,1,0,0:0:0:0:
452,310,112725,5,0,0:0:0:0:
410,306,112807,1,0,0:0:0:0:
369,316,112890,1,2,1:2:0:0:
333,338,112972,1,0,0:0:0:0:
306,370,113055,1,8,0:0:0:0:
269,348,113137,1,0,0:0:0:0:
228,339,113219,1,0,0:0:0:0:
186,344,113302,1,0,0:0:0:0:
147,362,113384,5,2,1:2:0:0:
140,319,113467,1,0,0:0:0:0:
134,277,113549,1,0,0:0:0:0:
127,235,113632,1,0,0:0:0:0:
87,220,113714,5,8,0:0:0:0:
95,168,113797,1,0,0:0:0:0:
102,118,113879,1,0,0:0:0:0:
111,67,113962,1,0,1:0:0:0:
120,16,114044,6,0,L|66:11,1,42.5
334,113,114209,2,0,P|321:96|305:84,1,42.5,2|0,1:2|0:0,0:0:0:0:
177,114,114373,6,0,P|189:97|206:84,1,42.5,8|0,0:0|0:0,0:0:0:0:
392,16,114538,2,0,L|434:12,1,42.5,2|0,1:2|0:0,0:0:0:0:
256,169,114703,5,0,1:2:0:0:
339,288,114868,1,0,0:0:0:0:
339,288,114950,1,0,1:0:0:0:
339,287,115033,2,0,P|379:274|421:272,1,85,8|2,0:0|0:0,0:0:0:0:
501,282,115280,1,2,0:0:0:0:
503,302,115362,6,0,L|498:344,1,42.5,2|0,0:0|0:0,0:0:0:0:
418,148,115527,2,0,L|413:190,1,42.5,0|0,1:0|0:0,0:0:0:0:
512,28,115692,2,0,L|507:70,1,42.5,8|0,0:0|0:0,0:0:0:0:
335,113,115857,1,2,0:0:0:0:
94,33,116022,6,0,L|186:27,1,85,0|2,1:0|1:2,0:0:0:0:
346,15,116351,1,8,0:0:0:0:
223,209,116516,5,4,1:2:0:0:
82,184,116681,1,0,0:0:0:0:
208,194,116846,5,4,1:2:0:0:
99,198,117011,1,8,0:0:0:0:
346,124,117176,6,0,B|338:204|338:204|355:246|355:246|348:326,1,203.999993774414,4|0,1:2|0:0,0:0:0:0:
426,183,117670,1,8,0:0:0:0:
268,40,117835,1,2,0:0:0:0:
268,40,117917,1,0,0:0:0:0:
268,40,118000,1,0,0:0:0:0:
397,11,118165,1,0,1:0:0:0:
130,120,118329,1,8,0:0:0:0:
259,149,118494,1,2,0:0:0:0:
34,41,118659,6,0,P|76:31|118:28,1,85,0|0,1:0|0:0,0:0:0:0:
1,138,118989,1,8,0:0:0:0:
255,131,119154,1,2,0:0:0:0:
259,149,119236,1,0,1:0:0:0:
264,167,119318,2,0,L|249:276,1,85,0|2,0:0|1:2,0:0:0:0:
8,331,119648,5,8,0:0:0:0:
144,278,119813,1,2,0:0:0:0:
212,350,119978,1,0,1:0:0:0:
58,252,120143,1,2,1:2:0:0:
338,224,120307,2,0,P|381:235|427:263,1,85,8|0,0:0|0:0,0:0:0:0:
416,254,120555,1,0,0:0:0:0:
416,254,120637,1,0,0:0:0:0:
385,30,120802,5,2,1:2:0:0:
273,115,120967,1,8,0:0:0:0:
494,75,121132,1,2,0:0:0:0:
164,70,121297,6,0,P|120:59|20:124,1,152.999995330811,4|0,1:2|0:0,0:0:0:0:
35,126,121626,1,8,0:0:0:0:
86,15,121791,1,0,1:2:0:0:
148,251,121956,5,0,1:0:0:0:
144,276,122038,1,0,1:0:0:0:
141,301,122120,1,2,0:0:0:0:
138,326,122203,1,0,0:0:0:0:
135,352,122286,2,0,L|27:338,1,101.999996887207,8|0,0:0|0:0,0:0:0:0:
305,331,122615,6,0,P|341:336|384:365,1,85,4|0,1:2|0:0,0:0:0:0:
499,259,122945,2,0,L|404:266,1,85,0|0,1:2|0:0,0:0:0:0:
130,361,123275,6,0,P|165:338|207:331,1,85,2|0,1:2|0:0,0:0:0:0:
97,265,123604,2,0,L|13:259,1,85,0|0,1:0|0:0,0:0:0:0:
305,104,123934,6,0,P|328:138|334:180,1,85,2|0,1:2|0:0,0:0:0:0:
141,43,124264,2,0,P|98:40|59:55,1,85,0|0,1:0|0:0,0:0:0:0:
370,43,124593,6,0,P|412:40|451:55,1,85,2|0,1:2|0:0,0:0:0:0:
206,104,124923,2,0,P|182:138|176:180,1,85,0|0,1:0|0:0,0:0:0:0:
442,374,125253,5,6,1:2:0:0:
431,223,125417,1,0,1:2:0:0:
334,334,125582,5,2,1:2:0:0:
187,185,125747,1,0,1:2:0:0:
324,185,125912,5,2,1:2:0:0:
177,334,126076,1,0,1:2:0:0:
80,223,126241,5,2,1:2:0:0:
69,374,126406,1,0,1:2:0:0:
332,185,126571,5,2,1:2:0:0:
350,136,126653,1,0,1:2:0:0:
341,84,126735,1,2,1:2:0:0:
305,45,126818,1,2,1:2:0:0:
255,31,126900,1,0,1:2:0:0:
205,45,126983,1,2,1:2:0:0:
169,84,127065,1,2,1:2:0:0:
159,135,127147,1,0,1:2:0:0:
178,184,127230,1,0,1:2:0:0:
256,329,127395,6,0,B|258:309|251:290|251:290|258:265|258:265|251:249|255:229,1,101.999996887207
256,128,127890,5,4,0:0:0:0:
