osu file format v14

[General]
AudioFilename: sixtythree I remember.mp3
AudioLeadIn: 0
PreviewTime: 22691
Countdown: 0
SampleSet: Soft
StackLeniency: 0.7
Mode: 0
LetterboxInBreaks: 0
WidescreenStoryboard: 0

[Editor]
DistanceSpacing: 1.3
BeatDivisor: 6
GridSize: 32
TimelineZoom: 1

[Metadata]
Title:I remember
TitleUnicode:I remember
Artist:sixtythree
ArtistUnicode:sixtythree
Creator:ByBy13
Version:normal.
Source:
Tags:chillout guitar blues beats instrumental 63 keren ann by the cathedral ByBy_ChAn
BeatmapID:790273
BeatmapSetID:359432

[Difficulty]
HPDrainRate:4
CircleSize:3.5
OverallDifficulty:4
ApproachRate:4.5
SliderMultiplier:1.2
SliderTickRate:1

[Events]
//Background and Video events
0,0,"a.jpg",0,0
//Break Periods
2,34691,42776
//Storyboard Layer 0 (Background)
//Storyboard Layer 1 (Fail)
//Storyboard Layer 2 (Pass)
//Storyboard Layer 3 (Foreground)
//Storyboard Sound Samples

[TimingPoints]
8036,666.666666666667,4,2,1,25,1,0
13369,-100,4,2,1,35,0,0
44036,-100,4,2,1,25,0,0
45369,-100,4,2,1,35,0,0
88036,-100,4,2,1,25,0,0
96036,-100,4,2,1,20,0,0
96702,-100,4,2,1,15,0,0
97369,-100,4,2,1,10,0,0
98036,-100,4,2,1,5,0,0

[Colours]
Combo1 : 42,42,42
Combo2 : 87,87,87
Combo3 : 62,62,123

[HitObjects]
115,137,8036,6,0,P|97:114|87:84,2,60
271,137,9369,2,0,P|291:116|305:86,2,60
219,196,10369,1,0,0:0:0:0:
239,271,10702,2,0,P|289:297|351:285,1,120
482,204,12036,2,0,B|439:158|505:132|467:91,1,120,2|2,0:0|0:0,0:0:0:0:
312,99,13369,6,0,B|244:109|244:109|192:106,1,120,2|8,0:0|0:0,0:0:0:0:
114,99,14369,1,2,0:0:0:0:
71,164,14702,2,0,P|69:194|74:227,2,60,2|2|8,0:0|0:0|0:0,0:0:0:0:
114,99,15702,1,2,0:0:0:0:
184,132,16036,2,0,B|238:123|238:123|304:128,1,120,2|8,0:0|0:0,0:0:0:0:
275,281,17369,2,0,P|243:289|214:291,1,60,2|2,0:0|0:0,0:0:0:0:
142,264,18036,2,0,P|109:249|82:245,1,60,8|0,0:0|0:0,0:0:0:0:
8,233,18702,6,0,P|35:185|96:169,1,120,2|8,0:0|0:0,0:0:0:0:
172,169,19702,1,2,0:0:0:0:
232,120,20036,2,0,P|246:150|248:182,2,60,2|2|8,0:0|0:0|0:0,0:0:0:0:
198,49,21036,1,2,0:0:0:0:
120,41,21369,2,0,B|58:42|58:42|-4:54,2,120,2|8|2,0:0|0:0|0:0,0:0:0:0:
198,49,23036,1,2,0:0:0:0:
267,84,23369,2,0,P|292:121|296:141,1,60,8|0,0:0|0:0,0:0:0:0:
272,210,24036,6,0,P|209:195|181:151,1,120,2|8,0:0|0:0,0:0:0:0:
154,77,25036,1,2,0:0:0:0:
78,59,25369,2,0,P|29:80|21:87,2,60,2|2|8,0:0|0:0|0:0,0:0:0:0:
154,77,26369,1,2,0:0:0:0:
226,49,26702,2,0,P|283:36|343:54,1,120,2|8,0:0|0:0,0:0:0:0:
349,208,28036,2,0,B|313:220|270:184|231:206,1,120,2|8,0:0|0:0,0:0:0:0:
162,241,29036,1,2,0:0:0:0:
115,303,29369,6,0,B|153:338|153:338|187:325|220:332,1,120,2|8,0:0|0:0,0:0:0:0:
296,348,30369,1,2,0:0:0:0:
373,350,30702,2,0,P|409:346|433:335,2,60,2|2|8,0:0|0:0|0:0,0:0:0:0:
296,348,31702,1,2,0:0:0:0:
240,292,32036,2,0,P|248:251|317:213,1,120,2|8,0:0|0:0,0:0:0:0:
467,203,33369,2,0,P|460:169|462:140,1,60,2|2,0:0|0:0,0:0:0:0:
455,65,34036,2,0,P|416:41|401:39,1,60,2|0,0:0|0:0,0:0:0:0:
240,286,44036,6,0,P|265:241|234:179,1,120,2|2,0:0|0:0,0:0:0:0:
104,103,45369,5,2,0:0:0:0:
252,54,46036,1,8,0:0:0:0:
328,70,46369,1,2,0:0:0:0:
399,101,46702,2,0,P|424:119|438:148,2,60,2|2|8,0:0|0:0|0:0,0:0:0:0:
328,70,47702,1,2,0:0:0:0:
253,93,48036,2,0,B|208:112|208:112|153:158,1,120,2|8,0:0|0:0,0:0:0:0:
150,313,49369,2,0,P|185:290|196:275,1,60
237,214,50036,2,0,P|253:199|291:186,1,60
291,91,50702,6,0,B|241:96|204:84|204:84|167:85,2,120,2|8|2,0:0|0:0|0:0,0:0:0:0:
368,97,52369,1,2,0:0:0:0:
431,142,52702,2,0,P|438:182|435:203,1,60,8|2,0:0|0:0,0:0:0:0:
424,278,53369,2,0,B|402:299|367:295|367:295|339:301|305:283,1,120,2|8,0:0|0:0,0:0:0:0:
211,165,54702,2,0,P|197:129|182:108,1,60,2|2,0:0|0:0,0:0:0:0:
113,79,55369,2,0,P|81:89|56:101,1,60,8|0,0:0|0:0,0:0:0:0:
6,160,56036,6,0,B|21:214|21:214|65:236|77:251,1,120,2|8,0:0|0:0,0:0:0:0:
142,287,57036,1,2,0:0:0:0:
219,277,57369,2,0,P|262:283|278:290,2,60,2|2|8,0:0|0:0|0:0,0:0:0:0:
142,287,58369,1,2,0:0:0:0:
107,217,58702,2,0,P|106:171|151:110,1,120,2|8,0:0|0:0,0:0:0:0:
303,109,60036,2,0,P|344:127|358:141,1,60,2|2,0:0|0:0,0:0:0:0:
367,214,60702,2,0,P|352:239|327:257,1,60,8|0,0:0|0:0,0:0:0:0:
260,297,61369,5,2,0:0:0:0:
112,348,62036,1,8,0:0:0:0:
82,273,62369,1,2,0:0:0:0:
34,211,62702,2,0,P|14:185|8:155,2,60,2|2|8,0:0|0:0|0:0,0:0:0:0:
82,273,63702,1,2,0:0:0:0:
152,306,64036,2,0,P|212:316|267:289,1,120,2|8,0:0|0:0,0:0:0:0:
381,188,65369,2,0,P|391:145|386:128,1,60,2|2,0:0|0:0,0:0:0:0:
354,59,66036,2,0,P|320:44|295:45,1,60,2|0,0:0|0:0,0:0:0:0:
220,53,66702,6,0,P|171:61|102:50,1,120,2|8,0:0|0:0,0:0:0:0:
27,25,67702,1,2,0:0:0:0:
34,102,68036,1,2,0:0:0:0:
159,194,68702,2,0,P|159:244|156:254,1,60,8|2,0:0|0:0,0:0:0:0:
103,310,69369,2,0,B|76:289|51:285|51:285|47:258|29:228,1,120,2|8,0:0|0:0,0:0:0:0:
1,74,70702,2,0,P|22:59|57:47,1,60,2|2,0:0|0:0,0:0:0:0:
131,36,71369,2,0,P|172:41|190:47,1,60,8|0,0:0|0:0,0:0:0:0:
258,83,72036,6,0,P|273:131|272:203,2,120,2|8|2,0:0|0:0|0:0,0:0:0:0:
197,33,73702,1,2,0:0:0:0:
137,83,74036,2,0,P|135:128|140:148,1,60,8|2,0:0|0:0,0:0:0:0:
185,204,74702,2,0,P|211:221|239:301,1,120,2|8,0:0|0:0,0:0:0:0:
85,333,76036,2,0,P|73:307|69:271,1,60,2|2,0:0|0:0,0:0:0:0:
87,200,76702,2,0,P|100:166|102:139,1,60,8|0,0:0|0:0,0:0:0:0:
98,64,77369,5,2,0:0:0:0:
242,123,78036,1,8,0:0:0:0:
310,85,78369,1,2,0:0:0:0:
381,53,78702,2,0,P|399:69|416:105,2,60,2|2|8,0:0|0:0|0:0,0:0:0:0:
310,85,79702,1,2,0:0:0:0:
283,158,80036,2,0,B|274:201|274:201|238:228|238:228|226:259,1,120,2|8,0:0|0:0,0:0:0:0:
352,349,81369,2,0,P|396:352|416:348,1,60,2|2,0:0|0:0,0:0:0:0:
477,307,82036,2,0,P|485:271|482:246,1,60,8|0,0:0|0:0,0:0:0:0:
454,176,82702,6,0,P|419:138|350:135,2,120,2|8|2,0:0|0:0|0:0,0:0:0:0:
475,251,84369,1,2,0:0:0:0:
402,280,84702,2,0,P|370:278|340:281,1,60,8|2,0:0|0:0,0:0:0:0:
266,301,85369,2,0,P|200:288|165:250,1,120,2|8,0:0|0:0,0:0:0:0:
109,105,86702,2,0,P|127:93|165:78,1,60,2|2,0:0|0:0,0:0:0:0:
238,60,87369,1,0,0:0:0:0:
342,177,88036,6,0,P|370:198|386:223,2,60
264,41,89369,2,0,P|291:21|315:13,2,60
216,103,90369,1,0,0:0:0:0:
176,169,90702,2,0,P|134:198|66:189,1,120
136,49,92036,2,0,B|183:49|183:49|217:65|217:65|252:65,1,120
330,56,93036,1,0,0:0:0:0:
348,131,93369,6,0,P|348:155|341:193,2,60
504,126,94702,2,0,P|511:173|510:187,2,60
256,192,96036,12,0,98036,0:0:0:0:
