osu file format v14

[General]
AudioFilename: audio.mp3
AudioLeadIn: 0
PreviewTime: 82288
Countdown: 0
SampleSet: Normal
StackLeniency: 0.7
Mode: 0
LetterboxInBreaks: 0
WidescreenStoryboard: 1

[Editor]
Bookmarks: 12505,24505,36505,48505,72505,84505,99505,102505,108505,114505
DistanceSpacing: 1.6
BeatDivisor: 4
GridSize: 8
TimelineZoom: 1.7

[Metadata]
Title:Absurd Gaff (Xtended)
TitleUnicode:Absurd Gaff (Xtended)
Artist:siromaru
ArtistUnicode:siromaru
Creator:Avery
Version:Xtreme
Source:
Tags:
BeatmapID:4237476
BeatmapSetID:2032815

[Difficulty]
HPDrainRate:7
CircleSize:5
OverallDifficulty:9
ApproachRate:9
SliderMultiplier:1.4
SliderTickRate:1

[Events]
//Background and Video events
0,0,"bg.jpg",0,0
//Break Periods
//Storyboard Layer 0 (Background)
//Storyboard Layer 1 (Fail)
//Storyboard Layer 2 (Pass)
//Storyboard Layer 3 (Foreground)
//Storyboard Layer 4 (Overlay)
//Storyboard Sound Samples

[TimingPoints]
632,375,4,1,0,80,1,0
23132,-100,4,1,0,90,0,0
24632,-66.6666666666667,4,1,0,80,0,0
29132,-100,4,1,0,80,0,0
35882,-100,4,1,0,100,0,0
36632,-100,4,1,0,80,0,0
44132,-100,4,1,0,60,0,0
45632,-100,4,1,0,80,0,0
65694,-66.6666666666667,4,1,0,80,0,0
69632,-100,4,1,0,80,0,0
83132,-100,4,1,0,100,0,0
84257,-100,4,1,0,80,0,0

[Colours]
Combo1 : 190,190,190
Combo2 : 65,126,219

[HitObjects]
256,192,632,5,0,3:0:0:0:
192,192,819,1,0,3:0:0:0:
128,192,1007,1,4,3:0:0:0:
416,56,1194,5,0,3:0:0:0:
392,80,1288,1,0,3:0:0:0:
368,104,1382,1,0,3:0:0:0:
336,128,1476,1,0,3:0:0:0:
312,152,1569,1,0,3:0:0:0:
288,264,1757,6,4,L|240:264,1,35,4|4,3:0|3:0,3:0:0:0:
192,264,1944,2,0,L|152:264,1,35,0|0,3:0|3:0,3:0:0:0:
144,112,2132,5,0,3:0:0:0:
216,112,2319,1,0,3:0:0:0:
288,112,2507,1,4,3:0:0:0:
96,56,2694,5,0,3:0:0:0:
120,80,2788,1,0,3:0:0:0:
144,104,2882,1,0,3:0:0:0:
176,128,2976,1,0,3:0:0:0:
200,152,3069,1,0,3:0:0:0:
256,192,3257,5,4,3:0:0:0:
224,192,3351,1,4,3:0:0:0:
224,264,3538,1,0,3:0:0:0:
256,264,3632,1,0,3:0:0:0:
256,104,3819,5,0,3:0:0:0:
184,104,4007,1,4,3:0:0:0:
320,272,4194,5,0,3:0:0:0:
296,248,4288,1,0,3:0:0:0:
272,224,4382,1,0,3:0:0:0:
248,200,4476,1,0,3:0:0:0:
224,176,4569,1,0,3:0:0:0:
288,152,4757,2,0,L|328:152,1,35,0|0,3:0|3:0,3:0:0:0:
360,152,4944,2,0,L|400:152,1,35,0|0,3:0|3:0,3:0:0:0:
392,224,5132,5,8,1:0:0:0:
312,64,5272,1,8,1:0:0:0:
280,312,5390,1,8,1:0:0:0:
96,80,5507,1,8,1:0:0:0:
176,240,5647,1,8,1:0:0:0:
208,104,5765,1,8,1:0:0:0:
152,176,5882,5,0,3:0:0:0:
176,152,5976,1,0,3:0:0:0:
208,144,6069,1,0,3:0:0:0:
240,152,6163,1,0,3:0:0:0:
248,184,6257,6,0,L|248:224,1,35,0|0,1:0|1:0,1:0:0:0:
216,224,6444,2,0,L|216:184,1,35,0|0,1:0|1:0,1:0:0:0:
216,120,6632,6,0,L|272:168,2,70,0|0|4,3:0|3:0|3:0,3:0:0:0:
304,288,7194,1,0,3:0:0:0:
288,272,7288,1,0,3:0:0:0:
224,208,7382,1,0,3:0:0:0:
240,224,7476,1,0,3:0:0:0:
176,160,7569,1,0,3:0:0:0:
184,232,7757,6,4,L|184:272,1,35,4|4,3:0|3:0,3:0:0:0:
184,304,7944,2,0,L|152:280,1,35,0|0,3:0|3:0,3:0:0:0:
120,256,8132,6,0,L|184:192,2,70,0|0|4,3:0|3:0|3:0,3:0:0:0:
208,96,8694,5,0,3:0:0:0:
224,112,8788,1,0,3:0:0:0:
288,176,8882,1,0,3:0:0:0:
272,160,8976,1,0,3:0:0:0:
336,224,9069,1,0,3:0:0:0:
264,216,9257,2,4,L|264:304,1,70,4|4,3:0|3:0,3:0:0:0:
208,336,9632,6,0,P|72:112|296:80,1,560,0|0,1:0|1:0,1:0:0:0:
392,296,11882,5,0,3:0:0:0:
368,270,11975,1,0,3:0:0:0:
341,247,12069,1,0,3:0:0:0:
312,228,12163,1,0,3:0:0:0:
281,212,12257,1,0,3:0:0:0:
256,200,12350,1,0,3:0:0:0:
238,196,12444,1,0,3:0:0:0:
221,194,12538,1,0,3:0:0:0:
204,194,12632,1,0,3:0:0:0:
168,256,12819,6,0,L|192:216,1,35,0|0,3:0|3:0,3:0:0:0:
200,200,13007,1,0,3:0:0:0:
264,232,13194,5,0,3:0:0:0:
264,232,13288,1,0,3:0:0:0:
264,232,13382,1,0,3:0:0:0:
272,160,13569,5,0,3:0:0:0:
272,160,13663,1,0,3:0:0:0:
272,160,13757,1,0,3:0:0:0:
200,168,13944,6,0,L|232:200,1,35,0|0,3:0|3:0,3:0:0:0:
240,208,14132,1,0,3:0:0:0:
200,152,14319,5,0,3:0:0:0:
200,152,14413,1,0,3:0:0:0:
200,152,14507,1,0,3:0:0:0:
208,224,14694,5,0,3:0:0:0:
208,224,14788,1,0,3:0:0:0:
208,224,14882,1,0,3:0:0:0:
256,320,15069,5,0,3:0:0:0:
256,320,15163,1,0,3:0:0:0:
256,320,15257,1,0,3:0:0:0:
256,216,15444,5,0,3:0:0:0:
256,216,15538,1,0,3:0:0:0:
256,216,15632,1,0,3:0:0:0:
208,120,15819,5,0,3:0:0:0:
208,120,15913,1,0,3:0:0:0:
208,120,16007,1,0,3:0:0:0:
304,72,16194,5,0,3:0:0:0:
304,72,16288,1,0,3:0:0:0:
304,72,16382,1,0,3:0:0:0:
328,176,16569,5,0,3:0:0:0:
328,176,16663,1,0,3:0:0:0:
328,176,16757,1,0,3:0:0:0:
256,192,16944,5,0,3:0:0:0:
256,192,17038,1,0,3:0:0:0:
256,192,17132,1,0,3:0:0:0:
179,251,17319,5,0,3:0:0:0:
179,251,17413,1,0,3:0:0:0:
179,251,17507,1,0,3:0:0:0:
96,320,17601,5,0,3:0:0:0:
96,285,17694,1,0,3:0:0:0:
96,250,17788,1,0,3:0:0:0:
96,215,17882,1,0,3:0:0:0:
96,180,17976,1,0,3:0:0:0:
96,145,18069,1,0,3:0:0:0:
96,110,18163,1,0,3:0:0:0:
96,75,18257,1,0,3:0:0:0:
96,40,18351,1,0,3:0:0:0:
176,256,18444,6,0,P|296:176|296:168,1,175,0|0,3:0|3:0,3:0:0:0:
336,304,19194,5,0,3:0:0:0:
312,272,19288,1,0,3:0:0:0:
288,240,19382,1,0,3:0:0:0:
152,232,19569,5,0,3:0:0:0:
176,200,19663,1,0,3:0:0:0:
200,168,19757,1,0,3:0:0:0:
224,136,19851,1,0,3:0:0:0:
248,104,19944,1,0,3:0:0:0:
272,72,20038,1,0,3:0:0:0:
336,304,20319,5,0,3:0:0:0:
312,272,20413,1,0,3:0:0:0:
288,240,20507,1,0,3:0:0:0:
168,168,20694,5,0,3:0:0:0:
144,200,20788,1,0,3:0:0:0:
120,232,20882,1,0,3:0:0:0:
360,232,21069,5,0,3:0:0:0:
336,200,21163,1,0,3:0:0:0:
312,168,21257,1,0,3:0:0:0:
288,136,21351,1,0,3:0:0:0:
264,104,21444,1,0,3:0:0:0:
240,72,21538,1,0,3:0:0:0:
336,304,21819,5,0,3:0:0:0:
312,272,21913,1,0,3:0:0:0:
288,240,22007,1,0,3:0:0:0:
344,168,22194,5,0,3:0:0:0:
368,200,22288,1,0,3:0:0:0:
392,232,22382,1,0,3:0:0:0:
168,216,22569,5,0,3:0:0:0:
144,184,22663,1,0,3:0:0:0:
120,152,22757,1,0,3:0:0:0:
256,328,23132,5,8,1:0:0:0:
256,258,23225,1,8,1:0:0:0:
256,188,23319,1,8,1:0:0:0:
256,118,23413,1,8,1:0:0:0:
256,48,23507,1,8,1:0:0:0:
256,56,23882,5,8,1:0:0:0:
256,126,23975,1,8,1:0:0:0:
256,196,24069,1,8,1:0:0:0:
256,266,24163,1,8,1:0:0:0:
256,336,24257,1,8,1:0:0:0:
328,192,24632,6,0,L|184:192,1,140,0|0,1:0|1:0,1:0:0:0:
381,248,25194,5,4,1:0:0:0:
344,233,25288,1,0,1:0:0:0:
307,217,25382,1,0,1:0:0:0:
136,48,25569,5,0,1:0:0:0:
172,63,25663,1,0,1:0:0:0:
209,79,25757,1,0,1:0:0:0:
128,128,25944,5,0,1:0:0:0:
91,112,26038,1,0,1:0:0:0:
54,96,26132,1,0,1:0:0:0:
381,135,26319,5,0,1:0:0:0:
344,150,26413,1,0,1:0:0:0:
307,166,26507,1,4,1:3:0:0:
136,336,26694,5,0,1:0:0:0:
172,321,26788,1,0,1:0:0:0:
209,305,26882,1,0,1:0:0:0:
128,256,27069,5,0,1:0:0:0:
91,272,27163,1,0,1:0:0:0:
54,288,27257,1,0,1:0:0:0:
130,135,27444,5,0,1:0:0:0:
167,150,27538,1,0,1:0:0:0:
204,166,27632,1,0,1:0:0:0:
376,336,27819,5,0,1:0:0:0:
340,321,27913,1,0,1:0:0:0:
303,305,28007,1,4,1:3:0:0:
384,256,28194,5,0,1:0:0:0:
421,272,28288,1,0,1:0:0:0:
458,288,28382,1,0,1:0:0:0:
128,256,28569,5,0,1:0:0:0:
91,272,28663,1,0,1:0:0:0:
54,288,28757,1,0,1:0:0:0:
160,200,28944,5,0,1:0:0:0:
197,216,29038,1,0,1:0:0:0:
232,232,29132,2,2,L|357:296,4,140,2|2|2|2|2,1:0|1:0|1:0|1:0|1:0,1:0:0:0:
248,184,30819,5,0,1:0:0:0:
232,147,30913,1,0,1:0:0:0:
216,109,31007,1,4,1:3:0:0:
336,184,31194,5,0,1:0:0:0:
320,221,31288,1,0,1:0:0:0:
304,258,31382,1,0,1:0:0:0:
176,312,31569,5,0,1:0:0:0:
160,275,31663,1,0,1:0:0:0:
144,238,31757,1,0,1:0:0:0:
248,200,31944,5,0,1:0:0:0:
232,237,32038,1,0,1:0:0:0:
216,274,32132,1,0,1:0:0:0:
336,200,32319,5,0,1:0:0:0:
320,163,32413,1,0,1:0:0:0:
304,126,32507,1,4,1:3:0:0:
176,72,32694,5,0,1:0:0:0:
160,109,32788,1,0,1:0:0:0:
144,146,32882,1,0,1:0:0:0:
264,184,33069,5,0,1:0:0:0:
280,147,33163,1,0,1:0:0:0:
296,109,33257,1,0,1:0:0:0:
176,184,33444,5,0,1:0:0:0:
192,221,33538,1,0,1:0:0:0:
208,258,33632,1,0,1:0:0:0:
336,312,33819,5,0,1:0:0:0:
352,275,33913,1,0,1:0:0:0:
368,238,34007,1,4,1:3:0:0:
264,200,34194,5,0,1:0:0:0:
280,237,34288,1,0,1:0:0:0:
296,274,34382,1,0,1:0:0:0:
176,200,34569,5,0,1:0:0:0:
192,163,34663,1,0,1:0:0:0:
208,126,34757,1,0,1:0:0:0:
336,72,34944,5,0,1:0:0:0:
352,109,35038,1,0,1:0:0:0:
368,146,35132,1,0,1:0:0:0:
176,72,35882,5,8,1:0:0:0:
208,136,35976,1,8,1:0:0:0:
240,200,36069,1,8,1:0:0:0:
296,152,36163,1,8,1:0:0:0:
344,96,36257,1,8,1:0:0:0:
368,160,36351,1,8,1:0:0:0:
392,224,36444,1,8,1:0:0:0:
408,296,36538,1,8,1:0:0:0:
432,360,36632,6,0,L|304:304,1,140,2|0,1:2|1:0,1:0:0:0:
240,280,37194,2,0,L|312:144,1,140,2|0,1:2|1:0,1:0:0:0:
408,64,37944,6,0,L|288:168,1,140,2|0,1:2|1:0,1:0:0:0:
368,176,38507,1,2,1:2:0:0:
344,40,38694,2,0,L|184:192,1,210,2|0,1:2|1:0,1:0:0:0:
80,24,39632,6,0,L|208:80,1,140,2|0,1:2|1:0,1:0:0:0:
272,104,40194,2,0,L|200:240,1,140,2|0,1:2|1:0,1:0:0:0:
104,320,40944,6,0,L|224:216,1,140,2|0,1:2|1:0,1:0:0:0:
144,208,41507,1,2,1:2:0:0:
168,344,41694,5,2,0:2:0:0:
193,319,41787,1,0,0:0:0:0:
218,295,41881,1,0,0:0:0:0:
244,271,41975,1,0,0:0:0:0:
269,247,42069,1,0,0:0:0:0:
294,223,42162,1,0,0:0:0:0:
320,199,42256,1,0,0:0:0:0:
344,176,42351,1,0,0:0:0:0:
368,152,42444,1,0,0:0:0:0:
416,56,43007,5,0,1:0:0:0:
383,67,43100,1,0,1:0:0:0:
350,81,43194,1,0,1:0:0:0:
319,97,43288,1,0,1:0:0:0:
289,114,43382,1,0,1:0:0:0:
259,133,43475,1,0,1:0:0:0:
231,153,43569,1,0,1:0:0:0:
203,175,43663,1,0,1:0:0:0:
177,199,43757,1,0,1:0:0:0:
153,223,43850,1,0,1:0:0:0:
129,249,43944,1,0,1:0:0:0:
108,277,44038,1,0,1:0:0:0:
87,305,44132,5,0,1:0:0:0:
80,336,44226,1,0,1:0:0:0:
113,346,44319,1,0,1:0:0:0:
147,352,44413,1,0,1:0:0:0:
182,355,44507,1,0,1:0:0:0:
217,353,44601,1,0,1:0:0:0:
252,347,44694,1,0,1:0:0:0:
285,338,44788,1,0,1:0:0:0:
318,324,44882,1,0,1:0:0:0:
348,307,44976,1,0,1:0:0:0:
377,287,45069,1,0,1:0:0:0:
402,263,45163,1,0,1:0:0:0:
425,237,45257,1,0,1:0:0:0:
445,208,45351,1,0,1:0:0:0:
462,177,45444,1,0,1:0:0:0:
474,145,45538,1,0,1:0:0:0:
483,111,45632,5,0,1:0:0:0:
472,88,45726,1,0,1:0:0:0:
452,116,45819,1,0,1:0:0:0:
430,144,45913,1,0,1:0:0:0:
406,169,46007,1,0,1:0:0:0:
379,192,46101,1,0,1:0:0:0:
351,212,46194,1,0,1:0:0:0:
321,231,46288,1,0,1:0:0:0:
290,246,46382,1,0,1:0:0:0:
257,259,46476,1,0,1:0:0:0:
223,268,46569,1,0,1:0:0:0:
189,275,46663,1,0,1:0:0:0:
154,279,46757,1,0,1:0:0:0:
119,280,46851,1,0,1:0:0:0:
84,278,46944,1,0,1:0:0:0:
64,264,47038,1,0,1:0:0:0:
96,250,47131,5,0,1:0:0:0:
128,236,47225,1,0,1:0:0:0:
160,221,47319,1,0,1:0:0:0:
191,207,47413,1,0,1:0:0:0:
223,191,47506,1,0,1:0:0:0:
254,175,47600,1,0,1:0:0:0:
284,157,47694,1,0,1:0:0:0:
314,139,47788,1,0,1:0:0:0:
343,120,47881,1,0,1:0:0:0:
372,99,47975,1,0,1:0:0:0:
400,79,48069,1,0,1:0:0:0:
427,57,48163,1,0,1:0:0:0:
455,35,48256,1,0,1:0:0:0:
432,360,48632,6,0,L|392:344,1,35,2|0,1:2|3:0,3:0:0:0:
367,331,48819,1,0,3:0:0:0:
335,317,48913,1,0,3:0:0:0:
303,303,49007,1,0,3:0:0:0:
240,280,49194,5,6,1:2:0:0:
256,249,49287,1,0,3:0:0:0:
272,218,49381,1,0,3:0:0:0:
289,187,49475,1,0,3:0:0:0:
305,156,49569,1,0,3:0:0:0:
360,160,49663,6,0,L|392:144,1,35,0|0,3:0|3:0,3:0:0:0:
424,120,49851,1,4,3:0:0:0:
408,64,49944,5,2,1:2:0:0:
381,86,50037,1,0,3:0:0:0:
355,109,50131,1,0,3:0:0:0:
328,136,50226,2,0,L|296:168,1,35,0|2,3:0|1:2,3:0:0:0:
368,176,50507,5,6,1:2:0:0:
344,40,50694,1,0,3:0:0:0:
318,64,50787,1,0,3:0:0:0:
293,88,50881,1,0,3:0:0:0:
267,112,50975,1,0,3:0:0:0:
242,136,51069,1,0,3:0:0:0:
217,160,51162,1,0,3:0:0:0:
192,184,51257,6,0,L|160:168,1,35,4|0,3:0|3:0,3:0:0:0:
96,152,51444,2,0,L|112:184,1,35,0|0,3:0|3:0,3:0:0:0:
136,256,51632,5,2,1:2:0:0:
240,224,51819,1,0,3:0:0:0:
240,224,51913,1,0,3:0:0:0:
240,224,52007,1,0,3:0:0:0:
160,80,52194,1,2,1:2:0:0:
136,256,52382,5,0,3:0:0:0:
240,224,52569,1,0,3:0:0:0:
240,224,52663,1,0,3:0:0:0:
240,224,52757,1,0,3:0:0:0:
176,136,52944,5,2,1:2:0:0:
176,136,53319,1,2,1:2:0:0:
368,176,53507,1,2,1:2:0:0:
344,40,53694,5,0,3:0:0:0:
318,64,53787,1,0,3:0:0:0:
293,88,53881,1,0,3:0:0:0:
267,112,53975,1,0,3:0:0:0:
242,136,54069,1,0,3:0:0:0:
217,160,54162,1,0,3:0:0:0:
191,184,54256,1,0,3:0:0:0:
296,344,54632,6,0,L|336:328,1,35,2|0,1:2|3:0,3:0:0:0:
360,315,54819,1,0,3:0:0:0:
392,301,54913,1,0,3:0:0:0:
424,287,55007,1,4,3:0:0:0:
272,104,55194,5,2,3:2:0:0:
256,134,55287,1,0,1:0:0:0:
240,165,55381,1,0,3:0:0:0:
223,196,55475,1,0,3:0:0:0:
207,227,55569,1,0,3:0:0:0:
152,240,55663,6,0,L|120:200,1,35,0|0,3:0|3:0,3:0:0:0:
80,152,55851,1,4,3:0:0:0:
104,64,55944,5,2,1:2:0:0:
131,86,56037,1,0,3:0:0:0:
157,109,56131,1,0,3:0:0:0:
184,136,56226,2,0,L|216:168,1,35,0|2,3:0|1:2,3:0:0:0:
264,88,56507,5,6,1:2:0:0:
288,232,56694,1,0,3:0:0:0:
262,207,56787,1,0,3:0:0:0:
237,183,56881,1,0,3:0:0:0:
211,159,56975,1,0,3:0:0:0:
186,135,57069,1,0,3:0:0:0:
161,111,57162,1,0,3:0:0:0:
128,88,57257,6,0,L|112:32,1,35,0|0,3:0|3:0,3:0:0:0:
79,89,57444,2,0,L|96:120,1,35,0|0,3:0|3:0,3:0:0:0:
96,192,57819,6,2,L|136:192,1,35
416,192,58101,2,2,L|376:192,1,35
117,112,58382,6,2,L|152:132,1,35
394,272,58664,2,2,L|359:252,1,35
264,196,58944,5,2,3:2:0:0:
248,187,59037,1,0,3:0:0:0:
233,178,59131,1,0,3:0:0:0:
218,169,59225,1,0,3:0:0:0:
203,160,59319,1,2,3:2:0:0:
186,152,59412,1,0,3:0:0:0:
162,138,59506,1,2,3:2:0:0:
140,125,59600,1,0,3:0:0:0:
117,112,59694,1,0,3:0:0:0:
94,98,59787,1,0,3:0:0:0:
71,86,59881,1,0,3:0:0:0:
48,72,59976,6,0,L|96:288,1,210,0|0,1:0|1:0,1:0:0:0:
136,304,60632,5,0,3:0:0:0:
192,304,60726,1,0,3:0:0:0:
248,304,60819,2,0,L|288:304,1,35,0|0,3:0|3:0,3:0:0:0:
360,240,61007,5,4,3:0:0:0:
304,240,61101,1,0,3:0:0:0:
248,240,61194,2,0,L|208:240,1,35,0|0,3:0|3:0,3:0:0:0:
136,176,61382,5,0,3:0:0:0:
192,176,61476,1,0,3:0:0:0:
248,176,61569,2,0,L|288:176,1,35,0|0,3:0|3:0,3:0:0:0:
256,48,62132,5,0,3:0:0:0:
256,72,62226,1,0,3:0:0:0:
256,88,62319,2,0,L|256:128,1,35,0|0,3:0|3:0,3:0:0:0:
256,147,62507,5,4,3:0:0:0:
256,171,62601,1,0,3:0:0:0:
256,187,62694,2,0,L|256:227,1,35,0|0,3:0|3:0,3:0:0:0:
256,240,62882,5,0,3:0:0:0:
255,264,62976,1,0,3:0:0:0:
256,280,63069,2,0,L|256:320,1,35,0|0,3:0|3:0,3:0:0:0:
320,272,63632,5,2,1:2:0:0:
293,249,63725,1,0,1:0:0:0:
266,226,63819,1,0,1:0:0:0:
240,203,63913,1,0,1:0:0:0:
213,180,64007,1,0,1:0:0:0:
192,272,64194,5,2,1:2:0:0:
218,249,64287,1,0,1:0:0:0:
245,226,64381,1,0,1:0:0:0:
271,203,64475,1,0,1:0:0:0:
298,180,64569,1,0,1:0:0:0:
304,32,64944,5,2,1:2:0:0:
277,54,65037,1,0,1:0:0:0:
251,77,65131,1,0,1:0:0:0:
224,100,65225,1,0,1:0:0:0:
198,123,65319,1,2,1:2:0:0:
368,176,65507,1,2,1:2:0:0:
144,336,65694,6,2,L|344:80,1,315.000012016297,0|2,1:2|1:0,1:0:0:0:
312,280,66538,5,0,3:0:0:0:
312,280,66632,1,2,3:2:0:0:
312,280,66726,1,0,3:0:0:0:
312,280,66819,1,0,3:0:0:0:
232,88,67007,6,0,L|184:88,1,35,4|0,3:0|3:0,3:0:0:0:
168,128,67194,1,2,1:2:0:0:
184,144,67288,1,0,1:0:0:0:
200,160,67382,1,0,1:0:0:0:
216,176,67476,1,0,1:0:0:0:
232,192,67569,1,0,1:0:0:0:
312,280,67757,5,0,3:0:0:0:
312,280,67851,1,0,3:0:0:0:
312,280,67944,1,2,3:2:0:0:
312,280,68038,1,0,3:0:0:0:
328,184,68226,5,0,1:0:0:0:
328,184,68319,1,2,1:2:0:0:
328,184,68413,1,0,1:0:0:0:
328,184,68507,2,0,L|280:152,1,35,4|2,3:0|3:2,3:0:0:0:
392,160,68882,5,8,1:0:0:0:
312,320,69022,1,8,1:0:0:0:
280,72,69140,1,8,1:0:0:0:
96,304,69257,1,8,1:0:0:0:
176,144,69397,1,8,1:0:0:0:
208,280,69515,1,8,1:0:0:0:
336,32,69632,6,0,L|408:152,1,140,2|0,1:2|1:0,1:0:0:0:
176,352,70194,2,0,L|104:232,1,140,2|0,1:2|1:0,1:0:0:0:
104,64,70944,6,2,L|224:168,1,140,0|2,1:2|1:0,1:0:0:0:
336,96,71507,1,0,1:2:0:0:
472,352,71694,2,2,L|312:200,1,210,0|2,1:2|1:0,1:0:0:0:
312,96,72632,6,0,L|264:160,1,70,0|0,3:0|3:0,3:0:0:0:
320,192,73007,2,0,L|288:264,1,70,4|0,3:0|3:0,3:0:0:0:
272,304,73288,5,0,3:0:0:0:
240,296,73382,1,0,3:0:0:0:
208,280,73476,1,0,3:0:0:0:
184,256,73569,1,0,3:0:0:0:
160,192,73757,6,0,L|96:256,1,70,0|0,3:0|3:0,3:0:0:0:
88,264,74038,1,0,3:0:0:0:
72,232,74132,2,0,L|160:224,1,70,0|0,3:0|3:0,3:0:0:0:
192,176,74507,2,0,L|264:136,1,70,4|0,3:0|3:0,3:0:0:0:
344,120,74788,5,0,3:0:0:0:
272,80,74882,1,0,3:0:0:0:
240,88,74976,1,0,3:0:0:0:
208,104,75070,1,0,3:0:0:0:
104,72,75257,1,4,3:0:0:0:
312,96,75632,6,0,L|264:160,1,70,0|0,3:0|3:0,3:0:0:0:
320,192,76007,2,0,L|288:264,1,70,4|0,3:0|3:0,3:0:0:0:
272,304,76288,5,0,3:0:0:0:
271,269,76381,1,0,3:0:0:0:
271,234,76475,1,0,3:0:0:0:
288,112,76569,5,0,3:0:0:0:
283,146,76663,1,0,3:0:0:0:
261,172,76756,1,0,3:0:0:0:
210,130,76850,5,0,3:0:0:0:
175,128,76944,1,0,3:0:0:0:
140,128,77038,1,0,3:0:0:0:
105,128,77131,1,0,3:0:0:0:
160,192,77226,6,0,L|136:224,1,35,0|0,3:0|3:0,3:0:0:0:
88,264,77507,1,4,3:0:0:0:
88,264,77882,5,0,1:0:0:0:
123,264,77975,1,0,1:0:0:0:
158,264,78069,1,0,1:0:0:0:
193,264,78163,1,0,1:0:0:0:
228,264,78257,1,0,1:0:0:0:
263,264,78350,1,0,1:0:0:0:
298,264,78444,1,0,1:0:0:0:
333,264,78538,1,0,1:0:0:0:
368,264,78632,1,0,1:0:0:0:
424,264,78726,5,0,1:0:0:0:
424,256,78819,1,0,1:0:0:0:
424,248,78913,1,0,1:0:0:0:
400,192,79194,5,0,1:0:0:0:
376,168,79288,1,0,1:0:0:0:
352,144,79382,1,0,1:0:0:0:
328,120,79476,1,0,1:0:0:0:
280,168,79663,1,0,1:0:0:0:
256,192,79757,1,0,1:0:0:0:
208,240,79944,5,0,1:0:0:0:
176,208,80038,1,0,1:0:0:0:
152,184,80132,1,0,1:0:0:0:
128,160,80226,1,0,1:0:0:0:
168,104,80413,1,0,1:0:0:0:
192,80,80507,1,0,1:0:0:0:
208,144,80694,5,0,1:0:0:0:
224,176,80788,1,0,1:0:0:0:
240,208,80882,1,0,1:0:0:0:
256,240,80976,1,0,1:0:0:0:
336,176,81257,5,0,1:0:0:0:
176,176,81444,1,0,1:0:0:0:
184,192,81538,1,0,1:0:0:0:
192,208,81632,1,0,1:0:0:0:
200,224,81726,1,0,1:0:0:0:
216,248,81819,1,0,1:0:0:0:
232,264,81912,1,0,1:0:0:0:
256,288,82006,1,0,1:0:0:0:
288,312,82100,1,4,1:0:0:0:
320,288,82194,1,0,1:0:0:0:
342,261,82287,1,0,1:0:0:0:
365,234,82381,5,0,1:0:0:0:
388,207,82475,1,0,1:0:0:0:
410,181,82569,1,0,1:0:0:0:
433,154,82662,1,0,1:0:0:0:
456,127,82756,1,0,1:0:0:0:
424,112,82851,1,0,1:0:0:0:
391,99,82944,1,0,1:0:0:0:
358,86,83038,1,0,1:0:0:0:
328,80,83132,6,2,L|160:328,1,280,2|2,1:0|1:0,1:0:0:0:
168,312,84257,6,2,L|216:232,2,70,2|2|2,1:0|1:0|1:2,1:0:0:0:
264,200,84819,5,0,3:0:0:0:
280,237,84913,1,0,3:0:0:0:
296,272,85007,2,0,L|320:320,1,35,4|0,3:0|3:0,3:0:0:0:
112,136,85194,5,2,3:2:0:0:
112,136,85288,1,0,3:0:0:0:
112,136,85382,1,0,3:0:0:0:
160,40,85476,2,0,L|136:88,1,35,4|0,3:0|3:0,3:0:0:0:
320,104,85663,5,0,3:0:0:0:
312,88,85757,1,0,3:0:0:0:
304,72,85851,1,4,3:0:0:0:
352,160,85945,2,0,L|376:208,1,35,2|0,3:2|3:0,3:0:0:0:
248,184,86132,5,0,3:0:0:0:
232,147,86226,1,0,3:0:0:0:
216,112,86320,2,0,L|192:64,1,35,6|0,3:2|3:0,3:0:0:0:
400,256,86507,5,2,3:2:0:0:
408,240,86601,1,4,3:0:0:0:
416,224,86695,1,0,3:0:0:0:
360,336,86788,2,0,L|384:288,1,35,0|0,3:0|3:0,3:0:0:0:
216,336,86976,5,0,3:0:0:0:
192,296,87070,1,0,3:0:0:0:
176,259,87164,1,0,3:0:0:0:
160,224,87258,2,0,L|136:176,1,35,4|0,3:0|3:0,3:0:0:0:
304,224,87444,5,0,3:0:0:0:
348,229,87538,1,0,3:0:0:0:
389,236,87632,1,2,3:2:0:0:
427,244,87726,2,0,L|479:252,1,35,0|0,3:0|3:0,3:0:0:0:
208,320,87913,5,0,3:0:0:0:
164,315,88007,1,0,3:0:0:0:
123,308,88101,1,0,3:0:0:0:
85,300,88195,2,0,L|32:291,1,35,6|0,3:2|3:0,3:0:0:0:
184,184,88382,5,0,3:0:0:0:
156,149,88476,1,0,3:0:0:0:
132,115,88570,1,0,3:0:0:0:
111,82,88664,2,0,L|79:38,1,35,4|0,3:0|3:0,3:0:0:0:
319,183,88851,5,4,3:0:0:0:
347,218,88945,1,6,3:2:0:0:
371,252,89039,1,0,3:0:0:0:
288,328,89155,5,8,0:0:0:0:
128,248,89295,1,8,0:0:0:0:
376,216,89413,1,8,0:0:0:0:
144,32,89530,1,8,0:0:0:0:
304,112,89670,1,8,0:0:0:0:
168,144,89788,1,8,0:0:0:0:
352,40,89929,1,8,0:0:0:0:
192,264,90046,1,8,0:0:0:0:
256,56,90163,1,8,0:0:0:0:
59,70,90257,2,2,L|80:72,8,17.5,2|2|2|2|2|2|2|2|2,0:0|0:0|0:0|0:0|0:0|0:0|0:0|0:0|0:2,0:0:0:0:
160,160,90819,5,0,3:0:0:0:
160,160,90913,1,0,3:0:0:0:
160,160,91007,1,0,3:0:0:0:
160,160,91101,2,0,L|200:160,1,35,4|2,3:0|3:2,3:0:0:0:
276,276,91288,5,0,3:0:0:0:
240,288,91382,1,0,3:0:0:0:
204,300,91476,1,0,3:0:0:0:
268,84,91569,5,0,3:0:0:0:
292,108,91663,1,0,3:0:0:0:
316,132,91757,1,0,3:0:0:0:
340,156,91851,2,0,L|388:204,1,35,4|2,3:0|3:2,3:0:0:0:
392,280,92038,5,0,3:0:0:0:
392,280,92132,1,0,3:0:0:0:
392,280,92226,1,0,3:0:0:0:
244,300,92319,5,2,3:2:0:0:
220,276,92413,1,0,3:0:0:0:
196,252,92507,1,2,3:2:0:0:
172,228,92601,2,0,L|124:180,1,35,4|0,3:0|3:0,3:0:0:0:
296,120,92788,5,0,3:0:0:0:
320,96,92882,1,0,3:0:0:0:
344,72,92975,1,0,3:0:0:0:
336,248,93069,5,0,3:0:0:0:
312,272,93163,1,0,3:0:0:0:
288,296,93257,1,0,3:0:0:0:
264,320,93350,2,0,L|216:368,1,35,4|0,3:0|3:0,3:0:0:0:
80,24,93538,5,0,3:0:0:0:
112,38,93631,1,2,3:2:0:0:
144,52,93725,1,0,3:0:0:0:
176,66,93819,1,0,3:0:0:0:
208,80,93913,2,0,L|240:96,1,35,4|0,3:0|3:0,3:0:0:0:
416,72,94100,5,0,3:0:0:0:
399,102,94193,1,2,3:2:0:0:
383,133,94287,1,0,3:0:0:0:
366,164,94381,1,0,3:0:0:0:
352,192,94476,2,0,L|336:224,1,35,4|0,3:0|3:0,3:0:0:0:
320,264,94663,2,0,L|336:296,1,35,4|0,3:0|3:0,3:0:0:0:
104,320,94850,5,0,3:0:0:0:
130,297,94943,1,0,3:0:0:0:
156,274,95037,1,0,3:0:0:0:
183,251,95131,1,0,3:0:0:0:
208,232,95226,2,2,L|368:104,2,175,2|2|2,1:0|1:0|1:0,1:0:0:0:
256,192,96632,5,2,3:2:0:0:
112,96,96819,1,0,3:0:0:0:
88,96,96913,1,0,3:0:0:0:
168,96,97007,2,0,L|208:96,1,35,4|0,3:0|3:0,3:0:0:0:
424,248,97194,5,0,3:0:0:0:
388,260,97288,1,2,3:2:0:0:
352,272,97382,1,0,3:0:0:0:
316,284,97476,1,0,3:0:0:0:
248,72,97569,5,0,3:0:0:0:
232,56,97663,1,0,3:0:0:0:
216,40,97757,1,0,3:0:0:0:
280,104,97851,2,0,L|328:152,1,35,4|0,3:0|3:0,3:0:0:0:
392,280,98038,5,2,3:2:0:0:
392,280,98132,1,0,3:0:0:0:
392,280,98226,1,0,3:0:0:0:
208,264,98319,5,0,3:0:0:0:
232,288,98413,1,2,3:2:0:0:
256,312,98507,1,0,3:0:0:0:
172,228,98601,2,0,L|124:180,1,35,6|0,3:2|3:0,3:0:0:0:
296,120,98788,5,0,3:0:0:0:
320,96,98882,1,0,3:0:0:0:
344,72,98975,1,0,3:0:0:0:
296,296,99069,5,0,3:0:0:0:
320,272,99163,1,0,3:0:0:0:
344,248,99257,1,0,3:0:0:0:
264,320,99350,2,0,L|216:368,1,35,4|0,3:0|3:0,3:0:0:0:
272,72,99632,5,0,3:0:0:0:
272,72,99726,2,0,L|232:112,1,35,6|0,3:2|3:0,3:0:0:0:
168,200,99913,5,0,3:0:0:0:
168,200,100007,2,0,L|128:160,1,35,4|0,3:0|3:0,3:0:0:0:
296,256,100194,5,0,3:0:0:0:
296,256,100288,2,0,L|256:296,1,35,6|0,3:2|3:0,3:0:0:0:
232,160,100476,5,0,3:0:0:0:
232,160,100570,2,2,L|272:200,1,35,4|2,3:0|3:0,3:0:0:0:
168,104,100757,5,0,3:0:0:0:
168,104,100851,2,0,L|128:64,1,35,4|0,3:0|3:0,3:0:0:0:
64,88,101038,5,2,1:2:0:0:
87,113,101131,1,2,1:2:0:0:
111,138,101225,1,2,1:2:0:0:
135,164,101319,1,2,1:2:0:0:
159,189,101413,1,2,1:2:0:0:
183,215,101506,1,2,1:2:0:0:
200,184,101601,5,2,1:2:0:0:
218,153,101694,1,2,1:2:0:0:
236,123,101788,1,2,1:2:0:0:
254,93,101882,1,2,1:2:0:0:
272,63,101976,1,2,1:2:0:0:
290,33,102069,1,2,1:2:0:0:
304,64,102163,5,2,1:2:0:0:
314,97,102256,1,2,1:2:0:0:
324,130,102350,1,2,1:2:0:0:
334,164,102444,1,2,1:2:0:0:
344,197,102538,1,2,1:2:0:0:
354,231,102631,1,2,1:2:0:0:
288,312,102819,5,0,3:0:0:0:
288,240,102913,1,0,3:0:0:0:
320,88,104132,5,0,3:0:0:0:
264,176,104319,1,0,3:0:0:0:
296,224,104413,1,0,3:0:0:0:
192,296,105632,5,0,3:0:0:0:
248,208,105819,1,0,3:0:0:0:
288,248,105913,1,0,3:0:0:0:
384,200,106382,5,0,3:0:0:0:
328,112,106569,1,0,3:0:0:0:
288,152,106663,1,0,3:0:0:0:
224,56,107132,5,8,3:0:0:0:
304,96,107272,1,8,3:0:0:0:
168,128,107390,1,8,3:0:0:0:
320,176,107507,1,8,3:0:0:0:
176,208,107647,1,8,3:0:0:0:
336,256,107765,1,8,3:0:0:0:
176,288,107906,1,8,3:0:0:0:
264,320,108023,1,8,3:0:0:0:
344,336,108140,1,8,3:0:0:0:
344,336,108233,2,8,L|365:338,8,17.5,8|8|8|8|8|8|8|8|8,3:0|3:0|3:0|3:0|3:0|3:0|3:0|3:0|3:0,3:0:0:0:
376,224,108819,5,0,1:0:0:0:
376,224,108913,1,0,1:0:0:0:
376,224,109007,1,0,1:0:0:0:
304,160,109194,5,0,1:0:0:0:
304,160,109288,1,0,1:0:0:0:
304,160,109382,1,0,1:0:0:0:
216,216,109569,5,0,1:0:0:0:
216,216,109663,1,0,1:0:0:0:
216,216,109757,1,0,1:0:0:0:
160,136,109944,5,0,1:0:0:0:
160,136,110038,1,0,1:0:0:0:
160,136,110132,1,0,1:0:0:0:
96,216,110319,5,0,1:0:0:0:
96,216,110413,1,0,1:0:0:0:
96,216,110507,1,0,1:0:0:0:
376,160,110694,5,0,1:0:0:0:
376,160,110788,1,0,1:0:0:0:
376,160,110882,1,0,1:0:0:0:
304,224,111069,5,0,1:0:0:0:
304,224,111163,1,0,1:0:0:0:
304,224,111257,1,0,1:0:0:0:
216,168,111444,5,0,1:0:0:0:
216,168,111538,1,0,1:0:0:0:
216,168,111632,1,0,1:0:0:0:
160,248,111819,5,0,1:0:0:0:
160,248,111913,1,0,1:0:0:0:
160,248,112007,1,0,1:0:0:0:
96,168,112194,5,0,1:0:0:0:
96,168,112288,1,0,1:0:0:0:
96,168,112382,1,0,1:0:0:0:
192,128,112569,5,0,1:0:0:0:
192,128,112663,1,0,1:0:0:0:
192,128,112757,1,0,1:0:0:0:
288,72,112944,5,0,1:0:0:0:
288,72,113038,1,0,1:0:0:0:
288,72,113132,1,0,1:0:0:0:
352,72,113226,5,0,1:0:0:0:
326,96,113319,1,0,1:0:0:0:
301,120,113413,1,0,1:0:0:0:
276,145,113507,1,0,1:0:0:0:
251,169,113601,1,0,1:0:0:0:
226,193,113694,1,0,1:0:0:0:
201,218,113788,1,0,1:0:0:0:
176,242,113882,1,0,1:0:0:0:
151,267,113976,1,0,1:0:0:0:
126,291,114069,1,0,1:0:0:0:
100,315,114163,1,0,1:0:0:0:
75,340,114257,1,0,1:0:0:0:
256,192,114632,5,4,0:0:0:0:
