osu file format v14

[General]
AudioFilename: Absurd_Gaff.mp3
AudioLeadIn: 0
PreviewTime: 49352
Countdown: 0
SampleSet: Normal
StackLeniency: 0.7
Mode: 3
LetterboxInBreaks: 0
SpecialStyle: 1
WidescreenStoryboard: 1

[Editor]
DistanceSpacing: 1.2
BeatDivisor: 4
GridSize: 8
TimelineZoom: 1.7

[Metadata]
Title:Absurd Gaff
TitleUnicode:Absurd Gaff
Artist:siromaru
ArtistUnicode:siromaru
Creator:-Kamikaze-
Version:juan's 5K Hyper
Source:BMS
Tags:the of fighters 2008 resurrection bof2008 schranz _underjoy theziemniax ziemniak gekido- shxfted skalim tristan97 tornspirit frenzyli spoonguy paulmrm megative BillumMoto Janko MrDorian _Gezo_ Gezoda Nwolf zetera
BeatmapID:866056
BeatmapSetID:365073

[Difficulty]
HPDrainRate:8
CircleSize:5
OverallDifficulty:8
ApproachRate:5
SliderMultiplier:1.4
SliderTickRate:1

[Events]
//Background and Video events
0,0,"ms_title.jpg",0,0
Video,-592,"mentalstock_movie.avi"
//Break Periods
//Storyboard Layer 0 (Background)
//Storyboard Layer 1 (Fail)
//Storyboard Layer 2 (Pass)
//Storyboard Layer 3 (Foreground)
//Storyboard Sound Samples

[TimingPoints]
14,375,4,1,1,60,1,0
13514,-100,4,2,1,60,0,0
37514,-100,4,1,1,60,0,0
49514,-100,4,1,1,60,0,1
61139,-100,4,2,1,60,0,0
61514,-100,4,3,1,60,0,1
85139,-100,4,2,1,60,0,0
85514,-100,4,1,1,60,0,0
97514,-100,4,3,1,60,0,1
115514,-100,4,1,1,60,0,0

[HitObjects]
51,192,1514,5,8,0:0:0:0:
51,192,1701,1,8,0:0:0:0:
358,192,1889,1,4,0:0:0:0:
460,192,1889,1,0,0:0:0:0:
153,192,2076,1,0,0:0:0:0:
256,192,2170,1,0,0:0:0:0:
358,192,2264,1,0,0:0:0:0:
460,192,2357,1,0,0:0:0:0:
256,192,2451,1,0,0:0:0:0:
51,192,2639,1,4,0:0:0:0:
153,192,2639,1,0,0:0:0:0:
460,192,2732,1,0,0:0:0:0:
358,192,2826,1,0,0:0:0:0:
256,192,2920,1,0,0:0:0:0:
51,192,3014,1,8,0:0:0:0:
51,192,3201,1,8,0:0:0:0:
358,192,3389,1,4,0:0:0:0:
460,192,3389,1,0,0:0:0:0:
51,192,3576,1,0,0:0:0:0:
256,192,3670,1,0,0:0:0:0:
460,192,3764,1,0,0:0:0:0:
358,192,3857,1,0,0:0:0:0:
256,192,3951,1,0,0:0:0:0:
51,192,4139,1,4,0:0:0:0:
153,192,4139,1,0,0:0:0:0:
460,192,4232,1,0,0:0:0:0:
358,192,4420,1,0,0:0:0:0:
51,192,4514,1,8,0:0:0:0:
51,192,4701,1,8,0:0:0:0:
358,192,4889,1,4,0:0:0:0:
460,192,4889,1,0,0:0:0:0:
153,192,5076,1,0,0:0:0:0:
256,192,5170,1,0,0:0:0:0:
51,192,5264,1,0,0:0:0:0:
358,192,5357,1,0,0:0:0:0:
460,192,5451,1,0,0:0:0:0:
256,192,5545,1,0,0:0:0:0:
153,192,5639,1,4,0:0:0:0:
358,192,5732,1,0,0:0:0:0:
51,192,5826,1,0,0:0:0:0:
153,192,5920,1,0,0:0:0:0:
460,192,6014,1,2,0:0:0:0:
358,192,6139,1,2,0:0:0:0:
256,192,6264,1,2,0:0:0:0:
51,192,6389,1,2,0:0:0:0:
460,192,6514,1,2,0:0:0:0:
358,192,6639,1,2,0:0:0:0:
153,192,6764,1,0,0:0:0:0:
256,192,6857,1,2,0:0:0:0:
358,192,6951,1,2,0:0:0:0:
460,192,7045,1,0,0:0:0:0:
51,192,7139,1,0,0:0:0:0:
153,192,7232,1,0,0:0:0:0:
256,192,7326,1,0,0:0:0:0:
358,192,7420,1,0,0:0:0:0:
460,192,7514,1,8,0:0:0:0:
460,192,7701,1,8,0:0:0:0:
153,192,7889,1,4,0:0:0:0:
51,192,7889,1,0,0:0:0:0:
256,192,8076,1,0,0:0:0:0:
460,192,8170,1,0,0:0:0:0:
256,192,8264,1,0,0:0:0:0:
51,192,8357,1,0,0:0:0:0:
358,192,8451,1,0,0:0:0:0:
51,192,8639,1,4,0:0:0:0:
153,192,8639,1,0,0:0:0:0:
460,192,8826,1,0,0:0:0:0:
358,192,8920,1,0,0:0:0:0:
256,192,9014,1,8,0:0:0:0:
256,192,9201,1,8,0:0:0:0:
51,192,9389,1,4,0:0:0:0:
460,192,9389,1,0,0:0:0:0:
358,192,9576,1,0,0:0:0:0:
153,192,9670,1,0,0:0:0:0:
358,192,9764,1,0,0:0:0:0:
256,192,9857,1,0,0:0:0:0:
51,192,9951,1,0,0:0:0:0:
358,192,10139,1,4,0:0:0:0:
460,192,10139,1,0,0:0:0:0:
51,192,10232,1,0,0:0:0:0:
153,192,10420,1,0,0:0:0:0:
256,192,10514,1,8,0:0:0:0:
460,192,10514,128,0,12014:0:0:0:70:8bit.wav
256,192,10701,1,8,0:0:0:0:
51,192,10889,1,4,0:0:0:0:
153,192,10889,1,0,0:0:0:0:
358,192,11076,1,0,0:0:0:0:
51,192,11170,1,0,0:0:0:0:
153,192,11264,1,0,0:0:0:0:
256,192,11357,1,0,0:0:0:0:
358,192,11451,1,0,0:0:0:0:
153,192,11545,1,0,0:0:0:0:
51,192,11639,1,4,0:0:0:0:
256,192,11732,1,0,0:0:0:0:
51,192,11826,1,0,0:0:0:0:
153,192,11920,1,0,0:0:0:0:
256,192,12014,128,0,12764:0:0:0:70:
460,192,12764,1,0,0:0:0:70:
358,192,12857,1,0,0:0:0:0:
460,192,12951,1,0,0:0:0:0:
358,192,13045,1,0,0:0:0:0:
51,192,13139,1,0,0:0:0:70:
153,192,13232,1,0,0:0:0:0:
51,192,13326,1,0,0:0:0:0:
153,192,13420,1,0,0:0:0:0:
460,192,13514,1,0,0:0:0:0:
358,192,13514,1,0,0:0:0:0:
51,192,13701,1,8,0:0:0:0:
256,192,13889,1,0,0:0:0:0:
153,192,13889,1,0,0:0:0:0:
51,192,14076,1,8,0:0:0:0:
153,192,14170,1,0,0:0:0:0:
460,192,14264,1,0,0:0:0:0:
358,192,14264,1,0,0:0:0:0:
51,192,14451,1,8,0:0:0:0:
460,192,14545,1,0,0:0:0:0:
256,192,14639,1,0,0:0:0:0:
153,192,14639,1,0,0:0:0:0:
358,192,14826,1,8,0:0:0:0:
153,192,14920,1,0,0:0:0:0:
460,192,15014,1,0,0:0:0:0:
51,192,15014,1,0,0:0:0:0:
153,192,15201,1,8,0:0:0:0:
51,192,15295,1,0,0:0:0:0:
256,192,15389,1,0,0:0:0:0:
358,192,15389,1,0,0:0:0:0:
460,192,15576,1,8,0:0:0:0:
358,192,15670,1,0,0:0:0:0:
51,192,15764,1,0,0:0:0:0:
153,192,15764,1,0,0:0:0:0:
358,192,15951,1,8,0:0:0:0:
51,192,16045,1,0,0:0:0:0:
256,192,16139,1,0,0:0:0:0:
460,192,16139,1,0,0:0:0:0:
153,192,16326,1,8,0:0:0:0:
358,192,16420,1,0,0:0:0:0:
460,192,16514,1,0,0:0:0:0:
51,192,16514,1,0,0:0:0:0:
358,192,16701,1,8,0:0:0:0:
460,192,16795,1,0,0:0:0:0:
153,192,16889,1,0,0:0:0:0:
256,192,16889,1,0,0:0:0:0:
51,192,17076,1,8,0:0:0:0:
153,192,17170,1,0,0:0:0:0:
460,192,17264,1,0,0:0:0:0:
358,192,17264,1,0,0:0:0:0:
51,192,17451,1,8,0:0:0:0:
460,192,17545,1,0,0:0:0:0:
256,192,17639,1,0,0:0:0:0:
153,192,17639,1,0,0:0:0:0:
358,192,17826,1,8,0:0:0:0:
153,192,17920,1,0,0:0:0:0:
460,192,18014,1,0,0:0:0:0:
51,192,18014,1,0,0:0:0:0:
153,192,18201,1,8,0:0:0:0:
51,192,18295,1,0,0:0:0:0:
256,192,18389,1,0,0:0:0:0:
358,192,18389,1,0,0:0:0:0:
460,192,18576,1,8,0:0:0:0:
358,192,18670,1,0,0:0:0:0:
51,192,18764,1,0,0:0:0:0:
153,192,18764,1,0,0:0:0:0:
358,192,18951,1,8,0:0:0:0:
256,192,19045,1,0,0:0:0:0:
51,192,19139,1,0,0:0:0:0:
153,192,19232,1,0,0:0:0:0:
256,192,19326,1,0,0:0:0:0:
358,192,19420,1,0,0:0:0:0:
460,192,19514,1,0,0:0:0:0:
51,192,19514,1,0,0:0:0:0:
153,192,19701,1,8,0:0:0:0:
51,192,19795,1,0,0:0:0:0:
256,192,19889,1,0,0:0:0:0:
358,192,19889,1,0,0:0:0:0:
460,192,20076,1,8,0:0:0:0:
358,192,20170,1,0,0:0:0:0:
51,192,20264,1,0,0:0:0:0:
153,192,20264,1,0,0:0:0:0:
358,192,20451,1,8,0:0:0:0:
51,192,20545,1,0,0:0:0:0:
256,192,20639,1,0,0:0:0:0:
460,192,20639,1,0,0:0:0:0:
153,192,20826,1,8,0:0:0:0:
460,192,20920,1,0,0:0:0:0:
51,192,21014,1,0,0:0:0:0:
358,192,21014,1,0,0:0:0:0:
460,192,21201,1,8,0:0:0:0:
358,192,21295,1,0,0:0:0:0:
256,192,21389,1,0,0:0:0:0:
153,192,21389,1,0,0:0:0:0:
51,192,21576,1,8,0:0:0:0:
153,192,21670,1,0,0:0:0:0:
460,192,21764,1,0,0:0:0:0:
358,192,21764,1,0,0:0:0:0:
51,192,21951,1,8,0:0:0:0:
460,192,22045,1,0,0:0:0:0:
256,192,22139,1,0,0:0:0:0:
153,192,22139,1,0,0:0:0:0:
358,192,22326,1,8,0:0:0:0:
153,192,22420,1,0,0:0:0:0:
460,192,22514,1,0,0:0:0:0:
51,192,22514,1,0,0:0:0:0:
153,192,22701,1,8,0:0:0:0:
51,192,22795,1,0,0:0:0:0:
256,192,22889,1,0,0:0:0:0:
358,192,22889,1,0,0:0:0:0:
460,192,23076,1,8,0:0:0:0:
358,192,23170,1,0,0:0:0:0:
51,192,23264,1,0,0:0:0:0:
153,192,23264,1,0,0:0:0:0:
460,192,23451,1,8,0:0:0:0:
51,192,23545,1,0,0:0:0:0:
358,192,23639,1,0,0:0:0:0:
256,192,23639,1,0,0:0:0:0:
153,192,23826,1,8,0:0:0:0:
51,192,23920,1,0,0:0:0:0:
460,192,24014,1,0,0:0:0:0:
358,192,24107,1,0,0:0:0:0:
256,192,24201,1,0,0:0:0:0:
153,192,24295,1,0,0:0:0:0:
51,192,24389,1,0,0:0:0:0:
358,192,24482,1,0,0:0:0:0:
256,192,24576,1,0,0:0:0:0:
153,192,24670,1,0,0:0:0:0:
51,192,24764,1,0,0:0:0:0:
358,192,24857,1,0,0:0:0:0:
256,192,24951,1,0,0:0:0:0:
153,192,25045,1,0,0:0:0:0:
460,192,25139,1,0,0:0:0:0:
358,192,25232,1,0,0:0:0:0:
256,192,25326,1,0,0:0:0:0:
153,192,25420,1,0,0:0:0:0:
51,192,25514,1,0,0:0:0:0:
460,192,25514,128,0,25889:0:0:0:0:
256,192,25701,1,8,0:0:0:0:
153,192,25795,1,0,0:0:0:0:
358,192,25889,1,0,0:0:0:0:
51,192,25889,1,0,0:0:0:0:
460,192,26076,128,8,26264:0:0:0:0:
256,192,26170,1,0,0:0:0:0:
358,192,26264,1,4,0:0:0:0:
51,192,26264,128,0,26639:0:0:0:0:
153,192,26451,1,8,0:0:0:0:
358,192,26545,1,0,0:0:0:0:
256,192,26639,1,0,0:0:0:0:
460,192,26639,1,0,0:0:0:0:
358,192,26826,1,8,0:0:0:0:
460,192,26920,1,0,0:0:0:0:
256,192,27014,1,4,0:0:0:0:
51,192,27014,128,0,27389:0:0:0:0:
153,192,27201,1,8,0:0:0:0:
460,192,27295,1,0,0:0:0:0:
256,192,27389,1,0,0:0:0:0:
358,192,27389,1,0,0:0:0:0:
460,192,27576,1,8,0:0:0:0:
358,192,27670,1,0,0:0:0:0:
153,192,27764,1,4,0:0:0:0:
51,192,27764,128,0,28139:0:0:0:0:
460,192,27951,1,8,0:0:0:0:
358,192,28045,1,0,0:0:0:0:
256,192,28139,1,0,0:0:0:0:
153,192,28139,1,0,0:0:0:0:
460,192,28326,1,8,0:0:0:0:
358,192,28420,1,0,0:0:0:0:
256,192,28514,1,4,0:0:0:0:
51,192,28514,128,0,28889:0:0:0:0:
358,192,28701,1,8,0:0:0:0:
256,192,28795,1,0,0:0:0:0:
460,192,28889,1,0,0:0:0:0:
153,192,28889,1,0,0:0:0:0:
358,192,29076,1,8,0:0:0:0:
256,192,29170,1,0,0:0:0:0:
51,192,29264,128,4,29639:0:0:0:0:
153,192,29264,1,0,0:0:0:0:
358,192,29451,1,8,0:0:0:0:
460,192,29545,1,0,0:0:0:0:
153,192,29639,1,0,0:0:0:0:
256,192,29639,1,0,0:0:0:0:
358,192,29826,1,8,0:0:0:0:
256,192,29920,1,0,0:0:0:0:
460,192,30014,128,0,30201:0:0:0:0:
51,192,30014,1,0,0:0:0:0:
460,192,30389,128,0,30764:0:0:0:0:
51,192,30389,1,0,0:0:0:0:
358,192,30764,1,0,0:0:0:0:
256,192,30857,1,0,0:0:0:0:
153,192,30951,1,0,0:0:0:0:
51,192,31045,1,0,0:0:0:0:
358,192,31139,1,0,0:0:0:0:
460,192,31232,1,0,0:0:0:0:
256,192,31326,1,0,0:0:0:0:
153,192,31420,1,0,0:0:0:0:
51,192,31514,1,0,0:0:0:0:
358,192,31514,1,0,0:0:0:0:
460,192,31701,1,8,0:0:0:0:
358,192,31795,1,0,0:0:0:0:
51,192,31889,1,0,0:0:0:0:
153,192,31889,1,0,0:0:0:0:
256,192,32076,1,8,0:0:0:0:
153,192,32170,1,0,0:0:0:0:
460,192,32264,128,4,32639:0:0:0:0:
358,192,32264,1,0,0:0:0:0:
51,192,32451,1,8,0:0:0:0:
153,192,32545,1,0,0:0:0:0:
256,192,32639,1,0,0:0:0:0:
358,192,32639,1,0,0:0:0:0:
51,192,32826,1,8,0:0:0:0:
153,192,32920,1,0,0:0:0:0:
460,192,33014,128,4,33389:0:0:0:0:
358,192,33014,1,0,0:0:0:0:
153,192,33201,1,8,0:0:0:0:
51,192,33295,1,0,0:0:0:0:
256,192,33389,1,0,0:0:0:0:
358,192,33389,1,0,0:0:0:0:
51,192,33576,1,8,0:0:0:0:
358,192,33670,1,0,0:0:0:0:
460,192,33764,128,4,34139:0:0:0:0:
153,192,33764,1,0,0:0:0:0:
256,192,33951,1,8,0:0:0:0:
153,192,34045,1,0,0:0:0:0:
358,192,34139,1,0,0:0:0:0:
51,192,34139,1,0,0:0:0:0:
153,192,34326,1,8,0:0:0:0:
51,192,34420,1,0,0:0:0:0:
460,192,34514,128,4,34889:0:0:0:0:
256,192,34514,1,0,0:0:0:0:
358,192,34701,1,8,0:0:0:0:
256,192,34795,1,0,0:0:0:0:
51,192,34889,1,0,0:0:0:0:
153,192,34889,1,0,0:0:0:0:
358,192,35076,1,8,0:0:0:0:
256,192,35170,1,0,0:0:0:0:
460,192,35264,128,4,35639:0:0:0:0:
51,192,35264,1,0,0:0:0:0:
153,192,35451,1,8,0:0:0:0:
256,192,35545,1,0,0:0:0:0:
51,192,35639,1,0,0:0:0:0:
358,192,35639,1,0,0:0:0:0:
256,192,35826,1,8,0:0:0:0:
358,192,35920,1,0,0:0:0:0:
460,192,36014,1,0,0:0:0:0:
358,192,36107,1,0,0:0:0:0:
256,192,36201,1,0,0:0:0:0:
153,192,36295,1,0,0:0:0:0:
51,192,36389,128,0,36764:0:0:0:70:fx_synth04.wav
153,192,36764,1,0,0:0:0:0:
460,192,36857,1,0,0:0:0:0:
358,192,36951,1,0,0:0:0:0:
256,192,37139,1,0,0:0:0:0:
51,192,37232,1,0,0:0:0:0:
153,192,37326,1,0,0:0:0:0:
460,192,37514,1,8,0:0:0:0:
460,192,37701,1,8,0:0:0:0:
256,192,37889,1,4,0:0:0:0:
153,192,37889,1,0,0:0:0:0:
460,192,38076,1,0,0:0:0:0:
358,192,38170,1,0,0:0:0:0:
51,192,38264,1,0,0:0:0:0:
153,192,38357,1,0,0:0:0:0:
256,192,38451,1,0,0:0:0:0:
358,192,38545,1,0,0:0:0:0:
460,192,38639,1,4,0:0:0:0:
153,192,38639,1,0,0:0:0:0:
51,192,38826,1,0,0:0:0:0:
153,192,38920,1,0,0:0:0:0:
460,192,39014,1,8,0:0:0:0:
460,192,39201,1,8,0:0:0:0:
256,192,39389,1,4,0:0:0:0:
51,192,39389,1,0,0:0:0:0:
358,192,39576,1,0,0:0:0:0:
460,192,39670,1,0,0:0:0:0:
51,192,39764,1,0,0:0:0:0:
153,192,39857,1,0,0:0:0:0:
256,192,39951,1,0,0:0:0:0:
358,192,40045,1,0,0:0:0:0:
460,192,40139,1,4,0:0:0:0:
153,192,40139,1,0,0:0:0:0:
256,192,40232,1,0,0:0:0:0:
153,192,40420,1,0,0:0:0:0:
460,192,40514,1,8,0:0:0:0:
460,192,40701,1,8,0:0:0:0:
256,192,40889,1,4,0:0:0:0:
153,192,40889,1,0,0:0:0:0:
460,192,41076,1,0,0:0:0:0:
358,192,41170,1,0,0:0:0:0:
51,192,41264,1,0,0:0:0:0:
153,192,41357,1,0,0:0:0:0:
256,192,41451,1,0,0:0:0:0:
358,192,41545,1,0,0:0:0:0:
460,192,41639,1,4,0:0:0:0:
51,192,41639,1,0,0:0:0:0:
358,192,41732,1,0,0:0:0:0:
256,192,41826,1,0,0:0:0:0:
153,192,41920,1,0,0:0:0:0:
460,192,42014,128,0,42389:0:0:0:0:
51,192,42389,128,0,42764:0:0:0:0:
153,192,42764,1,0,0:0:0:0:
256,192,42857,1,0,0:0:0:0:
358,192,42951,1,0,0:0:0:0:
460,192,42951,1,0,0:0:0:0:
256,192,43139,1,0,0:0:0:0:
153,192,43232,1,0,0:0:0:0:
51,192,43326,1,0,0:0:0:0:
358,192,43514,1,8,0:0:0:0:
358,192,43701,1,8,0:0:0:0:
460,192,43889,1,4,0:0:0:0:
51,192,43889,1,0,0:0:0:0:
153,192,44076,1,0,0:0:0:0:
256,192,44170,1,0,0:0:0:0:
358,192,44264,1,0,0:0:0:0:
460,192,44357,1,0,0:0:0:0:
51,192,44451,1,0,0:0:0:0:
153,192,44545,1,0,0:0:0:0:
256,192,44639,1,4,0:0:0:0:
460,192,44639,1,0,0:0:0:0:
51,192,44826,1,0,0:0:0:0:
153,192,44920,1,0,0:0:0:0:
358,192,45014,1,8,0:0:0:0:
358,192,45201,1,8,0:0:0:0:
51,192,45389,1,4,0:0:0:0:
153,192,45389,1,0,0:0:0:0:
256,192,45576,1,0,0:0:0:0:
358,192,45670,1,0,0:0:0:0:
460,192,45764,1,0,0:0:0:0:
153,192,45857,1,0,0:0:0:0:
51,192,45951,1,0,0:0:0:0:
358,192,46045,1,0,0:0:0:0:
256,192,46139,1,4,0:0:0:0:
460,192,46139,1,0,0:0:0:0:
51,192,46232,1,0,0:0:0:0:
153,192,46420,1,0,0:0:0:0:
358,192,46514,1,8,0:0:0:0:
358,192,46701,1,8,0:0:0:0:
460,192,46889,1,4,0:0:0:0:
51,192,46889,1,0,0:0:0:0:
256,192,47076,1,0,0:0:0:0:
358,192,47170,1,0,0:0:0:0:
460,192,47264,1,0,0:0:0:0:
51,192,47357,1,0,0:0:0:0:
153,192,47451,1,0,0:0:0:0:
256,192,47545,1,0,0:0:0:0:
358,192,47639,1,4,0:0:0:0:
460,192,47639,1,0,0:0:0:0:
51,192,47732,1,0,0:0:0:0:
153,192,47826,1,0,0:0:0:0:
256,192,47920,1,0,0:0:0:0:
358,192,48014,128,0,48389:0:0:0:0:
51,192,48389,128,0,48764:0:0:0:0:
256,192,48764,1,0,0:0:0:0:
358,192,48857,1,0,0:0:0:0:
460,192,48857,128,0,49139:0:0:0:0:
358,192,49139,1,0,0:0:0:0:
256,192,49232,1,0,0:0:0:0:
153,192,49326,128,0,49514:0:0:0:0:
51,192,49514,128,8,49889:0:0:0:0:
460,192,49514,1,0,0:0:0:0:
460,192,49701,1,8,0:0:0:0:
256,192,49889,1,4,0:0:0:0:
358,192,49889,1,0,0:0:0:0:
51,192,50076,128,0,50451:0:0:0:0:
460,192,50076,1,0,0:0:0:0:
256,192,50170,1,0,0:0:0:0:
460,192,50264,1,0,0:0:0:0:
358,192,50357,1,0,0:0:0:0:
256,192,50451,1,0,0:0:0:0:
153,192,50545,1,0,0:0:0:0:
460,192,50639,1,4,0:0:0:0:
51,192,50639,1,0,0:0:0:0:
358,192,50826,128,0,51014:0:0:0:0:
153,192,50920,1,0,0:0:0:0:
51,192,51014,1,8,0:0:0:0:
358,192,51201,128,8,52139:0:0:0:0:
51,192,51201,1,0,0:0:0:0:
153,192,51389,1,4,0:0:0:0:
256,192,51389,1,0,0:0:0:0:
460,192,51576,1,0,0:0:0:0:
153,192,51670,1,0,0:0:0:0:
460,192,51764,1,0,0:0:0:0:
51,192,51857,1,0,0:0:0:0:
153,192,51951,1,0,0:0:0:0:
256,192,52045,1,0,0:0:0:0:
51,192,52139,1,4,0:0:0:0:
460,192,52139,1,0,0:0:0:0:
256,192,52232,1,0,0:0:0:0:
153,192,52420,1,0,0:0:0:0:
460,192,52514,128,8,52889:0:0:0:0:
51,192,52514,1,0,0:0:0:0:
51,192,52701,1,8,0:0:0:0:
256,192,52889,1,4,0:0:0:0:
358,192,52889,1,0,0:0:0:0:
460,192,53076,128,0,53451:0:0:0:0:
51,192,53076,1,0,0:0:0:0:
153,192,53170,1,0,0:0:0:0:
51,192,53264,1,0,0:0:0:0:
256,192,53357,1,0,0:0:0:0:
358,192,53451,1,0,0:0:0:0:
256,192,53639,1,4,0:0:0:0:
460,192,53639,1,0,0:0:0:0:
153,192,53826,128,0,54014:0:0:0:0:
358,192,53920,1,0,0:0:0:0:
51,192,54014,1,8,0:0:0:0:
460,192,54201,1,8,0:0:0:0:
153,192,54201,128,0,55139:0:0:0:0:
358,192,54389,1,4,0:0:0:0:
256,192,54389,1,0,0:0:0:0:
51,192,54576,1,0,0:0:0:0:
358,192,54670,1,0,0:0:0:0:
460,192,54764,1,0,0:0:0:0:
256,192,54857,1,0,0:0:0:0:
51,192,54951,1,0,0:0:0:0:
358,192,55045,1,0,0:0:0:0:
460,192,55139,1,0,0:0:0:0:
358,192,55232,1,0,0:0:0:0:
256,192,55326,1,0,0:0:0:0:
153,192,55420,1,0,0:0:0:0:
51,192,55514,128,8,55889:0:0:0:0:
460,192,55514,1,0,0:0:0:0:
460,192,55701,1,8,0:0:0:0:
153,192,55889,1,4,0:0:0:0:
256,192,55889,1,0,0:0:0:0:
51,192,56076,128,0,56451:0:0:0:0:
358,192,56076,1,0,0:0:0:0:
460,192,56170,1,0,0:0:0:0:
358,192,56264,1,0,0:0:0:0:
153,192,56357,1,0,0:0:0:0:
460,192,56451,1,0,0:0:0:0:
358,192,56545,1,0,0:0:0:0:
153,192,56639,1,4,0:0:0:0:
256,192,56639,1,0,0:0:0:0:
358,192,56826,128,0,57014:0:0:0:0:
153,192,56920,1,0,0:0:0:0:
51,192,57014,1,8,0:0:0:0:
358,192,57201,128,8,58139:0:0:0:0:
51,192,57201,1,0,0:0:0:0:
153,192,57389,1,4,0:0:0:0:
256,192,57389,1,0,0:0:0:0:
460,192,57576,1,0,0:0:0:0:
153,192,57670,1,0,0:0:0:0:
51,192,57764,1,0,0:0:0:0:
256,192,57857,1,0,0:0:0:0:
153,192,57951,1,0,0:0:0:0:
51,192,58045,1,0,0:0:0:0:
256,192,58139,1,4,0:0:0:0:
460,192,58139,1,0,0:0:0:0:
153,192,58232,1,0,0:0:0:0:
460,192,58420,1,0,0:0:0:0:
153,192,58514,128,8,58889:0:0:0:0:
256,192,58514,128,0,60014:0:0:0:0:
51,192,58701,1,8,0:0:0:0:
358,192,58889,1,4,0:0:0:0:
460,192,58889,1,0,0:0:0:0:
153,192,59076,128,0,59451:0:0:0:0:
460,192,59170,1,0,0:0:0:0:
358,192,59264,1,0,0:0:0:0:
51,192,59357,1,0,0:0:0:0:
460,192,59451,1,0,0:0:0:0:
358,192,59545,1,0,0:0:0:0:
51,192,59639,1,4,0:0:0:0:
153,192,59639,1,0,0:0:0:0:
358,192,59826,1,0,0:0:0:0:
460,192,59920,1,0,0:0:0:0:
153,192,60014,1,2,0:0:0:0:
358,192,60139,1,2,0:0:0:0:
51,192,60264,1,2,0:0:0:0:
153,192,60389,1,0,0:0:0:0:
256,192,60514,1,0,0:0:0:0:
358,192,60639,1,0,0:0:0:0:
460,192,60764,128,0,61139:0:0:0:70:
358,192,61139,1,0,0:0:0:70:
256,192,61232,1,0,0:0:0:0:
153,192,61326,1,0,0:0:0:0:
51,192,61514,128,8,61889:0:0:0:0:
358,192,61514,1,0,0:0:0:0:
460,192,61701,128,2,61889:0:0:0:70:
153,192,61795,1,0,0:0:0:0:
256,192,61889,1,8,0:0:0:0:
358,192,61889,1,0,0:0:0:0:
460,192,62076,128,2,62264:0:0:0:70:
51,192,62076,128,0,62451:0:0:0:0:
358,192,62170,1,0,0:0:0:0:
153,192,62264,1,8,0:0:0:0:
460,192,62451,128,2,62639:0:0:0:70:
256,192,62545,1,0,0:0:0:0:
153,192,62639,1,8,0:0:0:0:
51,192,62639,1,0,0:0:0:0:
460,192,62826,128,2,63014:0:0:0:70:
256,192,62826,128,0,63014:0:0:0:0:
153,192,62920,1,0,0:0:0:0:
51,192,63014,1,8,0:0:0:0:
460,192,63201,128,2,63389:0:0:0:70:
256,192,63201,128,0,64139:0:0:0:0:
358,192,63295,1,0,0:0:0:0:
153,192,63389,1,8,0:0:0:0:
51,192,63389,1,0,0:0:0:0:
460,192,63576,128,2,63764:0:0:0:70:
51,192,63670,1,0,0:0:0:0:
153,192,63764,1,8,0:0:0:0:
460,192,63951,128,2,64139:0:0:0:70:
358,192,64045,1,0,0:0:0:0:
51,192,64139,1,8,0:0:0:0:
153,192,64139,1,0,0:0:0:0:
358,192,64232,1,0,0:0:0:0:
460,192,64326,128,0,64514:0:0:0:0:
51,192,64420,1,0,0:0:0:0:
153,192,64514,128,8,64889:0:0:0:0:
460,192,64701,128,2,64889:0:0:0:70:
51,192,64795,1,0,0:0:0:0:
256,192,64889,1,8,0:0:0:0:
358,192,64889,1,0,0:0:0:0:
460,192,65076,128,2,65264:0:0:0:70:
153,192,65076,128,0,65451:0:0:0:0:
358,192,65170,1,0,0:0:0:0:
51,192,65264,1,8,0:0:0:0:
460,192,65451,128,2,65639:0:0:0:70:
256,192,65545,1,0,0:0:0:0:
51,192,65639,1,8,0:0:0:0:
153,192,65639,1,0,0:0:0:0:
460,192,65826,128,2,66014:0:0:0:70:
256,192,65826,128,0,66014:0:0:0:0:
51,192,65920,1,0,0:0:0:0:
153,192,66014,1,8,0:0:0:0:
460,192,66201,128,2,66389:0:0:0:70:
256,192,66201,128,0,67139:0:0:0:0:
358,192,66295,1,0,0:0:0:0:
51,192,66389,1,8,0:0:0:0:
153,192,66389,1,0,0:0:0:0:
460,192,66576,128,2,66764:0:0:0:70:
51,192,66670,1,0,0:0:0:0:
153,192,66764,1,8,0:0:0:0:
460,192,66951,128,2,67139:0:0:0:0:
358,192,67045,1,0,0:0:0:0:
51,192,67139,1,0,0:0:0:0:
153,192,67232,1,0,0:0:0:0:
460,192,67326,1,0,0:0:0:0:
358,192,67420,1,0,0:0:0:0:
256,192,67514,128,8,67889:0:0:0:0:
51,192,67701,128,2,67889:0:0:0:70:
153,192,67795,1,0,0:0:0:0:
358,192,67889,1,8,0:0:0:0:
460,192,67889,1,0,0:0:0:0:
256,192,68076,128,2,68451:0:0:0:70:
51,192,68076,128,0,68264:0:0:0:0:
358,192,68170,1,0,0:0:0:0:
460,192,68264,1,8,0:0:0:0:
51,192,68451,128,2,68639:0:0:0:70:
460,192,68545,1,0,0:0:0:0:
153,192,68639,1,8,0:0:0:0:
358,192,68639,1,0,0:0:0:0:
51,192,68826,128,2,69014:0:0:0:70:
460,192,68826,128,0,69014:0:0:0:0:
256,192,68920,1,0,0:0:0:0:
153,192,69014,1,8,0:0:0:0:
51,192,69201,128,2,69389:0:0:0:70:
460,192,69201,128,0,70139:0:0:0:0:
153,192,69295,1,0,0:0:0:0:
256,192,69389,1,8,0:0:0:0:
358,192,69389,1,0,0:0:0:0:
51,192,69576,128,2,69764:0:0:0:70:
153,192,69670,1,0,0:0:0:0:
358,192,69764,1,8,0:0:0:0:
51,192,69951,128,2,70139:0:0:0:70:
358,192,70045,1,0,0:0:0:0:
153,192,70139,1,8,0:0:0:0:
256,192,70139,1,0,0:0:0:0:
358,192,70232,1,0,0:0:0:0:
51,192,70326,128,0,70514:0:0:0:0:
460,192,70420,1,0,0:0:0:0:
358,192,70514,128,8,70889:0:0:0:0:
51,192,70701,128,2,70889:0:0:0:70:
460,192,70795,1,0,0:0:0:0:
153,192,70889,1,8,0:0:0:0:
256,192,70889,1,0,0:0:0:0:
358,192,71076,128,2,71451:0:0:0:70:
51,192,71076,128,0,71264:0:0:0:0:
153,192,71170,1,0,0:0:0:0:
460,192,71264,1,8,0:0:0:0:
51,192,71451,128,2,71639:0:0:0:70:
460,192,71545,1,0,0:0:0:0:
153,192,71639,1,8,0:0:0:0:
256,192,71639,1,0,0:0:0:0:
460,192,71826,128,2,72014:0:0:0:70:
51,192,71826,128,0,72014:0:0:0:0:
153,192,71920,1,0,0:0:0:0:
358,192,72014,1,8,0:0:0:0:
256,192,72107,1,0,0:0:0:0:
460,192,72201,128,2,73514:0:0:0:0:
153,192,72201,1,0,0:0:0:0:
51,192,72295,1,0,0:0:0:0:
256,192,72389,1,8,0:0:0:0:
153,192,72482,1,0,0:0:0:0:
51,192,72576,1,2,0:0:0:0:
256,192,72670,1,0,0:0:0:0:
358,192,72764,128,0,73139:0:0:0:70:
256,192,73139,1,0,0:0:0:70:
153,192,73232,1,0,0:0:0:0:
51,192,73326,1,0,0:0:0:0:
358,192,73420,1,0,0:0:0:0:
153,192,73514,1,8,0:0:0:0:
256,192,73514,128,0,73889:0:0:0:0:
51,192,73701,128,2,73889:0:0:0:0:
153,192,73795,1,0,0:0:0:0:
358,192,73889,1,8,0:0:0:0:
460,192,73889,1,0,0:0:0:0:
256,192,74076,128,2,74451:0:0:0:0:
51,192,74076,128,0,74264:0:0:0:70:
460,192,74170,1,0,0:0:0:0:
358,192,74264,1,8,0:0:0:0:
51,192,74451,128,2,74639:0:0:0:0:
153,192,74545,1,0,0:0:0:0:
460,192,74639,1,8,0:0:0:0:
358,192,74826,128,2,75014:0:0:0:0:
51,192,74826,128,0,75014:0:0:0:70:
153,192,74920,1,0,0:0:0:0:
256,192,75014,1,8,0:0:0:0:
358,192,75201,128,2,76139:0:0:0:70:
51,192,75201,128,0,75389:0:0:0:0:
460,192,75295,1,0,0:0:0:0:
153,192,75389,1,8,0:0:0:0:
256,192,75389,1,0,0:0:0:0:
51,192,75576,128,2,75764:0:0:0:0:
256,192,75670,1,0,0:0:0:0:
460,192,75764,1,8,0:0:0:0:
51,192,75951,128,0,76139:0:0:0:70:
460,192,76045,1,0,0:0:0:0:
153,192,76139,1,8,0:0:0:0:
256,192,76139,1,0,0:0:0:0:
460,192,76232,1,0,0:0:0:0:
51,192,76326,128,0,76514:0:0:0:0:
153,192,76420,1,0,0:0:0:0:
256,192,76514,128,8,76889:0:0:0:0:
51,192,76701,128,2,76889:0:0:0:70:
153,192,76795,1,0,0:0:0:0:
358,192,76889,1,8,0:0:0:0:
460,192,76889,1,0,0:0:0:0:
256,192,77076,128,0,77451:0:0:0:70:
51,192,77076,128,2,77264:0:0:0:0:
460,192,77170,1,0,0:0:0:0:
358,192,77264,1,8,0:0:0:0:
51,192,77451,128,2,77639:0:0:0:70:
460,192,77545,1,0,0:0:0:0:
153,192,77639,1,8,0:0:0:0:
358,192,77639,1,0,0:0:0:0:
460,192,77826,128,0,78014:0:0:0:70:
51,192,77826,128,2,78014:0:0:0:0:
256,192,78014,1,0,0:0:0:0:
153,192,78107,1,0,0:0:0:0:
51,192,78201,1,0,0:0:0:0:
460,192,78201,128,0,79514:0:0:0:0:
256,192,78389,1,0,0:0:0:0:
358,192,78482,1,0,0:0:0:0:
153,192,78576,1,0,0:0:0:0:
51,192,78670,1,0,0:0:0:0:
256,192,78764,128,0,79139:0:0:0:0:
358,192,79139,1,0,0:0:0:0:
51,192,79232,1,0,0:0:0:0:
153,192,79326,1,0,0:0:0:0:
51,192,79514,128,8,79889:0:0:0:0:
256,192,79701,128,2,79889:0:0:0:70:
153,192,79795,1,0,0:0:0:0:
358,192,79889,1,8,0:0:0:0:
460,192,79889,1,0,0:0:0:0:
256,192,80076,128,2,80264:0:0:0:70:
51,192,80076,128,0,80451:0:0:0:0:
460,192,80170,1,0,0:0:0:0:
153,192,80264,1,8,0:0:0:0:
256,192,80451,128,0,80639:0:0:0:70:
153,192,80545,1,0,0:0:0:0:
358,192,80639,1,8,0:0:0:0:
460,192,80639,1,0,0:0:0:0:
256,192,80826,128,0,81014:0:0:0:70:
153,192,80826,128,2,81014:0:0:0:0:
460,192,80920,1,0,0:0:0:0:
51,192,81014,1,8,0:0:0:0:
256,192,81201,128,2,81389:0:0:0:70:
153,192,81201,128,0,82139:0:0:0:0:
51,192,81295,1,0,0:0:0:0:
358,192,81389,1,8,0:0:0:0:
460,192,81389,1,0,0:0:0:0:
256,192,81576,128,2,81764:0:0:0:70:
460,192,81670,1,0,0:0:0:0:
51,192,81764,1,8,0:0:0:0:
256,192,81951,128,2,82139:0:0:0:0:
358,192,82045,1,0,0:0:0:0:
51,192,82139,1,8,0:0:0:0:
460,192,82139,1,0,0:0:0:0:
358,192,82232,1,0,0:0:0:0:
256,192,82326,128,0,82514:0:0:0:0:
153,192,82420,1,0,0:0:0:0:
358,192,82514,128,8,82889:0:0:0:0:
256,192,82701,128,2,82889:0:0:0:70:
460,192,82795,1,0,0:0:0:0:
51,192,82889,1,8,0:0:0:0:
153,192,82889,1,0,0:0:0:0:
358,192,83076,128,2,83451:0:0:0:0:
256,192,83076,128,0,83264:0:0:0:70:
153,192,83170,1,0,0:0:0:0:
51,192,83264,1,8,0:0:0:0:
256,192,83451,128,2,83639:0:0:0:70:
460,192,83545,1,0,0:0:0:0:
153,192,83639,1,8,0:0:0:0:
51,192,83639,1,0,0:0:0:0:
460,192,83826,128,0,84014:0:0:0:70:
256,192,83826,128,2,84014:0:0:0:0:
358,192,83920,1,0,0:0:0:0:
51,192,84014,5,0,0:0:0:0:
153,192,84107,1,0,0:0:0:0:
358,192,84201,128,0,84389:0:0:0:0:
460,192,84201,128,0,85326:0:0:0:0:
256,192,84389,128,0,84576:0:0:0:0:
51,192,84576,128,0,84764:0:0:0:0:
153,192,84764,128,0,84951:0:0:0:0:
358,192,84951,128,0,85139:0:0:0:0:
256,192,85139,128,0,85326:0:0:0:0:
460,192,85514,128,8,86264:0:0:0:0:
51,192,85514,1,0,0:0:0:0:
51,192,85701,1,8,0:0:0:0:
256,192,85889,1,4,0:0:0:0:
358,192,85889,1,0,0:0:0:0:
153,192,86076,1,0,0:0:0:0:
51,192,86170,1,0,0:0:0:0:
358,192,86264,128,0,87014:0:0:0:0:
256,192,86357,1,0,0:0:0:0:
153,192,86451,1,0,0:0:0:0:
256,192,86545,1,0,0:0:0:0:
460,192,86639,1,4,0:0:0:0:
51,192,86639,1,0,0:0:0:0:
256,192,86826,1,0,0:0:0:0:
153,192,86920,1,0,0:0:0:0:
51,192,87014,128,8,87764:0:0:0:0:
460,192,87014,1,0,0:0:0:0:
460,192,87201,1,8,0:0:0:0:
153,192,87389,1,4,0:0:0:0:
256,192,87389,1,0,0:0:0:0:
358,192,87576,1,0,0:0:0:0:
460,192,87670,1,0,0:0:0:0:
256,192,87764,128,0,88514:0:0:0:0:
358,192,87857,1,0,0:0:0:0:
153,192,87951,1,0,0:0:0:0:
51,192,88045,1,0,0:0:0:0:
358,192,88139,1,4,0:0:0:0:
460,192,88139,1,0,0:0:0:0:
51,192,88232,1,0,0:0:0:0:
153,192,88420,1,0,0:0:0:0:
358,192,88514,128,8,89264:0:0:0:0:
51,192,88514,1,0,0:0:0:0:
51,192,88701,1,8,0:0:0:0:
460,192,88889,1,4,0:0:0:0:
256,192,88889,1,0,0:0:0:0:
51,192,89076,1,0,0:0:0:0:
153,192,89170,1,0,0:0:0:0:
256,192,89264,128,0,90014:0:0:0:0:
460,192,89357,1,0,0:0:0:0:
358,192,89451,1,0,0:0:0:0:
51,192,89545,1,0,0:0:0:0:
153,192,89639,1,4,0:0:0:0:
460,192,89639,1,0,0:0:0:0:
358,192,89826,1,0,0:0:0:0:
153,192,89920,1,0,0:0:0:0:
460,192,90014,128,8,90764:0:0:0:0:
51,192,90014,1,0,0:0:0:0:
51,192,90201,1,8,0:0:0:0:
256,192,90389,1,0,0:0:0:0:
358,192,90389,1,0,0:0:0:0:
51,192,90576,1,0,0:0:0:0:
358,192,90670,1,0,0:0:0:0:
256,192,90764,1,4,0:0:0:0:
153,192,90857,1,0,0:0:0:0:
51,192,90951,128,0,91139:0:0:0:0:
153,192,91139,1,0,0:0:0:0:
256,192,91232,1,0,0:0:0:0:
153,192,91326,1,0,0:0:0:0:
256,192,91420,1,0,0:0:0:0:
358,192,91514,128,8,92264:0:0:0:0:
51,192,91514,1,0,0:0:0:0:
51,192,91701,1,8,0:0:0:0:
153,192,91889,1,4,0:0:0:0:
460,192,91889,1,0,0:0:0:0:
51,192,92076,1,0,0:0:0:0:
153,192,92170,1,0,0:0:0:0:
256,192,92264,128,0,93014:0:0:0:0:
460,192,92357,1,0,0:0:0:0:
153,192,92451,1,0,0:0:0:0:
51,192,92545,1,0,0:0:0:0:
358,192,92639,1,4,0:0:0:0:
460,192,92639,1,0,0:0:0:0:
51,192,92826,1,0,0:0:0:0:
153,192,92920,1,0,0:0:0:0:
51,192,93014,128,8,93764:0:0:0:0:
358,192,93014,1,0,0:0:0:0:
358,192,93201,1,8,0:0:0:0:
460,192,93389,1,4,0:0:0:0:
153,192,93389,1,0,0:0:0:0:
256,192,93576,1,0,0:0:0:0:
358,192,93670,1,0,0:0:0:0:
153,192,93764,128,0,94514:0:0:0:0:
460,192,93857,1,0,0:0:0:0:
256,192,93951,1,0,0:0:0:0:
358,192,94045,1,0,0:0:0:0:
51,192,94139,1,4,0:0:0:0:
460,192,94139,1,0,0:0:0:0:
256,192,94232,1,0,0:0:0:0:
358,192,94420,1,0,0:0:0:0:
460,192,94514,128,8,95264:0:0:0:0:
51,192,94514,1,0,0:0:0:0:
51,192,94701,1,8,0:0:0:0:
256,192,94889,1,4,0:0:0:0:
358,192,94889,1,0,0:0:0:0:
51,192,95076,1,0,0:0:0:0:
256,192,95170,1,0,0:0:0:0:
153,192,95264,128,0,96014:0:0:0:0:
358,192,95264,1,0,0:0:0:0:
358,192,95451,1,0,0:0:0:0:
256,192,95545,1,0,0:0:0:0:
51,192,95639,1,4,0:0:0:0:
460,192,95639,1,0,0:0:0:0:
256,192,95732,1,0,0:0:0:0:
358,192,95826,1,0,0:0:0:0:
51,192,95920,1,0,0:0:0:0:
460,192,96014,128,0,96764:0:0:0:70:8bit2.wav
358,192,96764,1,0,0:0:0:70:
51,192,96857,1,0,0:0:0:0:
358,192,96951,1,0,0:0:0:0:
153,192,97139,1,0,0:0:0:70:
460,192,97232,1,0,0:0:0:0:
153,192,97326,1,0,0:0:0:0:
358,192,97514,128,8,98264:0:0:0:0:
51,192,97514,1,0,0:0:0:0:
51,192,97701,1,0,0:0:0:70:
460,192,97795,1,0,0:0:0:0:
153,192,97889,1,8,0:0:0:0:
256,192,97889,1,4,0:0:0:0:
51,192,98076,1,2,0:0:0:70:
256,192,98170,1,0,0:0:0:0:
153,192,98264,128,8,99014:0:0:0:0:
460,192,98264,1,0,0:0:0:0:
51,192,98451,1,2,0:0:0:0:
256,192,98545,1,0,0:0:0:0:
358,192,98639,1,4,0:0:0:0:
460,192,98639,1,8,0:0:0:0:
256,192,98826,1,2,0:0:0:70:
460,192,98920,1,0,0:0:0:0:
51,192,99014,128,8,99764:0:0:0:0:
358,192,99014,1,0,0:0:0:0:
460,192,99201,1,0,0:0:0:70:
358,192,99295,1,0,0:0:0:0:
256,192,99389,1,4,0:0:0:0:
153,192,99389,1,8,0:0:0:0:
460,192,99576,1,2,0:0:0:70:
256,192,99670,1,0,0:0:0:0:
358,192,99764,128,8,100514:0:0:0:0:
153,192,99764,1,0,0:0:0:0:
460,192,99951,1,2,0:0:0:70:
256,192,100045,1,0,0:0:0:0:
51,192,100139,1,4,0:0:0:0:
153,192,100139,1,8,0:0:0:0:
460,192,100232,1,0,0:0:0:0:
153,192,100420,1,0,0:0:0:0:
460,192,100514,128,8,101264:0:0:0:0:
51,192,100514,1,0,0:0:0:0:
51,192,100701,1,2,0:0:0:70:
358,192,100795,1,0,0:0:0:0:
153,192,100889,5,8,0:0:0:0:
256,192,100889,1,4,0:0:0:0:
358,192,101076,1,2,0:0:0:70:
256,192,101170,1,0,0:0:0:0:
153,192,101264,128,8,102014:0:0:0:0:
51,192,101264,1,0,0:0:0:0:
256,192,101451,1,2,0:0:0:0:
51,192,101545,1,0,0:0:0:0:
358,192,101639,1,8,0:0:0:0:
460,192,101639,1,4,0:0:0:0:
256,192,101826,1,2,0:0:0:0:
358,192,101920,1,0,0:0:0:0:
460,192,102014,5,0,0:0:0:0:
51,192,102139,1,0,0:0:0:0:
358,192,102264,1,0,0:0:0:0:
153,192,102389,1,0,0:0:0:0:
256,192,102514,1,0,0:0:0:0:
358,192,102639,1,0,0:0:0:0:
51,192,102764,1,0,0:0:0:0:
460,192,102889,1,0,0:0:0:0:
153,192,103014,1,0,0:0:0:0:
256,192,103139,128,0,103389:0:0:0:0:
51,192,103389,1,0,0:0:0:0:
358,192,103514,128,8,104264:0:0:0:0:
460,192,103514,1,0,0:0:0:0:
256,192,103701,1,0,0:0:0:70:
460,192,103795,1,0,0:0:0:0:
51,192,103889,1,4,0:0:0:0:
153,192,103889,1,8,0:0:0:0:
460,192,104076,1,2,0:0:0:70:
256,192,104170,1,0,0:0:0:0:
153,192,104264,128,8,105014:0:0:0:0:
51,192,104264,1,0,0:0:0:0:
460,192,104451,1,2,0:0:0:70:
51,192,104545,1,0,0:0:0:0:
358,192,104639,1,4,0:0:0:0:
256,192,104639,1,8,0:0:0:0:
460,192,104826,1,0,0:0:0:70:
256,192,104920,1,0,0:0:0:0:
51,192,105014,128,8,105764:0:0:0:0:
358,192,105014,1,0,0:0:0:0:
256,192,105201,1,0,0:0:0:70:
358,192,105295,1,0,0:0:0:0:
153,192,105389,1,4,0:0:0:0:
460,192,105389,1,8,0:0:0:0:
358,192,105576,1,0,0:0:0:70:
460,192,105670,1,0,0:0:0:0:
256,192,105764,128,8,106514:0:0:0:0:
153,192,105764,1,0,0:0:0:0:
460,192,105857,1,0,0:0:0:0:
51,192,105951,1,2,0:0:0:0:
153,192,106045,1,0,0:0:0:0:
358,192,106139,1,4,0:0:0:0:
460,192,106139,1,8,0:0:0:0:
153,192,106232,1,0,0:0:0:0:
51,192,106420,1,0,0:0:0:0:
358,192,106514,128,8,107264:0:0:0:0:
153,192,106514,1,0,0:0:0:0:
460,192,106701,1,2,0:0:0:70:
256,192,106795,1,0,0:0:0:0:
51,192,106889,1,8,0:0:0:0:
153,192,106889,1,4,0:0:0:0:
256,192,107076,1,2,0:0:0:70:
460,192,107170,1,0,0:0:0:0:
153,192,107264,128,8,108014:0:0:0:0:
51,192,107264,1,0,0:0:0:0:
460,192,107451,1,0,0:0:0:70:
51,192,107545,1,0,0:0:0:0:
460,192,107639,1,8,0:0:0:0:
256,192,107639,1,4,0:0:0:0:
358,192,107826,1,0,0:0:0:70:
51,192,107920,1,0,0:0:0:0:
460,192,108014,128,8,108764:0:0:0:0:
256,192,108014,1,0,0:0:0:0:
358,192,108107,1,0,0:0:0:0:
153,192,108201,128,0,108764:0:0:0:0:
51,192,108764,128,0,109139:0:0:0:0:
256,192,109139,128,0,109326:0:0:0:0:
358,192,109326,1,0,0:0:0:0:
460,192,109514,1,8,0:0:0:0:
153,192,109514,128,0,110264:0:0:0:0:
256,192,109701,1,0,0:0:0:70:
358,192,109795,1,0,0:0:0:0:
460,192,109889,1,4,0:0:0:0:
51,192,109889,1,8,0:0:0:0:
256,192,110076,1,0,0:0:0:70:
358,192,110170,1,0,0:0:0:0:
51,192,110264,128,8,111014:0:0:0:0:
460,192,110264,1,0,0:0:0:0:
358,192,110451,1,0,0:0:0:70:
460,192,110545,1,0,0:0:0:0:
256,192,110639,1,8,0:0:0:0:
153,192,110639,1,4,0:0:0:0:
460,192,110826,1,0,0:0:0:70:
153,192,110920,1,0,0:0:0:0:
256,192,111014,128,8,111764:0:0:0:0:
358,192,111014,1,0,0:0:0:0:
460,192,111201,1,0,0:0:0:70:
358,192,111295,1,0,0:0:0:0:
51,192,111389,1,8,0:0:0:0:
153,192,111389,1,4,0:0:0:0:
460,192,111576,1,0,0:0:0:70:
51,192,111670,1,0,0:0:0:0:
358,192,111764,128,8,112514:0:0:0:0:
153,192,111764,1,0,0:0:0:0:
51,192,111951,1,0,0:0:0:70:
460,192,112045,1,0,0:0:0:0:
153,192,112139,1,8,0:0:0:0:
256,192,112139,1,4,0:0:0:0:
460,192,112232,1,0,0:0:0:0:
153,192,112420,1,0,0:0:0:0:
51,192,112514,128,8,113264:0:0:0:0:
460,192,112514,1,0,0:0:0:0:
256,192,112701,1,0,0:0:0:70:
153,192,112795,1,0,0:0:0:0:
358,192,112889,1,4,0:0:0:0:
460,192,112889,1,8,0:0:0:0:
153,192,113076,1,0,0:0:0:70:
358,192,113170,1,0,0:0:0:0:
256,192,113264,128,8,114014:0:0:0:0:
460,192,113264,1,0,0:0:0:0:
153,192,113451,1,0,0:0:0:70:
358,192,113545,1,0,0:0:0:0:
51,192,113639,1,4,0:0:0:0:
460,192,113639,1,8,0:0:0:0:
358,192,113826,1,0,0:0:0:70:
460,192,114014,128,8,114764:0:0:0:0:
51,192,114014,1,0,0:0:0:0:
153,192,114107,1,0,0:0:0:0:
358,192,114201,128,0,114389:0:0:0:0:
51,192,114389,128,0,114764:0:0:0:0:
358,192,114764,1,0,0:0:0:0:
153,192,114857,1,0,0:0:0:0:
256,192,114951,128,0,115139:0:0:0:0:
460,192,115139,128,0,115326:0:0:0:0:
51,192,115326,128,0,115514:0:0:0:0:
358,192,115514,1,8,0:0:0:0:
358,192,115701,1,8,0:0:0:70:
51,192,115889,1,4,0:0:0:0:
153,192,115889,1,0,0:0:0:0:
256,192,116076,1,0,0:0:0:70:
460,192,116170,1,0,0:0:0:0:
153,192,116264,1,0,0:0:0:0:
51,192,116357,1,0,0:0:0:0:
358,192,116451,1,0,0:0:0:70:
256,192,116545,1,0,0:0:0:0:
460,192,116639,1,4,0:0:0:0:
153,192,116639,1,0,0:0:0:0:
256,192,116826,1,0,0:0:0:70:
51,192,116920,1,0,0:0:0:0:
358,192,117014,1,8,0:0:0:0:
358,192,117201,1,8,0:0:0:0:
51,192,117389,1,4,0:0:0:0:
153,192,117389,1,0,0:0:0:0:
256,192,117576,1,0,0:0:0:70:
358,192,117670,1,0,0:0:0:0:
460,192,117764,1,0,0:0:0:0:
153,192,117857,1,0,0:0:0:0:
51,192,117951,1,0,0:0:0:70:
358,192,118045,1,0,0:0:0:0:
256,192,118139,1,4,0:0:0:0:
460,192,118139,1,0,0:0:0:0:
51,192,118232,1,0,0:0:0:0:
153,192,118420,1,0,0:0:0:0:
358,192,118514,1,8,0:0:0:0:
358,192,118701,1,0,0:0:0:70:
51,192,118889,5,4,0:0:0:0:
153,192,118889,1,0,0:0:0:0:
460,192,119076,1,0,0:0:0:70:
358,192,119170,1,0,0:0:0:0:
51,192,119264,1,8,0:0:0:0:
153,192,119357,1,0,0:0:0:0:
256,192,119451,1,8,0:0:0:70:
460,192,119639,1,4,0:0:0:0:
153,192,119639,1,0,0:0:0:0:
358,192,119826,1,0,0:0:0:70:
153,192,119920,1,0,0:0:0:0:
460,192,120014,5,8,0:0:0:0:
51,192,120014,1,0,0:0:0:0:
256,192,120139,1,8,0:0:0:0:
51,192,120264,1,8,0:0:0:0:
358,192,120389,1,8,0:0:0:0:
153,192,120514,1,8,0:0:0:0:
460,192,120639,1,8,0:0:0:0:
256,192,120764,1,8,0:0:0:0:
51,192,120889,1,8,0:0:0:0:
153,192,121014,1,8,0:0:0:0:
256,192,121139,1,8,0:0:0:0:
358,192,121139,128,0,121326:0:0:0:0:
256,192,121326,128,0,121514:0:0:0:0:
153,192,121326,1,0,0:0:0:0:
460,192,121514,1,4,0:0:0:0:
51,192,121514,1,0,0:0:0:0:
