osu file format v14

[General]
AudioFilename: Absurd_Gaff.mp3
AudioLeadIn: 0
PreviewTime: 49352
Countdown: 0
SampleSet: Soft
StackLeniency: 0.7
Mode: 3
LetterboxInBreaks: 0
SpecialStyle: 0
WidescreenStoryboard: 1

[Editor]
DistanceSpacing: 1.2
BeatDivisor: 4
GridSize: 8
TimelineZoom: 1.3

[Metadata]
Title:Absurd Gaff
TitleUnicode:Absurd Gaff
Artist:siromaru
ArtistUnicode:siromaru
Creator:-Kamikaze-
Version:_UJ's 6K Normal
Source:BMS
Tags:the of fighters 2008 resurrection bof2008 schranz _underjoy theziemniax ziemniak gekido- shxfted skalim tristan97 tornspirit frenzyli spoonguy paulmrm megative BillumMoto Janko MrDorian _Gezo_ Gezoda Nwolf zetera
BeatmapID:810940
BeatmapSetID:365073

[Difficulty]
HPDrainRate:8
CircleSize:6
OverallDifficulty:8
ApproachRate:5
SliderMultiplier:1.4
SliderTickRate:1

[Events]
//Background and Video events
0,0,"ms_title.jpg",0,0
Video,-592,"mentalstock_movie.avi"
//Break Periods
//Storyboard Layer 0 (Background)
//Storyboard Layer 1 (Fail)
//Storyboard Layer 2 (Pass)
//Storyboard Layer 3 (Foreground)
//Storyboard Sound Samples

[TimingPoints]
14,375,4,1,1,60,1,0
13514,-100,4,2,1,60,0,0
37514,-100,4,1,1,60,0,0
49514,-100,4,1,1,60,0,1
61139,-100,4,2,1,60,0,0
61514,-100,4,3,1,60,0,1
85139,-100,4,2,1,60,0,0
85514,-100,4,1,1,60,0,0
97514,-100,4,3,1,60,0,1
115514,-100,4,1,1,60,0,0

[HitObjects]
128,192,1514,5,0,0:0:0:0:
128,192,1701,1,0,0:0:0:0:
384,192,1889,1,0,0:0:0:0:
469,192,1889,1,0,0:0:0:0:
213,192,2264,1,0,0:0:0:0:
42,192,2639,1,0,0:0:0:0:
469,192,2639,1,0,0:0:0:0:
384,192,3014,1,0,0:0:0:0:
384,192,3201,1,0,0:0:0:0:
128,192,3389,1,0,0:0:0:0:
42,192,3389,1,0,0:0:0:0:
298,192,3764,1,0,0:0:0:0:
42,192,4139,1,0,0:0:0:0:
128,192,4232,1,0,0:0:0:0:
384,192,4420,1,0,0:0:0:0:
298,192,4514,1,0,0:0:0:0:
298,192,4701,1,0,0:0:0:0:
213,192,4889,1,0,0:0:0:0:
128,192,4889,1,0,0:0:0:0:
469,192,5264,1,0,0:0:0:0:
384,192,5639,1,0,0:0:0:0:
128,192,5639,1,0,0:0:0:0:
42,192,6014,1,0,0:0:0:0:
213,192,6139,1,0,0:0:0:0:
298,192,6264,1,0,0:0:0:0:
469,192,6389,1,0,0:0:0:0:
128,192,6514,1,0,0:0:0:0:
384,192,6639,1,0,0:0:0:0:
213,192,6764,1,0,0:0:0:0:
298,192,7139,1,0,0:0:0:0:
469,192,7514,1,0,0:0:0:0:
469,192,7701,1,0,0:0:0:0:
213,192,7889,1,0,0:0:0:0:
42,192,7889,1,0,0:0:0:0:
384,192,8264,1,0,0:0:0:0:
298,192,8639,1,0,0:0:0:0:
213,192,8639,1,0,0:0:0:0:
42,192,9014,1,0,0:0:0:0:
42,192,9201,1,0,0:0:0:0:
298,192,9389,1,0,0:0:0:0:
469,192,9389,1,0,0:0:0:0:
128,192,9764,1,0,0:0:0:0:
469,192,10139,1,0,0:0:0:0:
384,192,10232,1,0,0:0:0:0:
128,192,10420,1,0,0:0:0:0:
213,192,10514,1,0,0:0:0:0:
469,192,10514,128,0,12014:0:0:0:0:
298,192,10701,1,0,0:0:0:0:
42,192,10889,1,0,0:0:0:0:
128,192,10889,1,0,0:0:0:0:
213,192,11264,1,0,0:0:0:0:
298,192,11451,1,0,0:0:0:0:
213,192,11639,1,0,0:0:0:0:
128,192,11639,1,0,0:0:0:0:
42,192,12014,128,0,12764:0:0:0:0:
298,192,12764,1,0,0:0:0:0:
213,192,13139,1,0,0:0:0:0:
42,192,13514,1,0,0:0:0:0:
469,192,13514,1,0,0:0:0:0:
469,192,13889,1,0,0:0:0:0:
128,192,13889,1,0,0:0:0:0:
42,192,14264,1,0,0:0:0:0:
469,192,14264,1,0,0:0:0:0:
384,192,14639,1,0,0:0:0:0:
42,192,14639,1,0,0:0:0:0:
384,192,15014,1,0,0:0:0:0:
128,192,15014,1,0,0:0:0:0:
298,192,15389,1,0,0:0:0:0:
128,192,15389,1,0,0:0:0:0:
128,192,15764,1,0,0:0:0:0:
384,192,15764,1,0,0:0:0:0:
384,192,16139,1,0,0:0:0:0:
213,192,16139,1,0,0:0:0:0:
42,192,16514,1,0,0:0:0:0:
298,192,16514,1,0,0:0:0:0:
213,192,16889,1,0,0:0:0:0:
469,192,16889,1,0,0:0:0:0:
42,192,17264,1,0,0:0:0:0:
384,192,17264,1,0,0:0:0:0:
469,192,17639,1,0,0:0:0:0:
128,192,17639,1,0,0:0:0:0:
42,192,18014,1,0,0:0:0:0:
298,192,18014,1,0,0:0:0:0:
128,192,18389,1,0,0:0:0:0:
384,192,18389,1,0,0:0:0:0:
469,192,18764,1,0,0:0:0:0:
42,192,18764,1,0,0:0:0:0:
128,192,19139,128,0,19514:0:0:0:0:
384,192,19514,1,0,0:0:0:0:
469,192,19514,1,0,0:0:0:0:
42,192,19889,1,0,0:0:0:0:
128,192,19889,1,0,0:0:0:0:
384,192,20264,1,0,0:0:0:0:
298,192,20264,1,0,0:0:0:0:
128,192,20639,1,0,0:0:0:0:
213,192,20639,1,0,0:0:0:0:
298,192,21014,1,0,0:0:0:0:
469,192,21014,1,0,0:0:0:0:
42,192,21389,1,0,0:0:0:0:
213,192,21389,1,0,0:0:0:0:
298,192,21764,1,0,0:0:0:0:
384,192,21764,1,0,0:0:0:0:
128,192,22139,1,0,0:0:0:0:
213,192,22139,1,0,0:0:0:0:
384,192,22514,1,0,0:0:0:0:
469,192,22514,1,0,0:0:0:0:
213,192,22889,1,0,0:0:0:0:
128,192,22889,1,0,0:0:0:0:
298,192,23264,1,0,0:0:0:0:
384,192,23264,1,0,0:0:0:0:
42,192,23639,1,0,0:0:0:0:
128,192,23639,1,0,0:0:0:0:
469,192,24014,128,0,24389:0:0:0:0:
384,192,24389,128,0,24764:0:0:0:0:
298,192,24764,128,0,25139:0:0:0:0:
213,192,25139,128,0,25514:0:0:0:0:
384,192,25514,1,0,0:0:0:0:
42,192,25514,1,0,0:0:0:0:
128,192,25889,1,0,0:0:0:0:
298,192,25889,1,0,0:0:0:0:
213,192,26264,1,0,0:0:0:0:
384,192,26264,128,0,26639:0:0:0:0:
298,192,26639,1,0,0:0:0:0:
42,192,26639,1,0,0:0:0:0:
469,192,27014,1,0,0:0:0:0:
213,192,27014,128,0,27389:0:0:0:0:
384,192,27389,1,0,0:0:0:0:
128,192,27389,1,0,0:0:0:0:
42,192,27764,1,0,0:0:0:0:
469,192,27764,128,0,28139:0:0:0:0:
384,192,28139,1,0,0:0:0:0:
213,192,28139,1,0,0:0:0:0:
298,192,28514,1,0,0:0:0:0:
128,192,28514,128,0,28889:0:0:0:0:
213,192,28889,1,0,0:0:0:0:
469,192,28889,1,0,0:0:0:0:
42,192,29264,1,0,0:0:0:0:
384,192,29264,128,0,29639:0:0:0:0:
128,192,29639,1,0,0:0:0:0:
469,192,29639,1,0,0:0:0:0:
298,192,30014,1,0,0:0:0:0:
213,192,30014,1,0,0:0:0:0:
213,192,30389,1,0,0:0:0:0:
298,192,30389,1,0,0:0:0:0:
42,192,30764,128,0,31139:0:0:0:0:
128,192,31139,128,0,31514:0:0:0:0:
469,192,31514,1,0,0:0:0:0:
298,192,31514,1,0,0:0:0:0:
213,192,31889,1,0,0:0:0:0:
384,192,31889,1,0,0:0:0:0:
42,192,32264,128,0,32639:0:0:0:0:
128,192,32264,1,0,0:0:0:0:
298,192,32639,1,0,0:0:0:0:
384,192,32639,1,0,0:0:0:0:
128,192,33014,128,0,33389:0:0:0:0:
213,192,33014,1,0,0:0:0:0:
384,192,33389,1,0,0:0:0:0:
469,192,33389,1,0,0:0:0:0:
298,192,33764,128,0,34139:0:0:0:0:
213,192,33764,1,0,0:0:0:0:
42,192,34139,1,0,0:0:0:0:
128,192,34139,1,0,0:0:0:0:
384,192,34514,128,0,34889:0:0:0:0:
298,192,34514,1,0,0:0:0:0:
128,192,34889,1,0,0:0:0:0:
213,192,34889,1,0,0:0:0:0:
469,192,35264,128,0,35639:0:0:0:0:
384,192,35264,1,0,0:0:0:0:
213,192,35639,1,0,0:0:0:0:
298,192,35639,1,0,0:0:0:0:
42,192,36014,1,0,0:0:0:0:
384,192,36389,128,0,36764:0:0:0:0:
128,192,36764,1,0,0:0:0:0:
298,192,37139,128,0,37514:0:0:0:0:
42,192,37514,1,0,0:0:0:0:
42,192,37701,1,0,0:0:0:0:
469,192,37889,1,0,0:0:0:0:
213,192,37889,1,0,0:0:0:0:
384,192,38264,1,0,0:0:0:0:
298,192,38451,1,0,0:0:0:0:
213,192,38639,1,0,0:0:0:0:
128,192,38639,1,0,0:0:0:0:
469,192,39014,1,0,0:0:0:0:
469,192,39201,1,0,0:0:0:0:
298,192,39389,1,0,0:0:0:0:
42,192,39389,1,0,0:0:0:0:
128,192,39764,1,0,0:0:0:0:
213,192,39951,1,0,0:0:0:0:
384,192,40139,1,0,0:0:0:0:
298,192,40232,1,0,0:0:0:0:
42,192,40420,1,0,0:0:0:0:
128,192,40514,1,0,0:0:0:0:
128,192,40701,1,0,0:0:0:0:
384,192,40889,1,0,0:0:0:0:
469,192,40889,1,0,0:0:0:0:
298,192,41264,1,0,0:0:0:0:
213,192,41451,1,0,0:0:0:0:
128,192,41639,1,0,0:0:0:0:
469,192,41639,1,0,0:0:0:0:
298,192,42014,128,0,42389:0:0:0:0:
128,192,42389,1,0,0:0:0:0:
42,192,42389,128,0,42764:0:0:0:0:
469,192,42764,128,0,43139:0:0:0:0:
298,192,43139,128,0,43514:0:0:0:0:
128,192,43514,1,0,0:0:0:0:
128,192,43701,1,0,0:0:0:0:
469,192,43889,1,0,0:0:0:0:
384,192,43889,1,0,0:0:0:0:
213,192,44264,1,0,0:0:0:0:
298,192,44451,1,0,0:0:0:0:
42,192,44639,1,0,0:0:0:0:
128,192,44639,1,0,0:0:0:0:
384,192,45014,1,0,0:0:0:0:
384,192,45201,1,0,0:0:0:0:
213,192,45389,1,0,0:0:0:0:
42,192,45389,1,0,0:0:0:0:
298,192,45764,1,0,0:0:0:0:
213,192,45951,1,0,0:0:0:0:
298,192,46139,1,0,0:0:0:0:
384,192,46232,1,0,0:0:0:0:
128,192,46420,1,0,0:0:0:0:
213,192,46514,1,0,0:0:0:0:
213,192,46701,1,0,0:0:0:0:
298,192,46889,1,0,0:0:0:0:
384,192,46889,1,0,0:0:0:0:
42,192,47264,1,0,0:0:0:0:
469,192,47451,1,0,0:0:0:0:
298,192,47639,1,0,0:0:0:0:
213,192,47639,1,0,0:0:0:0:
42,192,48014,128,0,48389:0:0:0:0:
213,192,48389,128,0,48764:0:0:0:0:
469,192,48764,1,0,0:0:0:0:
384,192,48857,1,0,0:0:0:0:
298,192,48951,1,0,0:0:0:0:
213,192,49045,1,0,0:0:0:0:
128,192,49139,1,0,0:0:0:0:
42,192,49139,128,0,49514:0:0:0:0:
384,192,49514,128,0,49889:0:0:0:0:
298,192,49889,1,0,0:0:0:0:
128,192,50076,128,0,50451:0:0:0:0:
298,192,50639,1,0,0:0:0:0:
213,192,50826,1,0,0:0:0:0:
213,192,51201,1,0,0:0:0:0:
384,192,51389,128,0,52139:0:0:0:0:
42,192,52139,1,0,0:0:0:0:
213,192,52232,1,0,0:0:0:0:
469,192,52420,1,0,0:0:0:0:
298,192,52514,128,0,52889:0:0:0:0:
213,192,52889,1,0,0:0:0:0:
42,192,53076,128,0,53451:0:0:0:0:
213,192,53639,1,0,0:0:0:0:
298,192,53826,1,0,0:0:0:0:
298,192,54201,1,0,0:0:0:0:
384,192,54389,128,0,55139:0:0:0:0:
128,192,55139,128,0,55514:0:0:0:0:
298,192,55514,128,0,55889:0:0:0:0:
469,192,55889,1,0,0:0:0:0:
213,192,56076,128,0,56451:0:0:0:0:
128,192,56639,1,0,0:0:0:0:
298,192,56826,1,0,0:0:0:0:
298,192,57201,1,0,0:0:0:0:
384,192,57389,128,0,58139:0:0:0:0:
42,192,58139,1,0,0:0:0:0:
128,192,58232,1,0,0:0:0:0:
384,192,58420,1,0,0:0:0:0:
298,192,58514,128,0,58889:0:0:0:0:
213,192,58889,1,0,0:0:0:0:
128,192,59076,128,0,59451:0:0:0:0:
384,192,59639,1,0,0:0:0:0:
298,192,59826,1,0,0:0:0:0:
42,192,60014,1,0,0:0:0:0:
213,192,60139,1,0,0:0:0:0:
384,192,60264,1,0,0:0:0:0:
128,192,60389,1,0,0:0:0:0:
298,192,60514,1,0,0:0:0:0:
469,192,60639,1,0,0:0:0:0:
213,192,60764,128,0,61139:0:0:0:0:
298,192,61139,1,0,0:0:0:0:
42,192,61514,1,0,0:0:0:0:
469,192,61514,1,0,0:0:0:0:
298,192,61701,1,0,0:0:0:0:
128,192,61889,1,0,0:0:0:0:
213,192,61889,1,0,0:0:0:0:
384,192,62076,1,0,0:0:0:0:
42,192,62264,1,0,0:0:0:0:
213,192,62264,1,0,0:0:0:0:
298,192,62451,1,0,0:0:0:0:
128,192,62639,1,0,0:0:0:0:
42,192,62639,1,0,0:0:0:0:
469,192,62826,1,0,0:0:0:0:
298,192,63014,1,0,0:0:0:0:
384,192,63014,1,0,0:0:0:0:
128,192,63201,1,0,0:0:0:0:
298,192,63389,1,0,0:0:0:0:
469,192,63389,1,0,0:0:0:0:
42,192,63576,1,0,0:0:0:0:
384,192,63764,1,0,0:0:0:0:
469,192,63764,1,0,0:0:0:0:
213,192,63951,1,0,0:0:0:0:
298,192,64139,1,0,0:0:0:0:
469,192,64139,1,0,0:0:0:0:
213,192,64326,1,0,0:0:0:0:
42,192,64514,1,0,0:0:0:0:
469,192,64514,1,0,0:0:0:0:
384,192,64701,1,0,0:0:0:0:
42,192,64889,1,0,0:0:0:0:
128,192,64889,1,0,0:0:0:0:
298,192,65076,1,0,0:0:0:0:
42,192,65264,1,0,0:0:0:0:
213,192,65264,1,0,0:0:0:0:
469,192,65451,1,0,0:0:0:0:
213,192,65639,1,0,0:0:0:0:
128,192,65639,1,0,0:0:0:0:
298,192,65826,1,0,0:0:0:0:
384,192,66014,1,0,0:0:0:0:
469,192,66014,1,0,0:0:0:0:
128,192,66201,1,0,0:0:0:0:
298,192,66389,1,0,0:0:0:0:
469,192,66389,1,0,0:0:0:0:
213,192,66576,1,0,0:0:0:0:
298,192,66764,1,0,0:0:0:0:
384,192,66764,1,0,0:0:0:0:
42,192,66951,1,0,0:0:0:0:
469,192,67139,128,0,67514:0:0:0:0:
128,192,67514,1,0,0:0:0:0:
384,192,67514,1,0,0:0:0:0:
213,192,67701,1,0,0:0:0:0:
298,192,67889,1,0,0:0:0:0:
469,192,67889,1,0,0:0:0:0:
128,192,68076,1,0,0:0:0:0:
213,192,68264,1,0,0:0:0:0:
384,192,68264,1,0,0:0:0:0:
42,192,68451,1,0,0:0:0:0:
128,192,68639,1,0,0:0:0:0:
298,192,68639,1,0,0:0:0:0:
469,192,68826,1,0,0:0:0:0:
213,192,69014,1,0,0:0:0:0:
384,192,69014,1,0,0:0:0:0:
42,192,69201,1,0,0:0:0:0:
128,192,69389,1,0,0:0:0:0:
298,192,69389,1,0,0:0:0:0:
469,192,69576,1,0,0:0:0:0:
213,192,69764,1,0,0:0:0:0:
42,192,69764,1,0,0:0:0:0:
384,192,69951,1,0,0:0:0:0:
298,192,70139,1,0,0:0:0:0:
128,192,70139,1,0,0:0:0:0:
469,192,70326,1,0,0:0:0:0:
213,192,70514,1,0,0:0:0:0:
42,192,70514,1,0,0:0:0:0:
384,192,70701,1,0,0:0:0:0:
128,192,70889,1,0,0:0:0:0:
298,192,70889,1,0,0:0:0:0:
469,192,71076,1,0,0:0:0:0:
213,192,71264,1,0,0:0:0:0:
384,192,71264,1,0,0:0:0:0:
42,192,71451,1,0,0:0:0:0:
298,192,71639,1,0,0:0:0:0:
469,192,71639,1,0,0:0:0:0:
128,192,71826,1,0,0:0:0:0:
384,192,72014,128,0,72764:0:0:0:0:
128,192,72764,128,0,73326:0:0:0:0:
469,192,73514,1,0,0:0:0:0:
298,192,73514,1,0,0:0:0:0:
213,192,73701,1,0,0:0:0:0:
42,192,73889,1,0,0:0:0:0:
128,192,73889,1,0,0:0:0:0:
298,192,74076,1,0,0:0:0:0:
213,192,74264,1,0,0:0:0:0:
42,192,74264,1,0,0:0:0:0:
298,192,74451,1,0,0:0:0:0:
384,192,74639,1,0,0:0:0:0:
469,192,74639,1,0,0:0:0:0:
128,192,74826,1,0,0:0:0:0:
213,192,75014,1,0,0:0:0:0:
298,192,75014,1,0,0:0:0:0:
384,192,75201,1,0,0:0:0:0:
469,192,75389,1,0,0:0:0:0:
42,192,75389,1,0,0:0:0:0:
128,192,75576,1,0,0:0:0:0:
213,192,75764,1,0,0:0:0:0:
298,192,75764,1,0,0:0:0:0:
384,192,75951,1,0,0:0:0:0:
469,192,76139,1,0,0:0:0:0:
42,192,76139,1,0,0:0:0:0:
298,192,76326,1,0,0:0:0:0:
128,192,76514,1,0,0:0:0:0:
213,192,76514,1,0,0:0:0:0:
384,192,76701,1,0,0:0:0:0:
213,192,76889,1,0,0:0:0:0:
298,192,76889,1,0,0:0:0:0:
42,192,77076,1,0,0:0:0:0:
298,192,77264,1,0,0:0:0:0:
384,192,77264,1,0,0:0:0:0:
128,192,77451,1,0,0:0:0:0:
384,192,77639,1,0,0:0:0:0:
469,192,77639,1,0,0:0:0:0:
213,192,77826,1,0,0:0:0:0:
42,192,78014,128,0,78389:0:0:0:0:
298,192,78389,1,0,0:0:0:0:
213,192,78764,128,0,79326:0:0:0:0:
384,192,79514,1,0,0:0:0:0:
128,192,79514,1,0,0:0:0:0:
298,192,79701,1,0,0:0:0:0:
213,192,79889,1,0,0:0:0:0:
469,192,79889,1,0,0:0:0:0:
128,192,80076,1,0,0:0:0:0:
42,192,80264,1,0,0:0:0:0:
298,192,80264,1,0,0:0:0:0:
384,192,80451,1,0,0:0:0:0:
213,192,80639,1,0,0:0:0:0:
469,192,80639,1,0,0:0:0:0:
298,192,80826,1,0,0:0:0:0:
384,192,81014,1,0,0:0:0:0:
128,192,81014,1,0,0:0:0:0:
213,192,81201,1,0,0:0:0:0:
298,192,81389,1,0,0:0:0:0:
42,192,81389,1,0,0:0:0:0:
469,192,81576,1,0,0:0:0:0:
384,192,81764,1,0,0:0:0:0:
128,192,81764,1,0,0:0:0:0:
298,192,81951,1,0,0:0:0:0:
213,192,82139,1,0,0:0:0:0:
469,192,82139,1,0,0:0:0:0:
128,192,82326,1,0,0:0:0:0:
42,192,82514,1,0,0:0:0:0:
298,192,82514,1,0,0:0:0:0:
213,192,82701,1,0,0:0:0:0:
384,192,82889,1,0,0:0:0:0:
128,192,82889,1,0,0:0:0:0:
298,192,83076,1,0,0:0:0:0:
469,192,83264,1,0,0:0:0:0:
213,192,83264,1,0,0:0:0:0:
42,192,83451,1,0,0:0:0:0:
128,192,83639,1,0,0:0:0:0:
384,192,83639,1,0,0:0:0:0:
213,192,83826,1,0,0:0:0:0:
469,192,84014,128,0,84389:0:0:0:0:
128,192,84389,128,0,85139:0:0:0:0:
384,192,85514,1,0,0:0:0:0:
128,192,85701,1,0,0:0:0:0:
298,192,85889,1,0,0:0:0:0:
469,192,85889,1,0,0:0:0:0:
42,192,86264,1,0,0:0:0:0:
213,192,86451,1,0,0:0:0:0:
384,192,86639,1,0,0:0:0:0:
128,192,87014,1,0,0:0:0:0:
384,192,87201,1,0,0:0:0:0:
213,192,87389,1,0,0:0:0:0:
42,192,87389,1,0,0:0:0:0:
469,192,87764,1,0,0:0:0:0:
298,192,87951,1,0,0:0:0:0:
128,192,88139,1,0,0:0:0:0:
213,192,88514,1,0,0:0:0:0:
298,192,88701,1,0,0:0:0:0:
213,192,88889,1,0,0:0:0:0:
42,192,88889,1,0,0:0:0:0:
384,192,89264,1,0,0:0:0:0:
128,192,89451,1,0,0:0:0:0:
384,192,89639,1,0,0:0:0:0:
42,192,90014,1,0,0:0:0:0:
469,192,90201,1,0,0:0:0:0:
42,192,90389,1,0,0:0:0:0:
213,192,90389,1,0,0:0:0:0:
469,192,90764,128,0,91326:0:0:0:0:
128,192,91514,1,0,0:0:0:0:
213,192,91701,1,0,0:0:0:0:
298,192,91889,1,0,0:0:0:0:
42,192,91889,1,0,0:0:0:0:
469,192,92264,1,0,0:0:0:0:
298,192,92451,1,0,0:0:0:0:
128,192,92639,1,0,0:0:0:0:
384,192,93014,1,0,0:0:0:0:
298,192,93201,1,0,0:0:0:0:
213,192,93389,1,0,0:0:0:0:
469,192,93389,1,0,0:0:0:0:
42,192,93764,1,0,0:0:0:0:
213,192,93951,1,0,0:0:0:0:
384,192,94139,1,0,0:0:0:0:
128,192,94514,1,0,0:0:0:0:
298,192,94701,1,0,0:0:0:0:
213,192,94889,1,0,0:0:0:0:
469,192,94889,1,0,0:0:0:0:
384,192,95264,1,0,0:0:0:0:
213,192,95451,1,0,0:0:0:0:
42,192,95639,1,0,0:0:0:0:
469,192,96014,128,0,96764:0:0:0:0:
213,192,96764,1,0,0:0:0:0:
213,192,97139,128,0,97514:0:0:0:0:
469,192,97514,1,0,0:0:0:0:
42,192,97514,1,0,0:0:0:0:
298,192,97701,1,0,0:0:0:0:
128,192,97889,1,0,0:0:0:0:
213,192,97889,1,0,0:0:0:0:
384,192,98076,1,0,0:0:0:0:
42,192,98264,1,0,0:0:0:0:
469,192,98264,1,0,0:0:0:0:
298,192,98451,1,0,0:0:0:0:
213,192,98639,1,0,0:0:0:0:
128,192,98639,1,0,0:0:0:0:
384,192,98826,1,0,0:0:0:0:
42,192,99014,1,0,0:0:0:0:
469,192,99014,1,0,0:0:0:0:
128,192,99201,1,0,0:0:0:0:
298,192,99389,1,0,0:0:0:0:
384,192,99389,1,0,0:0:0:0:
213,192,99576,1,0,0:0:0:0:
42,192,99764,1,0,0:0:0:0:
469,192,99764,1,0,0:0:0:0:
128,192,99951,1,0,0:0:0:0:
298,192,100139,1,0,0:0:0:0:
384,192,100139,1,0,0:0:0:0:
213,192,100326,1,0,0:0:0:0:
298,192,100514,1,0,0:0:0:0:
469,192,100514,1,0,0:0:0:0:
42,192,100701,1,0,0:0:0:0:
213,192,100889,1,0,0:0:0:0:
384,192,100889,1,0,0:0:0:0:
128,192,101076,1,0,0:0:0:0:
298,192,101264,1,0,0:0:0:0:
469,192,101264,1,0,0:0:0:0:
42,192,101451,1,0,0:0:0:0:
213,192,101639,1,0,0:0:0:0:
384,192,101639,1,0,0:0:0:0:
128,192,101826,1,0,0:0:0:0:
298,192,102014,1,0,0:0:0:0:
213,192,102139,1,0,0:0:0:0:
384,192,102264,1,0,0:0:0:0:
128,192,102389,1,0,0:0:0:0:
469,192,102514,1,0,0:0:0:0:
42,192,102639,1,0,0:0:0:0:
384,192,102764,1,0,0:0:0:0:
128,192,102889,1,0,0:0:0:0:
298,192,103014,1,0,0:0:0:0:
213,192,103139,128,0,103420:0:0:0:0:
469,192,103514,1,0,0:0:0:0:
384,192,103514,1,0,0:0:0:0:
298,192,103701,1,0,0:0:0:0:
128,192,103889,1,0,0:0:0:0:
42,192,103889,1,0,0:0:0:0:
213,192,104076,1,0,0:0:0:0:
384,192,104264,1,0,0:0:0:0:
298,192,104264,1,0,0:0:0:0:
213,192,104451,1,0,0:0:0:0:
128,192,104639,1,0,0:0:0:0:
42,192,104639,1,0,0:0:0:0:
298,192,104826,1,0,0:0:0:0:
384,192,105014,1,0,0:0:0:0:
469,192,105014,1,0,0:0:0:0:
298,192,105201,1,0,0:0:0:0:
128,192,105389,1,0,0:0:0:0:
213,192,105389,1,0,0:0:0:0:
42,192,105576,1,0,0:0:0:0:
298,192,105764,1,0,0:0:0:0:
384,192,105764,1,0,0:0:0:0:
213,192,105951,1,0,0:0:0:0:
384,192,106139,1,0,0:0:0:0:
469,192,106139,1,0,0:0:0:0:
298,192,106326,1,0,0:0:0:0:
42,192,106514,1,0,0:0:0:0:
213,192,106514,1,0,0:0:0:0:
384,192,106701,1,0,0:0:0:0:
128,192,106889,1,0,0:0:0:0:
298,192,106889,1,0,0:0:0:0:
469,192,107076,1,0,0:0:0:0:
213,192,107264,1,0,0:0:0:0:
42,192,107264,1,0,0:0:0:0:
384,192,107451,1,0,0:0:0:0:
128,192,107639,1,0,0:0:0:0:
298,192,107639,1,0,0:0:0:0:
469,192,107826,1,0,0:0:0:0:
42,192,108014,1,0,0:0:0:0:
213,192,108201,128,0,108764:0:0:0:0:
298,192,108764,1,0,0:0:0:0:
42,192,109139,128,0,109514:0:0:0:0:
469,192,109514,1,0,0:0:0:0:
128,192,109514,1,0,0:0:0:0:
298,192,109701,1,0,0:0:0:0:
384,192,109889,1,0,0:0:0:0:
42,192,109889,1,0,0:0:0:0:
213,192,110076,1,0,0:0:0:0:
128,192,110264,1,0,0:0:0:0:
469,192,110264,1,0,0:0:0:0:
298,192,110451,1,0,0:0:0:0:
384,192,110639,1,0,0:0:0:0:
42,192,110639,1,0,0:0:0:0:
213,192,110826,1,0,0:0:0:0:
469,192,111014,1,0,0:0:0:0:
298,192,111014,1,0,0:0:0:0:
128,192,111201,1,0,0:0:0:0:
213,192,111389,1,0,0:0:0:0:
384,192,111389,1,0,0:0:0:0:
42,192,111576,1,0,0:0:0:0:
128,192,111764,1,0,0:0:0:0:
298,192,111764,1,0,0:0:0:0:
469,192,111951,1,0,0:0:0:0:
213,192,112139,1,0,0:0:0:0:
42,192,112139,1,0,0:0:0:0:
298,192,112326,1,0,0:0:0:0:
42,192,112514,1,0,0:0:0:0:
469,192,112514,1,0,0:0:0:0:
384,192,112701,1,0,0:0:0:0:
298,192,112889,1,0,0:0:0:0:
213,192,112889,1,0,0:0:0:0:
128,192,113076,1,0,0:0:0:0:
42,192,113264,1,0,0:0:0:0:
469,192,113264,1,0,0:0:0:0:
384,192,113451,1,0,0:0:0:0:
213,192,113639,1,0,0:0:0:0:
298,192,113639,1,0,0:0:0:0:
128,192,113826,1,0,0:0:0:0:
42,192,114014,128,0,114764:0:0:0:0:
384,192,114764,128,0,115139:0:0:0:0:
213,192,115139,128,0,115514:0:0:0:0:
469,192,115514,1,0,0:0:0:0:
384,192,115514,1,0,0:0:0:0:
298,192,115701,1,0,0:0:0:0:
128,192,115889,1,0,0:0:0:0:
42,192,115889,1,0,0:0:0:0:
384,192,116264,1,0,0:0:0:0:
213,192,116451,1,0,0:0:0:0:
42,192,116639,1,0,0:0:0:0:
298,192,117014,1,0,0:0:0:0:
128,192,117014,1,0,0:0:0:0:
384,192,117201,1,0,0:0:0:0:
469,192,117389,1,0,0:0:0:0:
213,192,117389,1,0,0:0:0:0:
42,192,117764,1,0,0:0:0:0:
128,192,117951,1,0,0:0:0:0:
213,192,118139,1,0,0:0:0:0:
469,192,118514,1,0,0:0:0:0:
42,192,118514,1,0,0:0:0:0:
298,192,118701,1,0,0:0:0:0:
213,192,118889,1,0,0:0:0:0:
384,192,118889,1,0,0:0:0:0:
128,192,119264,1,0,0:0:0:0:
213,192,119451,1,0,0:0:0:0:
298,192,119639,1,0,0:0:0:0:
128,192,120014,1,0,0:0:0:0:
384,192,120139,1,0,0:0:0:0:
213,192,120264,1,0,0:0:0:0:
298,192,120389,1,0,0:0:0:0:
128,192,120514,1,0,0:0:0:0:
384,192,120639,1,0,0:0:0:0:
213,192,120764,1,0,0:0:0:0:
298,192,120889,1,0,0:0:0:0:
128,192,121014,1,0,0:0:0:0:
298,192,121139,128,0,121514:0:0:0:0:
213,192,121139,128,0,121514:0:0:0:0:
42,192,121514,1,0,0:0:0:0:
469,192,121514,1,0,0:0:0:0:
