osu file format v14

[General]
AudioFilename: Absurd_Gaff.mp3
AudioLeadIn: 0
PreviewTime: 49352
Countdown: 0
SampleSet: None
StackLeniency: 0.7
Mode: 1
LetterboxInBreaks: 0
WidescreenStoryboard: 1

[Editor]
DistanceSpacing: 1.2
BeatDivisor: 4
GridSize: 32
TimelineZoom: 1.699999

[Metadata]
Title:Absurd Gaff
TitleUnicode:Absurd Gaff
Artist:siromaru
ArtistUnicode:siromaru
Creator:-Kamikaze-
Version:Zetera's Oni
Source:BMS
Tags:the of fighters 2008 resurrection bof2008 schranz _underjoy theziemniax ziemniak gekido- shxfted skalim tristan97 tornspirit frenzyli spoonguy paulmrm megative BillumMoto Janko MrDorian _Gezo_ Gezoda Nwolf zetera
BeatmapID:1083359
BeatmapSetID:365073

[Difficulty]
HPDrainRate:6
CircleSize:4
OverallDifficulty:6.5
ApproachRate:9
SliderMultiplier:1.4
SliderTickRate:1

[Events]
//Background and Video events
0,0,"ms_title.jpg",0,0
Video,-592,"mentalstock_movie.avi"
//Break Periods
//Storyboard Layer 0 (Background)
//Storyboard Layer 1 (Fail)
//Storyboard Layer 2 (Pass)
//Storyboard Layer 3 (Foreground)
//Storyboard Sound Samples

[TimingPoints]
14,375,4,1,0,100,1,0
61514,-100,4,1,0,100,0,1
85514,-100,4,1,0,100,0,0
97514,-100,4,1,0,100,0,1
121514,-100,4,1,0,100,0,0

[HitObjects]
256,192,1514,5,0,0:0:0:0:
256,160,1701,1,0,0:0:0:0:
288,160,1889,1,8,0:0:0:0:
320,160,2076,1,0,0:0:0:0:
320,160,2170,1,8,0:0:0:0:
320,160,2264,1,8,0:0:0:0:
416,192,2357,1,8,0:0:0:0:
352,192,2451,1,0,0:0:0:0:
352,160,2639,1,8,0:0:0:0:
352,160,3014,1,0,0:0:0:0:
320,128,3201,1,0,0:0:0:0:
384,128,3389,1,8,0:0:0:0:
320,128,3576,1,0,0:0:0:0:
416,160,3670,1,8,0:0:0:0:
416,160,3764,1,8,0:0:0:0:
384,128,3857,1,0,0:0:0:0:
448,160,4045,1,0,0:0:0:0:
448,160,4139,1,8,0:0:0:0:
160,160,4232,1,8,0:0:0:0:
448,160,4420,1,8,0:0:0:0:
480,128,4514,1,0,0:0:0:0:
224,128,4701,1,0,0:0:0:0:
384,128,4889,1,8,0:0:0:0:
384,160,5076,1,0,0:0:0:0:
416,160,5170,1,8,0:0:0:0:
416,160,5264,1,8,0:0:0:0:
416,160,5357,1,8,0:0:0:0:
288,128,5451,1,0,0:0:0:0:
288,128,5639,1,0,0:0:0:0:
288,160,6014,1,0,0:0:0:0:
288,160,6139,1,0,0:0:0:0:
288,160,6264,1,0,0:0:0:0:
288,160,6389,1,0,0:0:0:0:
288,160,6514,1,0,0:0:0:0:
288,160,6639,1,0,0:0:0:0:
288,160,6764,1,8,0:0:0:0:
288,160,6857,1,8,0:0:0:0:
448,160,6951,1,0,0:0:0:0:
448,160,7139,1,8,0:0:0:0:
448,160,7326,1,8,0:0:0:0:
448,160,7420,1,8,0:0:0:0:
384,160,7514,1,0,0:0:0:0:
192,128,7701,1,0,0:0:0:0:
384,160,7889,1,8,0:0:0:0:
352,128,8076,1,0,0:0:0:0:
256,160,8170,1,8,0:0:0:0:
256,160,8264,1,8,0:0:0:0:
256,160,8357,1,8,0:0:0:0:
384,160,8451,1,0,0:0:0:0:
384,160,8639,1,8,0:0:0:0:
512,160,9014,1,0,0:0:0:0:
192,96,9201,1,0,0:0:0:0:
320,128,9389,1,8,0:0:0:0:
384,128,9576,1,0,0:0:0:0:
320,128,9670,1,8,0:0:0:0:
320,128,9764,1,8,0:0:0:0:
384,128,9857,1,0,0:0:0:0:
384,128,10045,1,0,0:0:0:0:
352,128,10139,1,8,0:0:0:0:
352,128,10232,1,8,0:0:0:0:
384,160,10420,1,8,0:0:0:0:
384,128,10514,1,0,0:0:0:0:
384,160,10701,1,0,0:0:0:0:
224,160,10795,1,0,0:0:0:0:
320,128,10889,1,8,0:0:0:0:
288,160,11076,1,0,0:0:0:0:
384,160,11170,1,8,0:0:0:0:
384,160,11264,1,8,0:0:0:0:
384,160,11357,1,8,0:0:0:0:
384,160,11451,1,0,0:0:0:0:
416,160,11639,1,8,0:0:0:0:
448,160,11826,1,8,0:0:0:0:
448,160,11920,1,8,0:0:0:0:
416,128,12764,1,4,0:0:0:0:
416,128,13139,1,0,0:0:0:0:
320,160,13514,5,4,0:0:0:0:
480,192,13701,1,8,0:0:0:0:
480,192,13795,1,8,0:0:0:0:
448,160,13889,1,0,0:0:0:0:
416,160,14076,1,8,0:0:0:0:
384,160,14264,1,0,0:0:0:0:
416,160,14451,1,8,0:0:0:0:
416,160,14545,1,0,0:0:0:0:
448,192,14639,1,0,0:0:0:0:
384,160,14826,1,8,0:0:0:0:
352,160,15014,1,0,0:0:0:0:
352,224,15201,1,8,0:0:0:0:
512,192,15295,1,8,0:0:0:0:
384,192,15389,1,0,0:0:0:0:
384,160,15576,1,8,0:0:0:0:
448,160,15764,1,0,0:0:0:0:
448,160,15857,1,0,0:0:0:0:
448,160,15951,1,8,0:0:0:0:
448,160,16045,1,8,0:0:0:0:
480,160,16139,1,0,0:0:0:0:
448,160,16326,1,8,0:0:0:0:
288,128,16514,1,0,0:0:0:0:
288,192,16701,1,8,0:0:0:0:
288,192,16795,1,8,0:0:0:0:
320,192,16889,1,0,0:0:0:0:
352,160,17076,1,8,0:0:0:0:
352,160,17264,1,0,0:0:0:0:
320,192,17451,1,8,0:0:0:0:
384,192,17545,1,0,0:0:0:0:
384,192,17639,1,0,0:0:0:0:
384,160,17826,1,8,0:0:0:0:
320,160,18014,1,0,0:0:0:0:
352,160,18201,1,8,0:0:0:0:
352,160,18295,1,8,0:0:0:0:
416,160,18389,1,0,0:0:0:0:
384,160,18576,1,8,0:0:0:0:
416,160,18764,1,0,0:0:0:0:
416,160,18857,1,0,0:0:0:0:
448,160,18951,1,8,0:0:0:0:
480,160,19045,1,8,0:0:0:0:
448,192,19139,1,0,0:0:0:0:
448,192,19232,1,8,0:0:0:0:
448,192,19326,1,8,0:0:0:0:
448,192,19420,1,8,0:0:0:0:
448,192,19514,1,0,0:0:0:0:
256,160,19701,1,8,0:0:0:0:
384,192,19889,1,0,0:0:0:0:
384,192,19982,1,0,0:0:0:0:
448,160,20076,1,8,0:0:0:0:
288,160,20264,1,0,0:0:0:0:
416,160,20451,1,8,0:0:0:0:
352,128,20639,1,0,0:0:0:0:
480,192,20732,1,0,0:0:0:0:
480,192,20826,1,8,0:0:0:0:
416,160,21014,1,0,0:0:0:0:
468,193,21201,1,8,0:0:0:0:
288,192,21389,1,0,0:0:0:0:
288,224,21482,1,0,0:0:0:0:
416,192,21576,1,8,0:0:0:0:
288,128,21764,1,0,0:0:0:0:
320,128,21951,1,8,0:0:0:0:
224,128,22139,1,0,0:0:0:0:
224,128,22232,1,0,0:0:0:0:
384,160,22326,1,8,0:0:0:0:
384,160,22420,1,8,0:0:0:0:
384,160,22514,1,0,0:0:0:0:
288,160,22701,1,8,0:0:0:0:
352,160,22889,1,0,0:0:0:0:
384,160,22982,1,0,0:0:0:0:
320,160,23076,1,8,0:0:0:0:
384,160,23264,1,0,0:0:0:0:
352,160,23451,1,8,0:0:0:0:
352,160,23639,1,0,0:0:0:0:
320,160,23732,1,0,0:0:0:0:
320,160,23826,1,8,0:0:0:0:
424,170,24014,1,8,0:0:0:0:
364,153,24107,1,8,0:0:0:0:
342,165,24201,1,0,0:0:0:0:
341,165,24295,1,0,0:0:0:0:
346,161,24389,1,8,0:0:0:0:
235,140,24482,1,8,0:0:0:0:
235,140,24576,1,8,0:0:0:0:
287,157,24764,1,0,0:0:0:0:
262,117,24857,1,0,0:0:0:0:
247,184,24951,1,8,0:0:0:0:
247,159,25045,1,8,0:0:0:0:
296,182,25139,1,0,0:0:0:0:
280,182,25232,1,0,0:0:0:0:
248,170,25326,1,0,0:0:0:0:
318,138,25514,1,4,0:0:0:0:
330,128,25701,1,8,0:0:0:0:
330,128,25795,1,8,0:0:0:0:
296,182,25889,1,0,0:0:0:0:
311,148,26076,1,8,0:0:0:0:
311,166,26264,1,0,0:0:0:0:
312,153,26357,1,0,0:0:0:0:
394,172,26451,1,8,0:0:0:0:
344,125,26639,1,0,0:0:0:0:
316,145,26826,1,8,0:0:0:0:
316,145,26920,1,8,0:0:0:0:
317,163,27014,1,0,0:0:0:0:
325,146,27201,1,8,0:0:0:0:
291,152,27389,1,0,0:0:0:0:
270,116,27576,1,8,0:0:0:0:
270,116,27670,1,8,0:0:0:0:
316,162,27764,1,0,0:0:0:0:
376,128,27951,1,8,0:0:0:0:
222,119,28139,1,0,0:0:0:0:
222,119,28232,1,0,0:0:0:0:
343,175,28326,1,8,0:0:0:0:
338,175,28420,1,8,0:0:0:0:
286,147,28514,1,0,0:0:0:0:
277,120,28701,1,8,0:0:0:0:
356,129,28795,1,8,0:0:0:0:
349,129,28889,1,0,0:0:0:0:
356,142,29076,1,8,0:0:0:0:
360,140,29264,1,0,0:0:0:0:
360,140,29357,1,0,0:0:0:0:
390,139,29451,1,8,0:0:0:0:
357,136,29639,1,0,0:0:0:0:
383,127,29826,1,8,0:0:0:0:
320,128,30014,1,4,0:0:0:0:
320,128,30389,1,4,0:0:0:0:
183,126,30764,1,8,0:0:0:0:
183,126,30951,1,8,0:0:0:0:
344,150,31139,1,0,0:0:0:0:
359,162,31326,1,8,0:0:0:0:
359,162,31420,1,8,0:0:0:0:
352,165,31514,1,0,0:0:0:0:
276,166,31701,1,8,0:0:0:0:
262,165,31889,1,0,0:0:0:0:
436,186,31982,1,0,0:0:0:0:
381,168,32076,1,8,0:0:0:0:
336,160,32264,1,8,0:0:0:0:
251,145,32357,1,8,0:0:0:0:
251,145,32451,1,8,0:0:0:0:
321,160,32639,1,0,0:0:0:0:
366,161,32826,1,8,0:0:0:0:
366,161,32920,1,8,0:0:0:0:
366,161,33014,1,0,0:0:0:0:
312,151,33201,1,8,0:0:0:0:
218,112,33389,1,0,0:0:0:0:
218,112,33482,1,0,0:0:0:0:
355,160,33576,1,8,0:0:0:0:
346,160,33764,1,8,0:0:0:0:
346,161,33857,1,8,0:0:0:0:
346,161,33951,1,8,0:0:0:0:
402,171,34139,1,0,0:0:0:0:
349,127,34326,1,0,0:0:0:0:
291,146,34420,1,8,0:0:0:0:
281,141,34514,1,0,0:0:0:0:
295,152,34701,1,8,0:0:0:0:
283,130,34889,1,0,0:0:0:0:
296,132,34982,1,0,0:0:0:0:
321,137,35076,1,8,0:0:0:0:
314,137,35264,1,8,0:0:0:0:
314,137,35357,1,8,0:0:0:0:
314,137,35451,1,8,0:0:0:0:
300,96,35639,1,0,0:0:0:0:
300,137,35826,1,8,0:0:0:0:
270,157,36014,1,0,0:0:0:0:
270,157,36107,1,0,0:0:0:0:
270,157,36201,1,0,0:0:0:0:
270,157,36295,1,0,0:0:0:0:
359,166,36389,1,8,0:0:0:0:
371,109,36451,1,8,0:0:0:0:
371,109,36514,1,8,0:0:0:0:
371,109,36576,1,8,0:0:0:0:
246,97,36764,1,8,0:0:0:0:
386,94,36857,1,8,0:0:0:0:
386,94,36951,1,8,0:0:0:0:
386,94,37045,1,8,0:0:0:0:
359,144,37139,1,0,0:0:0:0:
298,120,37514,1,4,0:0:0:0:
328,132,37701,1,0,0:0:0:0:
349,120,37889,1,8,0:0:0:0:
411,133,38076,1,0,0:0:0:0:
401,167,38170,1,8,0:0:0:0:
401,167,38264,1,8,0:0:0:0:
401,167,38357,1,8,0:0:0:0:
433,160,38451,1,0,0:0:0:0:
302,86,38639,1,8,0:0:0:0:
277,110,38826,1,8,0:0:0:0:
277,110,38920,1,8,0:0:0:0:
414,102,39014,1,0,0:0:0:0:
455,137,39201,1,0,0:0:0:0:
397,120,39389,1,8,0:0:0:0:
288,160,39576,1,0,0:0:0:0:
352,192,39670,1,8,0:0:0:0:
352,192,39764,1,8,0:0:0:0:
384,224,39857,1,0,0:0:0:0:
384,224,40045,1,0,0:0:0:0:
416,224,40139,1,8,0:0:0:0:
416,192,40232,1,8,0:0:0:0:
416,192,40420,1,8,0:0:0:0:
480,192,40514,1,0,0:0:0:0:
480,192,40701,1,0,0:0:0:0:
480,192,40889,1,8,0:0:0:0:
224,128,41076,1,8,0:0:0:0:
224,128,41170,1,8,0:0:0:0:
352,192,41264,1,0,0:0:0:0:
352,160,41357,1,0,0:0:0:0:
384,192,41451,1,8,0:0:0:0:
416,160,41639,1,0,0:0:0:0:
448,192,41826,1,8,0:0:0:0:
448,192,41920,1,8,0:0:0:0:
448,192,42014,1,0,0:0:0:0:
192,192,42201,1,0,0:0:0:0:
192,128,42389,1,0,0:0:0:0:
288,128,42482,1,8,0:0:0:0:
192,192,42576,1,0,0:0:0:0:
288,192,42764,1,8,0:0:0:0:
288,192,42857,1,8,0:0:0:0:
320,192,42951,1,0,0:0:0:0:
320,192,43139,1,0,0:0:0:0:
288,128,43232,1,8,0:0:0:0:
320,192,43326,1,0,0:0:0:0:
288,160,43514,1,4,0:0:0:0:
288,128,43701,1,8,0:0:0:0:
320,128,43889,1,0,0:0:0:0:
256,160,44076,1,8,0:0:0:0:
256,160,44170,1,8,0:0:0:0:
416,160,44264,1,0,0:0:0:0:
384,160,44357,1,0,0:0:0:0:
384,160,44451,1,0,0:0:0:0:
416,160,44639,1,8,0:0:0:0:
160,128,44826,1,8,0:0:0:0:
160,128,44920,1,8,0:0:0:0:
288,128,45014,1,0,0:0:0:0:
352,160,45201,1,8,0:0:0:0:
320,160,45389,1,0,0:0:0:0:
320,128,45576,1,0,0:0:0:0:
320,128,45670,1,8,0:0:0:0:
288,160,45764,1,8,0:0:0:0:
288,128,45857,1,0,0:0:0:0:
288,128,46045,1,0,0:0:0:0:
320,160,46139,1,8,0:0:0:0:
320,160,46232,1,8,0:0:0:0:
352,160,46420,1,8,0:0:0:0:
320,128,46514,1,0,0:0:0:0:
416,160,46701,1,8,0:0:0:0:
448,128,46889,1,4,0:0:0:0:
320,128,47076,1,8,0:0:0:0:
320,128,47170,1,8,0:0:0:0:
352,128,47264,1,0,0:0:0:0:
352,128,47357,1,0,0:0:0:0:
384,160,47451,1,8,0:0:0:0:
320,160,47639,1,0,0:0:0:0:
320,160,47826,1,8,0:0:0:0:
352,160,48014,1,0,0:0:0:0:
384,160,48389,1,0,0:0:0:0:
288,96,48764,1,8,0:0:0:0:
288,96,48857,1,8,0:0:0:0:
288,96,48951,1,8,0:0:0:0:
320,64,49139,1,8,0:0:0:0:
288,160,49326,1,8,0:0:0:0:
288,192,49514,1,4,0:0:0:0:
256,128,50076,1,12,0:0:0:0:
320,160,50826,1,4,0:0:0:0:
288,160,51201,1,12,0:0:0:0:
352,160,51389,1,4,0:0:0:0:
320,128,52514,1,12,0:0:0:0:
224,128,53076,1,4,0:0:0:0:
224,128,53826,1,12,0:0:0:0:
224,128,54201,1,4,0:0:0:0:
224,128,54389,1,12,0:0:0:0:
256,128,54764,1,0,0:0:0:0:
256,128,54857,1,0,0:0:0:0:
256,128,54951,1,0,0:0:0:0:
320,160,55139,1,8,0:0:0:0:
288,160,55232,1,8,0:0:0:0:
288,160,55326,1,0,0:0:0:0:
288,160,55514,1,4,0:0:0:0:
288,128,56076,1,12,0:0:0:0:
352,128,56826,1,4,0:0:0:0:
320,128,57201,1,12,0:0:0:0:
352,128,57389,1,4,0:0:0:0:
352,160,58514,1,12,0:0:0:0:
288,160,59076,1,4,0:0:0:0:
320,160,59826,1,12,0:0:0:0:
224,160,60014,1,0,0:0:0:0:
224,160,60139,1,0,0:0:0:0:
224,160,60264,1,0,0:0:0:0:
288,128,60389,1,12,0:0:0:0:
288,128,60576,1,0,0:0:0:0:
320,160,60764,1,8,0:0:0:0:
320,160,60857,1,8,0:0:0:0:
320,160,60951,1,8,0:0:0:0:
320,160,61045,1,8,0:0:0:0:
320,160,61139,1,0,0:0:0:0:
288,160,61514,1,4,0:0:0:0:
256,160,61701,1,8,0:0:0:0:
256,160,61795,1,8,0:0:0:0:
320,160,61889,1,0,0:0:0:0:
256,192,62076,1,8,0:0:0:0:
320,160,62264,1,0,0:0:0:0:
320,160,62357,1,0,0:0:0:0:
288,160,62451,1,8,0:0:0:0:
320,160,62639,1,0,0:0:0:0:
320,160,62826,1,0,0:0:0:0:
320,160,62920,1,8,0:0:0:0:
320,160,63014,1,0,0:0:0:0:
224,160,63201,1,8,0:0:0:0:
320,160,63389,1,0,0:0:0:0:
320,160,63482,1,0,0:0:0:0:
352,160,63576,1,8,0:0:0:0:
352,160,63764,1,0,0:0:0:0:
320,160,63951,1,8,0:0:0:0:
320,160,64045,1,8,0:0:0:0:
352,160,64139,1,0,0:0:0:0:
320,160,64232,1,8,0:0:0:0:
256,160,64326,1,8,0:0:0:0:
256,160,64420,1,8,0:0:0:0:
352,160,64514,1,0,0:0:0:0:
256,160,64701,1,8,0:0:0:0:
256,160,64795,1,8,0:0:0:0:
288,128,64889,1,0,0:0:0:0:
320,160,65076,1,8,0:0:0:0:
288,192,65264,1,0,0:0:0:0:
288,192,65357,1,0,0:0:0:0:
288,192,65451,1,8,0:0:0:0:
320,192,65639,1,0,0:0:0:0:
320,160,65826,1,0,0:0:0:0:
352,192,65920,1,8,0:0:0:0:
352,160,66014,1,0,0:0:0:0:
288,160,66201,1,8,0:0:0:0:
320,160,66389,1,8,0:0:0:0:
320,192,66482,1,8,0:0:0:0:
320,160,66576,1,8,0:0:0:0:
384,128,66764,1,0,0:0:0:0:
448,160,66857,1,0,0:0:0:0:
288,192,66951,1,8,0:0:0:0:
160,64,67139,1,8,0:0:0:0:
224,160,67232,1,8,0:0:0:0:
288,192,67326,1,8,0:0:0:0:
320,160,67420,1,8,0:0:0:0:
256,96,67514,1,0,0:0:0:0:
256,128,67701,1,8,0:0:0:0:
256,128,67795,1,8,0:0:0:0:
320,160,67889,1,0,0:0:0:0:
320,160,68076,1,8,0:0:0:0:
256,160,68264,1,0,0:0:0:0:
224,192,68357,1,0,0:0:0:0:
384,160,68451,1,8,0:0:0:0:
320,128,68639,1,0,0:0:0:0:
224,192,68826,1,0,0:0:0:0:
256,192,68920,1,8,0:0:0:0:
224,192,69014,1,0,0:0:0:0:
288,192,69201,1,8,0:0:0:0:
256,160,69389,1,0,0:0:0:0:
256,160,69482,1,0,0:0:0:0:
320,160,69576,1,8,0:0:0:0:
256,160,69764,1,0,0:0:0:0:
256,160,69857,1,0,0:0:0:0:
256,160,69951,1,0,0:0:0:0:
256,160,70139,1,8,0:0:0:0:
256,160,70326,1,8,0:0:0:0:
224,160,70420,1,8,0:0:0:0:
128,160,70514,1,0,0:0:0:0:
288,160,70701,1,8,0:0:0:0:
256,160,70889,1,0,0:0:0:0:
256,160,70982,1,0,0:0:0:0:
384,160,71076,1,8,0:0:0:0:
480,160,71264,1,0,0:0:0:0:
256,96,71357,1,8,0:0:0:0:
256,96,71451,1,8,0:0:0:0:
352,128,71545,1,8,0:0:0:0:
384,160,71639,1,0,0:0:0:0:
384,160,71826,1,0,0:0:0:0:
347,188,71920,1,8,0:0:0:0:
196,157,72014,1,0,0:0:0:0:
159,152,72201,1,8,0:0:0:0:
159,152,72389,1,0,0:0:0:0:
293,193,72482,1,0,0:0:0:0:
231,118,72576,1,0,0:0:0:0:
326,148,72670,1,0,0:0:0:0:
249,149,72764,1,8,0:0:0:0:
264,135,72951,1,8,0:0:0:0:
264,135,73045,1,8,0:0:0:0:
265,136,73139,1,8,0:0:0:0:
265,136,73232,1,8,0:0:0:0:
265,136,73326,1,8,0:0:0:0:
249,157,73514,1,0,0:0:0:0:
160,160,73701,1,8,0:0:0:0:
352,192,73795,1,8,0:0:0:0:
352,160,73889,1,0,0:0:0:0:
384,160,74076,1,8,0:0:0:0:
352,192,74264,1,0,0:0:0:0:
352,192,74357,1,0,0:0:0:0:
384,192,74451,1,8,0:0:0:0:
384,192,74639,1,0,0:0:0:0:
384,192,74826,1,0,0:0:0:0:
448,160,74920,1,8,0:0:0:0:
416,192,75014,1,0,0:0:0:0:
384,192,75201,1,8,0:0:0:0:
352,160,75389,1,0,0:0:0:0:
352,160,75482,1,0,0:0:0:0:
416,192,75576,1,8,0:0:0:0:
384,160,75764,1,0,0:0:0:0:
416,192,75951,1,8,0:0:0:0:
384,160,76045,1,8,0:0:0:0:
416,192,76139,1,0,0:0:0:0:
352,160,76232,1,8,0:0:0:0:
256,128,76326,1,8,0:0:0:0:
320,192,76420,1,8,0:0:0:0:
352,192,76514,1,0,0:0:0:0:
256,128,76701,1,8,0:0:0:0:
384,160,76795,1,8,0:0:0:0:
384,192,76889,1,0,0:0:0:0:
224,160,77076,1,8,0:0:0:0:
224,160,77170,1,8,0:0:0:0:
288,192,77264,1,0,0:0:0:0:
288,192,77357,1,0,0:0:0:0:
288,192,77451,1,8,0:0:0:0:
224,160,77639,1,0,0:0:0:0:
320,192,77826,1,0,0:0:0:0:
320,192,77920,1,8,0:0:0:0:
352,192,78014,1,0,0:0:0:0:
192,160,78201,1,0,0:0:0:0:
192,160,78389,1,0,0:0:0:0:
192,160,78764,1,0,0:0:0:0:
192,160,78951,1,0,0:0:0:0:
192,160,79139,1,0,0:0:0:0:
288,160,79326,1,8,0:0:0:0:
320,128,79514,1,0,0:0:0:0:
384,192,79701,1,8,0:0:0:0:
224,160,79795,1,8,0:0:0:0:
352,160,79889,1,0,0:0:0:0:
448,160,80076,1,8,0:0:0:0:
320,160,80264,1,0,0:0:0:0:
320,160,80357,1,0,0:0:0:0:
416,192,80451,1,8,0:0:0:0:
384,160,80639,1,0,0:0:0:0:
256,160,80826,1,0,0:0:0:0:
384,160,80920,1,8,0:0:0:0:
256,160,81014,1,0,0:0:0:0:
320,160,81201,1,8,0:0:0:0:
384,160,81389,1,0,0:0:0:0:
416,160,81482,1,0,0:0:0:0:
384,192,81576,1,8,0:0:0:0:
256,160,81764,1,0,0:0:0:0:
196,91,81857,1,0,0:0:0:0:
196,91,81951,1,0,0:0:0:0:
352,192,82139,1,8,0:0:0:0:
320,160,82326,1,8,0:0:0:0:
320,160,82420,1,8,0:0:0:0:
320,160,82514,1,0,0:0:0:0:
288,160,82701,1,8,0:0:0:0:
320,160,82889,1,0,0:0:0:0:
320,160,82982,1,0,0:0:0:0:
384,160,83076,1,8,0:0:0:0:
352,160,83264,1,0,0:0:0:0:
352,160,83357,1,0,0:0:0:0:
352,160,83451,1,8,0:0:0:0:
352,160,83545,1,8,0:0:0:0:
352,160,83639,1,0,0:0:0:0:
352,160,83826,1,0,0:0:0:0:
416,160,83920,1,8,0:0:0:0:
352,160,84014,1,0,0:0:0:0:
320,160,84201,1,8,0:0:0:0:
320,160,84295,1,8,0:0:0:0:
384,192,84389,1,0,0:0:0:0:
352,160,84576,1,8,0:0:0:0:
352,160,84670,1,8,0:0:0:0:
352,160,84764,1,0,0:0:0:0:
320,160,84857,1,8,0:0:0:0:
320,192,84951,1,0,0:0:0:0:
320,192,85045,1,0,0:0:0:0:
160,160,85514,1,0,0:0:0:0:
288,160,85889,1,8,0:0:0:0:
320,160,86076,1,0,0:0:0:0:
416,160,86264,1,8,0:0:0:0:
288,160,86357,1,8,0:0:0:0:
352,192,86451,1,0,0:0:0:0:
256,160,86639,1,8,0:0:0:0:
288,160,86826,1,8,0:0:0:0:
384,160,86920,1,8,0:0:0:0:
352,160,87014,1,0,0:0:0:0:
352,160,87389,1,8,0:0:0:0:
384,160,87576,1,0,0:0:0:0:
384,160,87670,1,8,0:0:0:0:
448,160,87764,1,8,0:0:0:0:
416,160,87857,1,0,0:0:0:0:
416,160,88045,1,0,0:0:0:0:
384,192,88139,1,8,0:0:0:0:
384,192,88232,1,8,0:0:0:0:
384,160,88420,1,8,0:0:0:0:
320,160,88514,1,0,0:0:0:0:
320,128,88889,1,8,0:0:0:0:
288,160,89076,1,0,0:0:0:0:
288,160,89170,1,0,0:0:0:0:
320,160,89264,1,8,0:0:0:0:
320,160,89451,1,8,0:0:0:0:
320,160,89545,1,0,0:0:0:0:
448,160,89639,1,8,0:0:0:0:
288,96,89826,1,0,0:0:0:0:
288,96,89920,1,0,0:0:0:0:
288,96,90014,1,0,0:0:0:0:
288,128,90389,1,8,0:0:0:0:
288,160,90576,1,0,0:0:0:0:
352,160,90764,1,0,0:0:0:0:
352,160,90857,1,8,0:0:0:0:
416,160,90951,1,8,0:0:0:0:
448,192,91045,1,0,0:0:0:0:
448,192,91139,1,0,0:0:0:0:
416,192,91232,1,8,0:0:0:0:
352,192,91326,1,0,0:0:0:0:
352,160,91514,1,0,0:0:0:0:
352,160,91889,1,8,0:0:0:0:
320,160,92076,1,0,0:0:0:0:
384,192,92264,1,8,0:0:0:0:
384,192,92357,1,8,0:0:0:0:
416,192,92451,1,0,0:0:0:0:
352,128,92639,1,8,0:0:0:0:
192,160,92826,1,8,0:0:0:0:
192,160,92920,1,8,0:0:0:0:
352,160,93014,1,0,0:0:0:0:
256,160,93389,1,8,0:0:0:0:
288,160,93576,1,0,0:0:0:0:
384,192,93670,1,8,0:0:0:0:
352,192,93764,1,8,0:0:0:0:
320,160,93857,1,0,0:0:0:0:
384,160,94045,1,0,0:0:0:0:
352,160,94139,1,8,0:0:0:0:
352,160,94232,1,8,0:0:0:0:
256,160,94420,1,8,0:0:0:0:
384,160,94514,1,0,0:0:0:0:
320,160,94889,1,8,0:0:0:0:
288,160,95076,1,0,0:0:0:0:
384,160,95170,1,0,0:0:0:0:
448,160,95264,1,8,0:0:0:0:
448,192,95357,1,8,0:0:0:0:
352,160,95451,1,0,0:0:0:0:
320,160,95639,1,8,0:0:0:0:
288,160,95826,1,0,0:0:0:0:
288,160,95920,1,0,0:0:0:0:
320,160,96014,1,8,0:0:0:0:
224,128,96764,1,0,0:0:0:0:
224,128,96951,1,0,0:0:0:0:
224,160,97139,1,8,0:0:0:0:
224,160,97232,1,8,0:0:0:0:
224,160,97326,1,8,0:0:0:0:
224,160,97420,1,8,0:0:0:0:
256,160,97514,1,4,0:0:0:0:
288,160,97701,1,8,0:0:0:0:
288,160,97795,1,8,0:0:0:0:
352,160,97889,1,0,0:0:0:0:
352,160,97982,1,0,0:0:0:0:
320,192,98076,1,8,0:0:0:0:
288,192,98264,1,0,0:0:0:0:
288,192,98357,1,0,0:0:0:0:
342,192,98451,1,8,0:0:0:0:
351,185,98639,1,0,0:0:0:0:
350,186,98826,1,0,0:0:0:0:
331,210,98920,1,8,0:0:0:0:
350,187,99014,1,0,0:0:0:0:
351,191,99201,1,8,0:0:0:0:
350,191,99295,1,8,0:0:0:0:
344,207,99389,1,0,0:0:0:0:
328,211,99482,1,0,0:0:0:0:
314,216,99576,1,8,0:0:0:0:
405,197,99764,1,0,0:0:0:0:
323,167,99857,1,0,0:0:0:0:
241,169,99951,1,8,0:0:0:0:
381,180,100045,1,0,0:0:0:0:
381,180,100139,1,0,0:0:0:0:
351,199,100232,1,0,0:0:0:0:
292,147,100326,1,8,0:0:0:0:
100,163,100420,1,0,0:0:0:0:
323,167,100514,1,0,0:0:0:0:
364,158,100701,1,8,0:0:0:0:
364,159,100795,1,8,0:0:0:0:
365,170,100889,1,0,0:0:0:0:
346,176,100982,1,0,0:0:0:0:
295,179,101076,1,8,0:0:0:0:
295,179,101264,1,0,0:0:0:0:
295,179,101357,1,0,0:0:0:0:
252,170,101451,1,8,0:0:0:0:
304,147,101639,1,0,0:0:0:0:
304,147,101826,1,8,0:0:0:0:
304,147,102014,1,0,0:0:0:0:
216,154,102139,1,0,0:0:0:0:
216,154,102264,1,0,0:0:0:0:
216,154,102389,1,0,0:0:0:0:
216,154,102514,1,0,0:0:0:0:
216,154,102639,1,0,0:0:0:0:
216,154,102764,1,0,0:0:0:0:
216,154,102889,1,0,0:0:0:0:
216,154,103014,1,0,0:0:0:0:
312,153,103139,1,8,0:0:0:0:
301,157,103232,1,8,0:0:0:0:
301,157,103326,1,8,0:0:0:0:
281,149,103514,1,4,0:0:0:0:
212,118,103701,1,8,0:0:0:0:
212,118,103795,1,8,0:0:0:0:
340,152,103889,1,0,0:0:0:0:
340,152,103982,1,0,0:0:0:0:
394,166,104076,1,8,0:0:0:0:
347,173,104264,1,0,0:0:0:0:
491,173,104357,1,0,0:0:0:0:
372,181,104451,1,8,0:0:0:0:
382,167,104639,1,0,0:0:0:0:
382,167,104826,1,0,0:0:0:0:
328,172,104920,1,8,0:0:0:0:
382,167,105014,1,0,0:0:0:0:
367,192,105201,1,8,0:0:0:0:
401,193,105389,1,0,0:0:0:0:
401,193,105482,1,0,0:0:0:0:
392,179,105576,1,8,0:0:0:0:
382,167,105764,1,0,0:0:0:0:
382,167,105857,1,0,0:0:0:0:
392,184,105951,1,8,0:0:0:0:
392,181,106045,1,0,0:0:0:0:
392,181,106139,1,0,0:0:0:0:
371,144,106232,1,0,0:0:0:0:
341,163,106326,1,8,0:0:0:0:
419,179,106420,1,0,0:0:0:0:
341,163,106514,1,0,0:0:0:0:
391,165,106701,1,8,0:0:0:0:
401,197,106795,1,8,0:0:0:0:
371,186,106889,1,0,0:0:0:0:
370,187,106982,1,0,0:0:0:0:
405,188,107076,1,8,0:0:0:0:
261,112,107264,1,0,0:0:0:0:
365,146,107357,1,0,0:0:0:0:
339,146,107451,1,8,0:0:0:0:
315,144,107639,1,0,0:0:0:0:
348,114,107826,1,0,0:0:0:0:
360,142,107920,1,8,0:0:0:0:
348,114,108014,1,0,0:0:0:0:
30,263,108201,2,8,B|80:73|80:73|121:181|121:181,1,280
361,177,109139,1,8,0:0:0:0:
361,177,109201,1,8,0:0:0:0:
361,177,109264,1,8,0:0:0:0:
411,185,109326,1,0,0:0:0:0:
345,186,109514,1,0,0:0:0:0:
312,167,109701,1,8,0:0:0:0:
312,167,109795,1,8,0:0:0:0:
350,165,109889,1,0,0:0:0:0:
384,169,109982,1,0,0:0:0:0:
361,191,110076,1,8,0:0:0:0:
285,163,110264,1,0,0:0:0:0:
331,163,110357,1,0,0:0:0:0:
392,188,110451,1,8,0:0:0:0:
330,177,110639,1,0,0:0:0:0:
281,150,110826,1,0,0:0:0:0:
426,158,110920,1,8,0:0:0:0:
299,109,111014,1,0,0:0:0:0:
272,153,111201,1,8,0:0:0:0:
331,163,111389,1,0,0:0:0:0:
329,163,111482,1,0,0:0:0:0:
314,149,111576,1,8,0:0:0:0:
327,180,111764,1,0,0:0:0:0:
329,181,111857,1,0,0:0:0:0:
409,182,111951,1,8,0:0:0:0:
357,187,112045,1,0,0:0:0:0:
353,188,112139,1,0,0:0:0:0:
353,189,112232,1,0,0:0:0:0:
334,192,112326,1,8,0:0:0:0:
384,192,112420,1,0,0:0:0:0:
288,192,112514,1,0,0:0:0:0:
256,192,112701,1,8,0:0:0:0:
256,192,112795,1,8,0:0:0:0:
320,192,112889,1,0,0:0:0:0:
334,192,112982,1,0,0:0:0:0:
356,192,113076,1,8,0:0:0:0:
271,194,113264,1,0,0:0:0:0:
289,165,113357,1,0,0:0:0:0:
355,172,113451,1,8,0:0:0:0:
342,184,113639,1,0,0:0:0:0:
299,201,113826,1,0,0:0:0:0:
334,179,113920,1,8,0:0:0:0:
288,194,114014,1,0,0:0:0:0:
143,132,114201,1,0,0:0:0:0:
143,132,114295,1,0,0:0:0:0:
373,174,114389,1,8,0:0:0:0:
270,171,114482,1,0,0:0:0:0:
270,171,114576,1,0,0:0:0:0:
202,217,114764,1,8,0:0:0:0:
202,217,114857,1,0,0:0:0:0:
319,203,114951,1,8,0:0:0:0:
314,206,115045,1,8,0:0:0:0:
363,191,115139,1,0,0:0:0:0:
319,203,115232,1,8,0:0:0:0:
283,193,115326,1,8,0:0:0:0:
312,157,115514,1,0,0:0:0:0:
288,192,115889,1,8,0:0:0:0:
224,160,116170,1,8,0:0:0:0:
256,192,116264,1,0,0:0:0:0:
256,192,116357,1,0,0:0:0:0:
288,160,116451,1,8,0:0:0:0:
352,160,116639,1,0,0:0:0:0:
288,160,116826,1,0,0:0:0:0:
320,160,116920,1,8,0:0:0:0:
288,160,117014,1,0,0:0:0:0:
288,128,117389,1,8,0:0:0:0:
288,128,117576,1,0,0:0:0:0:
352,160,117670,1,8,0:0:0:0:
352,160,117764,1,8,0:0:0:0:
320,160,117857,1,0,0:0:0:0:
320,192,118045,1,0,0:0:0:0:
288,160,118139,1,8,0:0:0:0:
352,192,118232,1,8,0:0:0:0:
352,192,118420,1,8,0:0:0:0:
288,160,118514,1,0,0:0:0:0:
288,160,118889,1,8,0:0:0:0:
320,160,119170,1,8,0:0:0:0:
320,192,119264,1,0,0:0:0:0:
160,128,119451,1,0,0:0:0:0:
256,160,119639,1,8,0:0:0:0:
320,160,119826,5,8,0:0:0:0:
256,160,119920,1,8,0:0:0:0:
224,160,120014,1,0,0:0:0:0:
224,160,120139,1,0,0:0:0:0:
224,160,120264,1,0,0:0:0:0:
224,160,120389,1,0,0:0:0:0:
224,160,120514,1,0,0:0:0:0:
224,160,120639,1,0,0:0:0:0:
224,160,120764,1,0,0:0:0:0:
224,160,120889,1,0,0:0:0:0:
224,160,121014,1,0,0:0:0:0:
224,128,121139,1,12,0:0:0:0:
320,160,121326,1,8,0:0:0:0:
320,160,121420,1,8,0:0:0:0:
320,128,121514,1,0,0:0:0:0:
