osu file format v14

[General]
AudioFilename: Absurd_Gaff.mp3
AudioLeadIn: 0
PreviewTime: 49352
Countdown: 0
SampleSet: None
StackLeniency: 0.7
Mode: 1
LetterboxInBreaks: 0
WidescreenStoryboard: 1

[Editor]
DistanceSpacing: 1.2
BeatDivisor: 4
GridSize: 32
TimelineZoom: 2.599999

[Metadata]
Title:Absurd Gaff
TitleUnicode:Absurd Gaff
Artist:siromaru
ArtistUnicode:siromaru
Creator:-Kamikaze-
Version:Nwolf's Inner Oni
Source:BMS
Tags:the of fighters 2008 resurrection bof2008 schranz _underjoy theziemniax ziemniak gekido- shxfted skalim tristan97 tornspirit frenzyli spoonguy paulmrm megative BillumMoto Janko MrDorian _Gezo_ Gezoda Nwolf zetera
BeatmapID:1062695
BeatmapSetID:365073

[Difficulty]
HPDrainRate:6
CircleSize:4
OverallDifficulty:6.5
ApproachRate:9
SliderMultiplier:1.4
SliderTickRate:1

[Events]
//Background and Video events
0,0,"ms_title.jpg",0,0
Video,-592,"mentalstock_movie.avi"
//Break Periods
//Storyboard Layer 0 (Background)
//Storyboard Layer 1 (Fail)
//Storyboard Layer 2 (Pass)
//Storyboard Layer 3 (Foreground)
//Storyboard Sound Samples

[TimingPoints]
14,375,4,1,0,100,1,0
61514,-100,4,1,0,100,0,1
85514,-100,4,1,0,100,0,0
97514,-100,4,1,0,100,0,1
121514,-100,4,1,0,100,0,0

[HitObjects]
224,160,1514,5,0,0:0:0:0:
224,160,1701,1,0,0:0:0:0:
224,160,1795,1,0,0:0:0:0:
288,160,1889,1,8,0:0:0:0:
224,160,2076,1,0,0:0:0:0:
288,160,2170,1,8,0:0:0:0:
288,160,2264,1,8,0:0:0:0:
288,160,2357,1,8,0:0:0:0:
224,160,2451,1,0,0:0:0:0:
224,160,2545,1,0,0:0:0:0:
288,160,2639,1,8,0:0:0:0:
288,160,2826,1,8,0:0:0:0:
288,160,2920,1,8,0:0:0:0:
224,160,3014,1,0,0:0:0:0:
224,160,3201,1,0,0:0:0:0:
224,160,3295,1,0,0:0:0:0:
288,160,3389,1,8,0:0:0:0:
224,160,3576,1,0,0:0:0:0:
288,160,3670,1,8,0:0:0:0:
288,160,3764,1,8,0:0:0:0:
288,160,3857,1,8,0:0:0:0:
224,160,3951,1,0,0:0:0:0:
224,160,4045,1,0,0:0:0:0:
288,160,4139,1,8,0:0:0:0:
288,160,4420,1,8,0:0:0:0:
224,160,4514,1,0,0:0:0:0:
224,160,4701,1,0,0:0:0:0:
224,160,4795,1,0,0:0:0:0:
288,160,4889,1,8,0:0:0:0:
224,160,5076,1,0,0:0:0:0:
224,160,5170,1,0,0:0:0:0:
288,160,5264,1,8,0:0:0:0:
224,160,5357,1,0,0:0:0:0:
224,160,5451,1,0,0:0:0:0:
224,160,5545,1,0,0:0:0:0:
288,160,5639,1,8,0:0:0:0:
224,160,5826,1,0,0:0:0:0:
224,160,5920,1,0,0:0:0:0:
288,160,6014,1,8,0:0:0:0:
288,160,6139,1,8,0:0:0:0:
224,160,6264,1,0,0:0:0:0:
288,160,6389,1,8,0:0:0:0:
224,160,6514,1,0,0:0:0:0:
224,160,6639,1,0,0:0:0:0:
288,160,6764,1,8,0:0:0:0:
288,160,6857,1,8,0:0:0:0:
224,160,6951,1,0,0:0:0:0:
224,160,7045,1,0,0:0:0:0:
288,160,7139,1,8,0:0:0:0:
224,160,7232,1,0,0:0:0:0:
288,160,7326,1,8,0:0:0:0:
288,160,7420,1,8,0:0:0:0:
224,160,7514,1,0,0:0:0:0:
224,160,7701,1,0,0:0:0:0:
224,160,7795,1,0,0:0:0:0:
288,160,7889,1,8,0:0:0:0:
224,160,8076,1,0,0:0:0:0:
288,160,8170,1,8,0:0:0:0:
288,160,8264,1,8,0:0:0:0:
288,160,8357,1,8,0:0:0:0:
224,160,8451,1,0,0:0:0:0:
224,160,8545,1,0,0:0:0:0:
288,160,8639,1,8,0:0:0:0:
288,160,8826,1,8,0:0:0:0:
288,160,8920,1,8,0:0:0:0:
224,160,9014,1,0,0:0:0:0:
224,160,9201,1,0,0:0:0:0:
224,160,9295,1,0,0:0:0:0:
288,160,9389,1,8,0:0:0:0:
224,160,9576,1,0,0:0:0:0:
288,160,9670,1,8,0:0:0:0:
288,160,9764,1,8,0:0:0:0:
288,160,9857,1,8,0:0:0:0:
224,160,9951,1,0,0:0:0:0:
224,160,10045,1,0,0:0:0:0:
288,160,10139,1,8,0:0:0:0:
288,160,10420,1,8,0:0:0:0:
224,160,10514,1,0,0:0:0:0:
224,160,10701,1,0,0:0:0:0:
224,160,10795,1,0,0:0:0:0:
288,160,10889,1,8,0:0:0:0:
288,160,10982,1,8,0:0:0:0:
224,160,11076,1,0,0:0:0:0:
288,160,11170,1,8,0:0:0:0:
288,160,11264,1,8,0:0:0:0:
288,160,11357,1,8,0:0:0:0:
224,160,11451,1,0,0:0:0:0:
224,160,11545,1,0,0:0:0:0:
288,160,11639,1,8,0:0:0:0:
224,160,11732,1,0,0:0:0:0:
288,160,11826,1,8,0:0:0:0:
224,224,12014,1,4,0:0:0:0:
288,160,12764,1,8,0:0:0:0:
224,160,12857,1,0,0:0:0:0:
288,160,12951,1,8,0:0:0:0:
224,160,13045,1,0,0:0:0:0:
288,160,13139,1,8,0:0:0:0:
224,160,13232,1,0,0:0:0:0:
288,160,13326,1,8,0:0:0:0:
224,224,13514,5,4,0:0:0:0:
288,160,13701,1,8,0:0:0:0:
288,160,13795,1,8,0:0:0:0:
224,160,13889,1,0,0:0:0:0:
288,160,14076,1,8,0:0:0:0:
288,160,14170,1,8,0:0:0:0:
224,160,14264,1,0,0:0:0:0:
288,160,14451,1,8,0:0:0:0:
288,160,14545,1,8,0:0:0:0:
224,160,14639,1,0,0:0:0:0:
288,160,14826,1,8,0:0:0:0:
288,160,14920,1,8,0:0:0:0:
224,160,15014,1,0,0:0:0:0:
288,160,15201,1,8,0:0:0:0:
288,160,15295,1,8,0:0:0:0:
224,160,15389,1,0,0:0:0:0:
288,160,15576,1,8,0:0:0:0:
288,160,15670,1,8,0:0:0:0:
224,160,15764,1,0,0:0:0:0:
288,160,15951,1,8,0:0:0:0:
288,160,16045,1,8,0:0:0:0:
224,160,16139,1,0,0:0:0:0:
224,160,16232,1,0,0:0:0:0:
288,160,16326,1,8,0:0:0:0:
288,160,16420,1,8,0:0:0:0:
224,160,16514,1,0,0:0:0:0:
288,160,16701,1,8,0:0:0:0:
224,160,16795,1,0,0:0:0:0:
224,160,16889,1,0,0:0:0:0:
288,160,17076,1,8,0:0:0:0:
224,160,17170,1,0,0:0:0:0:
224,160,17264,1,0,0:0:0:0:
288,160,17451,1,8,0:0:0:0:
224,160,17545,1,0,0:0:0:0:
224,160,17639,1,0,0:0:0:0:
288,160,17826,1,8,0:0:0:0:
224,160,17920,1,0,0:0:0:0:
224,160,18014,1,0,0:0:0:0:
288,160,18201,1,8,0:0:0:0:
224,160,18295,1,0,0:0:0:0:
224,160,18389,1,0,0:0:0:0:
288,160,18576,1,8,0:0:0:0:
224,160,18670,1,0,0:0:0:0:
224,160,18764,1,0,0:0:0:0:
288,160,18951,1,8,0:0:0:0:
224,160,19045,1,0,0:0:0:0:
288,160,19139,1,8,0:0:0:0:
288,160,19232,1,8,0:0:0:0:
224,160,19326,1,0,0:0:0:0:
288,160,19420,1,8,0:0:0:0:
224,160,19514,1,0,0:0:0:0:
224,160,19701,1,0,0:0:0:0:
288,160,19795,1,8,0:0:0:0:
224,160,19889,1,0,0:0:0:0:
224,160,20076,1,0,0:0:0:0:
288,160,20170,1,8,0:0:0:0:
224,160,20264,1,0,0:0:0:0:
224,160,20451,1,0,0:0:0:0:
288,160,20545,1,8,0:0:0:0:
224,160,20639,1,0,0:0:0:0:
224,160,20826,1,0,0:0:0:0:
288,160,20920,1,8,0:0:0:0:
224,160,21014,1,0,0:0:0:0:
224,160,21201,1,0,0:0:0:0:
288,160,21295,1,8,0:0:0:0:
224,160,21389,1,0,0:0:0:0:
224,160,21576,1,0,0:0:0:0:
288,160,21670,1,8,0:0:0:0:
224,160,21764,1,0,0:0:0:0:
224,160,21951,1,0,0:0:0:0:
288,160,22045,1,8,0:0:0:0:
224,160,22139,1,0,0:0:0:0:
224,160,22232,1,0,0:0:0:0:
224,160,22326,1,0,0:0:0:0:
288,160,22420,1,8,0:0:0:0:
224,160,22514,1,0,0:0:0:0:
288,160,22701,1,8,0:0:0:0:
224,160,22795,1,0,0:0:0:0:
224,160,22889,1,0,0:0:0:0:
288,160,23076,1,8,0:0:0:0:
224,160,23170,1,0,0:0:0:0:
224,160,23264,1,0,0:0:0:0:
288,160,23451,1,8,0:0:0:0:
224,160,23545,1,0,0:0:0:0:
224,160,23639,1,0,0:0:0:0:
288,160,23826,1,8,0:0:0:0:
224,160,24014,1,0,0:0:0:0:
224,160,24107,1,0,0:0:0:0:
288,160,24201,1,8,0:0:0:0:
224,160,24295,1,0,0:0:0:0:
288,160,24389,1,8,0:0:0:0:
288,160,24482,1,8,0:0:0:0:
224,160,24576,1,0,0:0:0:0:
288,160,24670,1,8,0:0:0:0:
224,160,24764,1,0,0:0:0:0:
288,160,24857,1,8,0:0:0:0:
224,160,24951,1,0,0:0:0:0:
288,160,25045,1,8,0:0:0:0:
224,160,25139,1,0,0:0:0:0:
224,160,25232,1,0,0:0:0:0:
224,160,25326,1,0,0:0:0:0:
224,224,25514,5,4,0:0:0:0:
288,160,25701,1,8,0:0:0:0:
288,160,25795,1,8,0:0:0:0:
224,160,25889,1,0,0:0:0:0:
224,160,25982,1,0,0:0:0:0:
288,160,26076,1,8,0:0:0:0:
288,160,26170,1,8,0:0:0:0:
224,160,26264,1,0,0:0:0:0:
288,160,26451,1,8,0:0:0:0:
288,160,26545,1,8,0:0:0:0:
224,160,26639,1,0,0:0:0:0:
224,160,26732,1,0,0:0:0:0:
288,160,26826,1,8,0:0:0:0:
224,160,26920,1,0,0:0:0:0:
224,160,27014,1,0,0:0:0:0:
288,160,27201,1,8,0:0:0:0:
288,160,27295,1,8,0:0:0:0:
224,160,27389,1,0,0:0:0:0:
224,160,27482,1,0,0:0:0:0:
288,160,27576,1,8,0:0:0:0:
288,160,27670,1,8,0:0:0:0:
224,160,27764,1,0,0:0:0:0:
288,160,27951,1,8,0:0:0:0:
288,160,28045,1,8,0:0:0:0:
224,160,28139,1,0,0:0:0:0:
288,160,28232,1,8,0:0:0:0:
288,160,28326,1,8,0:0:0:0:
288,160,28420,1,8,0:0:0:0:
224,160,28514,1,0,0:0:0:0:
224,160,28701,1,0,0:0:0:0:
288,160,28795,1,8,0:0:0:0:
224,160,28889,1,0,0:0:0:0:
224,160,28982,1,0,0:0:0:0:
288,160,29076,1,8,0:0:0:0:
288,160,29170,1,8,0:0:0:0:
224,160,29264,1,0,0:0:0:0:
224,160,29451,1,0,0:0:0:0:
288,160,29545,1,8,0:0:0:0:
224,160,29639,1,0,0:0:0:0:
224,160,29732,1,0,0:0:0:0:
288,160,29826,1,8,0:0:0:0:
288,224,30014,1,12,0:0:0:0:
224,160,30201,1,0,0:0:0:0:
288,224,30389,1,12,0:0:0:0:
224,160,30576,1,0,0:0:0:0:
224,160,30670,1,0,0:0:0:0:
288,160,30764,1,8,0:0:0:0:
224,160,30857,1,0,0:0:0:0:
288,160,30951,1,8,0:0:0:0:
288,160,31045,1,8,0:0:0:0:
224,160,31139,1,0,0:0:0:0:
224,160,31232,1,0,0:0:0:0:
288,160,31326,1,8,0:0:0:0:
224,160,31514,1,0,0:0:0:0:
288,160,31701,1,8,0:0:0:0:
224,160,31795,1,0,0:0:0:0:
224,160,31889,1,0,0:0:0:0:
224,160,31982,1,0,0:0:0:0:
288,160,32076,1,8,0:0:0:0:
224,160,32170,1,0,0:0:0:0:
224,160,32264,1,0,0:0:0:0:
288,160,32451,1,8,0:0:0:0:
224,160,32545,1,0,0:0:0:0:
224,160,32639,1,0,0:0:0:0:
224,160,32732,1,0,0:0:0:0:
288,160,32826,1,8,0:0:0:0:
288,160,32920,1,8,0:0:0:0:
224,160,33014,1,0,0:0:0:0:
288,160,33201,1,8,0:0:0:0:
224,160,33295,1,0,0:0:0:0:
224,160,33389,1,0,0:0:0:0:
224,160,33482,1,0,0:0:0:0:
288,160,33576,1,8,0:0:0:0:
224,160,33670,1,0,0:0:0:0:
224,160,33764,1,0,0:0:0:0:
288,160,33951,1,8,0:0:0:0:
224,160,34045,1,0,0:0:0:0:
224,160,34139,1,0,0:0:0:0:
288,160,34232,1,8,0:0:0:0:
288,160,34326,1,8,0:0:0:0:
288,160,34420,1,8,0:0:0:0:
224,160,34514,1,0,0:0:0:0:
288,160,34701,1,8,0:0:0:0:
224,160,34795,1,0,0:0:0:0:
288,160,34889,1,8,0:0:0:0:
288,160,34982,1,8,0:0:0:0:
224,160,35076,1,0,0:0:0:0:
288,160,35170,1,8,0:0:0:0:
224,160,35264,1,0,0:0:0:0:
288,160,35451,1,8,0:0:0:0:
224,160,35545,1,0,0:0:0:0:
288,160,35639,1,8,0:0:0:0:
224,160,35732,1,0,0:0:0:0:
224,160,35826,1,0,0:0:0:0:
288,160,35920,1,8,0:0:0:0:
224,160,36014,1,0,0:0:0:0:
224,160,36107,1,0,0:0:0:0:
288,160,36201,1,8,0:0:0:0:
224,160,36295,1,0,0:0:0:0:
288,160,36389,1,8,0:0:0:0:
224,160,36576,1,0,0:0:0:0:
224,160,36670,1,0,0:0:0:0:
288,160,36764,1,8,0:0:0:0:
224,160,36857,1,0,0:0:0:0:
288,160,36951,1,8,0:0:0:0:
288,160,37045,1,8,0:0:0:0:
288,160,37232,1,8,0:0:0:0:
224,224,37514,5,4,0:0:0:0:
224,160,37701,1,0,0:0:0:0:
224,160,37795,1,0,0:0:0:0:
288,160,37889,1,8,0:0:0:0:
224,160,38076,1,0,0:0:0:0:
288,160,38170,1,8,0:0:0:0:
224,160,38264,1,0,0:0:0:0:
288,160,38357,1,8,0:0:0:0:
224,160,38451,1,0,0:0:0:0:
224,160,38545,1,0,0:0:0:0:
288,160,38639,1,8,0:0:0:0:
224,160,38826,1,0,0:0:0:0:
224,160,38920,1,0,0:0:0:0:
224,160,39014,1,0,0:0:0:0:
224,160,39201,1,0,0:0:0:0:
224,160,39295,1,0,0:0:0:0:
288,160,39389,1,8,0:0:0:0:
224,160,39576,1,0,0:0:0:0:
288,160,39670,1,8,0:0:0:0:
288,160,39764,1,8,0:0:0:0:
288,160,39857,1,8,0:0:0:0:
224,160,39951,1,0,0:0:0:0:
224,160,40045,1,0,0:0:0:0:
288,160,40139,1,8,0:0:0:0:
288,160,40420,1,8,0:0:0:0:
224,160,40514,1,0,0:0:0:0:
224,160,40701,1,0,0:0:0:0:
224,160,40795,1,0,0:0:0:0:
288,160,40889,1,8,0:0:0:0:
224,160,41076,1,0,0:0:0:0:
288,160,41170,1,8,0:0:0:0:
224,160,41264,1,0,0:0:0:0:
288,160,41357,1,8,0:0:0:0:
224,160,41451,1,0,0:0:0:0:
224,160,41545,1,0,0:0:0:0:
288,160,41639,1,8,0:0:0:0:
224,160,41826,1,0,0:0:0:0:
224,160,41920,1,0,0:0:0:0:
288,160,42014,1,8,0:0:0:0:
288,160,42107,1,8,0:0:0:0:
224,160,42201,1,0,0:0:0:0:
224,160,42295,1,0,0:0:0:0:
288,160,42389,1,8,0:0:0:0:
288,160,42482,1,8,0:0:0:0:
224,160,42576,1,0,0:0:0:0:
224,160,42670,1,0,0:0:0:0:
288,160,42764,1,8,0:0:0:0:
288,160,42857,1,8,0:0:0:0:
288,160,42951,1,8,0:0:0:0:
224,160,43045,1,0,0:0:0:0:
288,160,43139,1,8,0:0:0:0:
288,160,43232,1,8,0:0:0:0:
288,160,43326,1,8,0:0:0:0:
224,160,43514,1,0,0:0:0:0:
224,160,43701,1,0,0:0:0:0:
224,160,43795,1,0,0:0:0:0:
288,160,43889,1,8,0:0:0:0:
224,160,44076,1,0,0:0:0:0:
288,160,44170,1,8,0:0:0:0:
224,160,44264,1,0,0:0:0:0:
288,160,44357,1,8,0:0:0:0:
224,160,44451,1,0,0:0:0:0:
224,160,44545,1,0,0:0:0:0:
288,160,44639,1,8,0:0:0:0:
224,160,44826,1,0,0:0:0:0:
224,160,44920,1,0,0:0:0:0:
224,160,45014,1,0,0:0:0:0:
224,160,45201,1,0,0:0:0:0:
224,160,45295,1,0,0:0:0:0:
288,160,45389,1,8,0:0:0:0:
224,160,45576,1,0,0:0:0:0:
288,160,45670,1,8,0:0:0:0:
288,160,45764,1,8,0:0:0:0:
288,160,45857,1,8,0:0:0:0:
224,160,45951,1,0,0:0:0:0:
224,160,46045,1,0,0:0:0:0:
288,160,46139,1,8,0:0:0:0:
288,160,46420,1,8,0:0:0:0:
224,160,46514,1,0,0:0:0:0:
224,160,46701,1,0,0:0:0:0:
224,160,46795,1,0,0:0:0:0:
288,160,46889,1,8,0:0:0:0:
224,160,47076,1,0,0:0:0:0:
288,160,47170,1,8,0:0:0:0:
224,160,47264,1,0,0:0:0:0:
288,160,47357,1,8,0:0:0:0:
224,160,47451,1,0,0:0:0:0:
224,160,47545,1,0,0:0:0:0:
288,160,47639,1,8,0:0:0:0:
224,160,47826,1,0,0:0:0:0:
224,160,47920,1,0,0:0:0:0:
224,160,48014,1,0,0:0:0:0:
288,160,48201,1,8,0:0:0:0:
288,160,48295,1,8,0:0:0:0:
224,160,48389,1,0,0:0:0:0:
288,160,48764,1,8,0:0:0:0:
288,160,48857,1,8,0:0:0:0:
288,160,48951,1,8,0:0:0:0:
224,160,49045,1,0,0:0:0:0:
288,160,49139,1,8,0:0:0:0:
288,160,49232,1,8,0:0:0:0:
288,160,49326,1,8,0:0:0:0:
224,224,49514,5,4,0:0:0:0:
288,160,49701,1,8,0:0:0:0:
224,160,49795,1,0,0:0:0:0:
288,160,49889,1,8,0:0:0:0:
224,224,50076,1,4,0:0:0:0:
288,160,50264,1,8,0:0:0:0:
224,160,50357,1,0,0:0:0:0:
288,160,50451,1,8,0:0:0:0:
224,160,50545,1,0,0:0:0:0:
288,160,50639,1,8,0:0:0:0:
224,224,50826,1,4,0:0:0:0:
288,160,51014,1,8,0:0:0:0:
224,224,51201,1,4,0:0:0:0:
224,224,51389,1,4,0:0:0:0:
288,160,51576,1,8,0:0:0:0:
224,160,51670,1,0,0:0:0:0:
288,160,51764,1,8,0:0:0:0:
288,160,51857,1,8,0:0:0:0:
224,160,51951,1,0,0:0:0:0:
224,160,52045,1,0,0:0:0:0:
288,160,52139,1,8,0:0:0:0:
224,160,52232,1,0,0:0:0:0:
288,160,52326,1,8,0:0:0:0:
288,224,52514,1,12,0:0:0:0:
224,160,52701,1,0,0:0:0:0:
224,160,52795,1,0,0:0:0:0:
288,160,52889,1,8,0:0:0:0:
288,224,53076,1,12,0:0:0:0:
224,160,53264,1,0,0:0:0:0:
224,160,53357,1,0,0:0:0:0:
224,160,53451,1,0,0:0:0:0:
224,160,53545,1,0,0:0:0:0:
288,160,53639,1,8,0:0:0:0:
288,224,53826,1,12,0:0:0:0:
224,160,54014,1,0,0:0:0:0:
288,224,54201,1,12,0:0:0:0:
288,224,54389,1,12,0:0:0:0:
224,160,54576,1,0,0:0:0:0:
224,160,54670,1,0,0:0:0:0:
288,160,54764,1,8,0:0:0:0:
224,160,54857,1,0,0:0:0:0:
288,160,54951,1,8,0:0:0:0:
224,160,55045,1,0,0:0:0:0:
288,160,55139,1,8,0:0:0:0:
288,160,55232,1,8,0:0:0:0:
288,160,55326,1,8,0:0:0:0:
224,224,55514,1,4,0:0:0:0:
288,160,55701,1,8,0:0:0:0:
224,160,55795,1,0,0:0:0:0:
288,160,55889,1,8,0:0:0:0:
224,224,56076,1,4,0:0:0:0:
288,160,56264,1,8,0:0:0:0:
224,160,56357,1,0,0:0:0:0:
288,160,56451,1,8,0:0:0:0:
224,160,56545,1,0,0:0:0:0:
288,160,56639,1,8,0:0:0:0:
224,224,56826,1,4,0:0:0:0:
288,160,57014,1,8,0:0:0:0:
224,224,57201,1,4,0:0:0:0:
224,224,57389,1,4,0:0:0:0:
288,160,57576,1,8,0:0:0:0:
224,160,57670,1,0,0:0:0:0:
288,160,57764,1,8,0:0:0:0:
288,160,57857,1,8,0:0:0:0:
224,160,57951,1,0,0:0:0:0:
224,160,58045,1,0,0:0:0:0:
288,160,58139,1,8,0:0:0:0:
224,160,58232,1,0,0:0:0:0:
288,160,58326,1,8,0:0:0:0:
288,224,58514,1,12,0:0:0:0:
224,160,58701,1,0,0:0:0:0:
224,160,58795,1,0,0:0:0:0:
288,160,58889,1,8,0:0:0:0:
288,224,59076,1,12,0:0:0:0:
224,160,59264,1,0,0:0:0:0:
224,160,59357,1,0,0:0:0:0:
224,160,59451,1,0,0:0:0:0:
224,160,59545,1,0,0:0:0:0:
288,160,59639,1,8,0:0:0:0:
288,224,59826,1,12,0:0:0:0:
224,160,60014,1,0,0:0:0:0:
288,224,60201,1,12,0:0:0:0:
288,224,60389,1,12,0:0:0:0:
288,160,60764,1,8,0:0:0:0:
288,160,60857,1,8,0:0:0:0:
288,160,60951,1,8,0:0:0:0:
224,160,61139,1,0,0:0:0:0:
224,224,61514,5,4,0:0:0:0:
288,160,61701,1,8,0:0:0:0:
288,160,61795,1,8,0:0:0:0:
224,160,61889,1,0,0:0:0:0:
224,224,62076,1,4,0:0:0:0:
224,224,62264,1,4,0:0:0:0:
288,160,62451,1,8,0:0:0:0:
288,160,62545,1,8,0:0:0:0:
224,160,62639,1,0,0:0:0:0:
224,160,62732,1,0,0:0:0:0:
288,224,62826,1,12,0:0:0:0:
224,160,63014,1,0,0:0:0:0:
288,224,63201,1,12,0:0:0:0:
288,224,63389,1,12,0:0:0:0:
288,160,63576,1,8,0:0:0:0:
288,160,63670,1,8,0:0:0:0:
224,160,63764,1,0,0:0:0:0:
224,160,63857,1,0,0:0:0:0:
288,160,63951,1,8,0:0:0:0:
224,160,64045,1,0,0:0:0:0:
288,160,64139,1,8,0:0:0:0:
288,160,64232,1,8,0:0:0:0:
224,160,64326,1,0,0:0:0:0:
288,224,64514,1,12,0:0:0:0:
224,160,64701,1,0,0:0:0:0:
224,160,64795,1,0,0:0:0:0:
288,160,64889,1,8,0:0:0:0:
288,224,65076,1,12,0:0:0:0:
288,224,65264,1,12,0:0:0:0:
224,160,65451,1,0,0:0:0:0:
224,160,65545,1,0,0:0:0:0:
288,160,65639,1,8,0:0:0:0:
288,160,65732,1,8,0:0:0:0:
224,224,65826,1,4,0:0:0:0:
288,160,66014,1,8,0:0:0:0:
224,224,66201,1,4,0:0:0:0:
224,224,66389,1,4,0:0:0:0:
288,160,66576,1,8,0:0:0:0:
288,160,66670,1,8,0:0:0:0:
224,160,66764,1,0,0:0:0:0:
288,160,66857,1,8,0:0:0:0:
224,160,66951,1,0,0:0:0:0:
224,160,67045,1,0,0:0:0:0:
288,160,67139,1,8,0:0:0:0:
288,160,67232,1,8,0:0:0:0:
288,160,67326,1,8,0:0:0:0:
224,224,67514,1,4,0:0:0:0:
288,160,67701,1,8,0:0:0:0:
288,160,67795,1,8,0:0:0:0:
224,160,67889,1,0,0:0:0:0:
224,224,68076,1,4,0:0:0:0:
224,224,68264,1,4,0:0:0:0:
288,160,68451,1,8,0:0:0:0:
224,160,68545,1,0,0:0:0:0:
224,160,68639,1,0,0:0:0:0:
224,160,68732,1,0,0:0:0:0:
288,224,68826,1,12,0:0:0:0:
224,160,69014,1,0,0:0:0:0:
288,224,69201,1,12,0:0:0:0:
288,224,69389,1,12,0:0:0:0:
288,160,69576,1,8,0:0:0:0:
288,160,69670,1,8,0:0:0:0:
224,160,69764,1,0,0:0:0:0:
224,160,69857,1,0,0:0:0:0:
288,160,69951,1,8,0:0:0:0:
288,160,70045,1,8,0:0:0:0:
224,160,70139,1,0,0:0:0:0:
224,160,70232,1,0,0:0:0:0:
288,160,70326,1,8,0:0:0:0:
288,224,70514,1,12,0:0:0:0:
288,160,70701,1,8,0:0:0:0:
288,160,70795,1,8,0:0:0:0:
224,160,70889,1,0,0:0:0:0:
288,224,71076,1,12,0:0:0:0:
288,224,71264,1,12,0:0:0:0:
224,160,71451,1,0,0:0:0:0:
288,160,71545,1,8,0:0:0:0:
288,160,71639,1,8,0:0:0:0:
288,160,71732,1,8,0:0:0:0:
224,224,71826,1,4,0:0:0:0:
224,160,72014,1,0,0:0:0:0:
224,160,72107,1,0,0:0:0:0:
224,160,72201,1,0,0:0:0:0:
224,160,72295,1,0,0:0:0:0:
288,160,72389,1,8,0:0:0:0:
288,160,72482,1,8,0:0:0:0:
224,160,72576,1,0,0:0:0:0:
224,160,72670,1,0,0:0:0:0:
288,160,72764,1,8,0:0:0:0:
288,160,72857,1,8,0:0:0:0:
288,160,73045,1,8,0:0:0:0:
224,160,73139,1,0,0:0:0:0:
224,160,73232,1,0,0:0:0:0:
288,160,73326,1,8,0:0:0:0:
288,224,73514,1,12,0:0:0:0:
224,160,73701,1,0,0:0:0:0:
224,160,73795,1,0,0:0:0:0:
288,160,73889,1,8,0:0:0:0:
224,224,74076,1,4,0:0:0:0:
224,224,74264,1,4,0:0:0:0:
224,160,74451,1,0,0:0:0:0:
224,160,74545,1,0,0:0:0:0:
288,160,74639,1,8,0:0:0:0:
288,160,74732,1,8,0:0:0:0:
224,224,74826,1,4,0:0:0:0:
224,160,75014,1,0,0:0:0:0:
288,224,75201,1,12,0:0:0:0:
288,224,75389,1,12,0:0:0:0:
224,160,75576,1,0,0:0:0:0:
288,160,75670,1,8,0:0:0:0:
224,160,75764,1,0,0:0:0:0:
288,160,75857,1,8,0:0:0:0:
288,160,75951,1,8,0:0:0:0:
224,160,76045,1,0,0:0:0:0:
288,160,76139,1,8,0:0:0:0:
224,160,76232,1,0,0:0:0:0:
288,160,76326,1,8,0:0:0:0:
224,224,76514,1,4,0:0:0:0:
224,160,76701,1,0,0:0:0:0:
224,160,76795,1,0,0:0:0:0:
288,160,76889,1,8,0:0:0:0:
224,224,77076,1,4,0:0:0:0:
288,224,77264,1,12,0:0:0:0:
224,160,77451,1,0,0:0:0:0:
288,160,77545,1,8,0:0:0:0:
224,160,77639,1,0,0:0:0:0:
224,160,77732,1,0,0:0:0:0:
288,224,77826,1,12,0:0:0:0:
288,160,78014,1,8,0:0:0:0:
288,160,78107,1,8,0:0:0:0:
288,160,78201,1,8,0:0:0:0:
288,160,78295,1,8,0:0:0:0:
224,160,78389,1,0,0:0:0:0:
224,160,78451,1,0,0:0:0:0:
224,160,78514,1,0,0:0:0:0:
288,160,78576,1,8,0:0:0:0:
288,160,78670,1,8,0:0:0:0:
224,160,78764,1,0,0:0:0:0:
288,160,78857,1,8,0:0:0:0:
224,160,78951,1,0,0:0:0:0:
288,160,79139,1,8,0:0:0:0:
224,160,79326,1,0,0:0:0:0:
224,224,79514,1,4,0:0:0:0:
288,160,79701,1,8,0:0:0:0:
224,160,79795,1,0,0:0:0:0:
288,160,79889,1,8,0:0:0:0:
288,224,80076,1,12,0:0:0:0:
224,224,80264,1,4,0:0:0:0:
288,160,80451,1,8,0:0:0:0:
224,160,80545,1,0,0:0:0:0:
288,160,80639,1,8,0:0:0:0:
224,160,80732,1,0,0:0:0:0:
288,224,80826,1,12,0:0:0:0:
224,160,81014,1,0,0:0:0:0:
224,224,81201,1,4,0:0:0:0:
288,224,81389,1,12,0:0:0:0:
224,160,81576,1,0,0:0:0:0:
288,160,81670,1,8,0:0:0:0:
224,160,81764,1,0,0:0:0:0:
224,160,81857,1,0,0:0:0:0:
288,160,81951,1,8,0:0:0:0:
224,160,82045,1,0,0:0:0:0:
288,160,82139,1,8,0:0:0:0:
288,160,82232,1,8,0:0:0:0:
224,160,82326,1,0,0:0:0:0:
288,224,82514,1,12,0:0:0:0:
224,160,82701,1,0,0:0:0:0:
224,160,82795,1,0,0:0:0:0:
288,160,82889,1,8,0:0:0:0:
224,224,83076,1,4,0:0:0:0:
288,224,83264,1,12,0:0:0:0:
288,160,83451,1,8,0:0:0:0:
224,160,83545,1,0,0:0:0:0:
288,160,83639,1,8,0:0:0:0:
288,160,83732,1,8,0:0:0:0:
224,224,83826,1,4,0:0:0:0:
288,160,84014,1,8,0:0:0:0:
288,160,84107,1,8,0:0:0:0:
224,160,84201,1,0,0:0:0:0:
224,160,84295,1,0,0:0:0:0:
288,160,84389,1,8,0:0:0:0:
288,160,84482,1,8,0:0:0:0:
288,160,84576,1,8,0:0:0:0:
224,160,84764,1,0,0:0:0:0:
224,160,84857,1,0,0:0:0:0:
288,160,84951,1,8,0:0:0:0:
288,160,85045,1,8,0:0:0:0:
224,160,85139,1,0,0:0:0:0:
224,224,85514,5,4,0:0:0:0:
224,160,85701,1,0,0:0:0:0:
224,160,85795,1,0,0:0:0:0:
288,160,85889,1,8,0:0:0:0:
224,160,86076,1,0,0:0:0:0:
288,160,86170,1,8,0:0:0:0:
288,160,86264,1,8,0:0:0:0:
288,160,86357,1,8,0:0:0:0:
224,160,86451,1,0,0:0:0:0:
224,160,86545,1,0,0:0:0:0:
288,160,86639,1,8,0:0:0:0:
224,160,86732,1,0,0:0:0:0:
288,160,86826,1,8,0:0:0:0:
288,160,86920,1,8,0:0:0:0:
224,160,87014,1,0,0:0:0:0:
224,160,87107,1,0,0:0:0:0:
224,160,87201,1,0,0:0:0:0:
224,160,87295,1,0,0:0:0:0:
288,160,87389,1,8,0:0:0:0:
224,160,87576,1,0,0:0:0:0:
224,160,87670,1,0,0:0:0:0:
288,160,87764,1,8,0:0:0:0:
288,160,87857,1,8,0:0:0:0:
224,160,87951,1,0,0:0:0:0:
288,160,88045,1,8,0:0:0:0:
288,160,88139,1,8,0:0:0:0:
224,160,88232,1,0,0:0:0:0:
224,160,88420,1,0,0:0:0:0:
288,160,88514,1,8,0:0:0:0:
224,160,88607,1,0,0:0:0:0:
224,160,88701,1,0,0:0:0:0:
224,160,88795,1,0,0:0:0:0:
288,160,88889,1,8,0:0:0:0:
224,160,89076,1,0,0:0:0:0:
288,160,89170,1,8,0:0:0:0:
288,160,89264,1,8,0:0:0:0:
288,160,89357,1,8,0:0:0:0:
224,160,89451,1,0,0:0:0:0:
224,160,89545,1,0,0:0:0:0:
288,160,89639,1,8,0:0:0:0:
224,160,89732,1,0,0:0:0:0:
288,160,89826,1,8,0:0:0:0:
288,160,89920,1,8,0:0:0:0:
224,160,90014,1,0,0:0:0:0:
224,160,90107,1,0,0:0:0:0:
224,160,90201,1,0,0:0:0:0:
224,160,90295,1,0,0:0:0:0:
288,160,90389,1,8,0:0:0:0:
224,160,90576,1,0,0:0:0:0:
224,160,90670,1,0,0:0:0:0:
288,160,90764,1,8,0:0:0:0:
224,160,90857,1,0,0:0:0:0:
288,160,90951,1,8,0:0:0:0:
224,160,91045,1,0,0:0:0:0:
288,160,91139,1,8,0:0:0:0:
288,160,91326,1,8,0:0:0:0:
224,160,91514,1,0,0:0:0:0:
224,160,91607,1,0,0:0:0:0:
224,160,91701,1,0,0:0:0:0:
224,160,91795,1,0,0:0:0:0:
288,160,91889,1,8,0:0:0:0:
224,160,92076,1,0,0:0:0:0:
288,160,92170,1,8,0:0:0:0:
288,160,92264,1,8,0:0:0:0:
288,160,92357,1,8,0:0:0:0:
224,160,92451,1,0,0:0:0:0:
224,160,92545,1,0,0:0:0:0:
288,160,92639,1,8,0:0:0:0:
224,160,92732,1,0,0:0:0:0:
288,160,92826,1,8,0:0:0:0:
224,160,92920,1,0,0:0:0:0:
288,160,93014,1,8,0:0:0:0:
224,160,93107,1,0,0:0:0:0:
224,160,93201,1,0,0:0:0:0:
224,160,93295,1,0,0:0:0:0:
288,160,93389,1,8,0:0:0:0:
224,160,93576,1,0,0:0:0:0:
224,160,93670,1,0,0:0:0:0:
288,160,93764,1,8,0:0:0:0:
288,160,93857,1,8,0:0:0:0:
224,160,93951,1,0,0:0:0:0:
288,160,94045,1,8,0:0:0:0:
288,160,94139,1,8,0:0:0:0:
224,160,94232,1,0,0:0:0:0:
224,160,94420,1,0,0:0:0:0:
288,160,94514,1,8,0:0:0:0:
288,160,94607,1,8,0:0:0:0:
224,160,94701,1,0,0:0:0:0:
224,160,94795,1,0,0:0:0:0:
288,160,94889,1,8,0:0:0:0:
224,160,95076,1,0,0:0:0:0:
288,160,95170,1,8,0:0:0:0:
288,160,95264,1,8,0:0:0:0:
288,160,95357,1,8,0:0:0:0:
224,160,95451,1,0,0:0:0:0:
224,160,95545,1,0,0:0:0:0:
288,160,95639,1,8,0:0:0:0:
224,160,95732,1,0,0:0:0:0:
224,160,95826,1,0,0:0:0:0:
224,160,95920,1,0,0:0:0:0:
288,160,96014,1,8,0:0:0:0:
288,160,96764,1,8,0:0:0:0:
288,160,96857,1,8,0:0:0:0:
288,160,96951,1,8,0:0:0:0:
224,160,97045,1,0,0:0:0:0:
288,160,97139,1,8,0:0:0:0:
288,160,97232,1,8,0:0:0:0:
288,160,97326,1,8,0:0:0:0:
224,224,97514,5,4,0:0:0:0:
288,160,97701,1,8,0:0:0:0:
224,160,97795,1,0,0:0:0:0:
288,160,97889,1,8,0:0:0:0:
224,160,98076,1,0,0:0:0:0:
288,160,98170,1,8,0:0:0:0:
224,160,98264,1,0,0:0:0:0:
288,160,98451,1,8,0:0:0:0:
224,160,98545,1,0,0:0:0:0:
288,160,98639,1,8,0:0:0:0:
224,160,98826,1,0,0:0:0:0:
288,160,98920,1,8,0:0:0:0:
224,160,99014,1,0,0:0:0:0:
224,160,99201,1,0,0:0:0:0:
224,160,99295,1,0,0:0:0:0:
288,160,99389,1,8,0:0:0:0:
288,160,99576,1,8,0:0:0:0:
288,160,99670,1,8,0:0:0:0:
224,160,99764,1,0,0:0:0:0:
224,160,99951,1,0,0:0:0:0:
224,160,100045,1,0,0:0:0:0:
288,160,100139,1,8,0:0:0:0:
288,160,100326,1,8,0:0:0:0:
288,160,100420,1,8,0:0:0:0:
224,160,100514,1,0,0:0:0:0:
224,160,100701,1,0,0:0:0:0:
288,160,100795,1,8,0:0:0:0:
288,160,100889,1,8,0:0:0:0:
288,160,101076,1,8,0:0:0:0:
224,160,101170,1,0,0:0:0:0:
224,160,101264,1,0,0:0:0:0:
224,160,101451,1,0,0:0:0:0:
288,160,101545,1,8,0:0:0:0:
288,160,101639,1,8,0:0:0:0:
288,160,101826,1,8,0:0:0:0:
288,160,101920,1,8,0:0:0:0:
224,160,102014,1,0,0:0:0:0:
224,160,102139,1,0,0:0:0:0:
288,160,102264,1,8,0:0:0:0:
224,160,102389,1,0,0:0:0:0:
224,160,102514,1,0,0:0:0:0:
288,160,102639,1,8,0:0:0:0:
224,160,102764,1,0,0:0:0:0:
224,160,102889,1,0,0:0:0:0:
224,160,103014,1,0,0:0:0:0:
288,160,103139,1,8,0:0:0:0:
288,160,103201,1,8,0:0:0:0:
288,160,103264,1,8,0:0:0:0:
288,160,103326,1,8,0:0:0:0:
224,160,103389,1,0,0:0:0:0:
288,160,103514,1,8,0:0:0:0:
224,160,103701,1,0,0:0:0:0:
224,160,103795,1,0,0:0:0:0:
288,160,103889,1,8,0:0:0:0:
224,160,103982,1,0,0:0:0:0:
224,160,104076,1,0,0:0:0:0:
288,160,104170,1,8,0:0:0:0:
288,160,104264,1,8,0:0:0:0:
224,160,104451,1,0,0:0:0:0:
224,160,104545,1,0,0:0:0:0:
288,160,104639,1,8,0:0:0:0:
288,160,104732,1,8,0:0:0:0:
224,160,104826,1,0,0:0:0:0:
288,160,104920,1,8,0:0:0:0:
288,160,105014,1,8,0:0:0:0:
288,160,105201,1,8,0:0:0:0:
224,160,105295,1,0,0:0:0:0:
288,160,105389,1,8,0:0:0:0:
224,160,105482,1,0,0:0:0:0:
288,160,105576,1,8,0:0:0:0:
288,160,105670,1,8,0:0:0:0:
288,160,105764,1,8,0:0:0:0:
288,160,105951,1,8,0:0:0:0:
224,160,106045,1,0,0:0:0:0:
288,160,106139,1,8,0:0:0:0:
224,160,106232,1,0,0:0:0:0:
224,160,106326,1,0,0:0:0:0:
288,160,106420,1,8,0:0:0:0:
288,160,106514,1,8,0:0:0:0:
224,160,106701,1,0,0:0:0:0:
224,160,106795,1,0,0:0:0:0:
288,160,106889,1,8,0:0:0:0:
256,160,106982,1,8,0:0:0:0:
224,160,107076,1,0,0:0:0:0:
224,160,107170,1,0,0:0:0:0:
224,160,107264,1,0,0:0:0:0:
224,160,107451,1,0,0:0:0:0:
224,160,107545,1,0,0:0:0:0:
288,160,107639,1,8,0:0:0:0:
224,160,107732,1,0,0:0:0:0:
224,160,107826,1,0,0:0:0:0:
224,160,107920,1,0,0:0:0:0:
224,160,108014,1,0,0:0:0:0:
32,32,108201,2,0,L|320:32,1,280
288,160,109139,1,8,0:0:0:0:
288,160,109201,1,8,0:0:0:0:
288,160,109264,1,8,0:0:0:0:
224,160,109326,1,0,0:0:0:0:
224,160,109389,1,0,0:0:0:0:
288,160,109451,1,8,0:0:0:0:
224,160,109514,1,0,0:0:0:0:
288,160,109701,1,8,0:0:0:0:
288,160,109795,1,8,0:0:0:0:
288,160,109889,1,8,0:0:0:0:
256,160,109982,1,8,0:0:0:0:
224,160,110076,1,0,0:0:0:0:
224,160,110170,1,0,0:0:0:0:
224,160,110264,1,0,0:0:0:0:
288,160,110451,1,8,0:0:0:0:
288,160,110545,1,8,0:0:0:0:
288,160,110639,1,8,0:0:0:0:
224,160,110732,1,0,0:0:0:0:
288,160,110826,1,8,0:0:0:0:
224,160,110920,1,0,0:0:0:0:
224,160,111014,1,0,0:0:0:0:
288,160,111201,1,8,0:0:0:0:
224,160,111295,1,0,0:0:0:0:
288,160,111389,1,8,0:0:0:0:
288,160,111482,1,8,0:0:0:0:
288,160,111576,1,8,0:0:0:0:
288,160,111670,1,8,0:0:0:0:
224,160,111764,1,0,0:0:0:0:
288,160,111951,1,8,0:0:0:0:
224,160,112045,1,0,0:0:0:0:
288,160,112139,1,8,0:0:0:0:
224,160,112232,1,0,0:0:0:0:
288,160,112326,1,8,0:0:0:0:
288,160,112420,1,8,0:0:0:0:
224,160,112514,1,0,0:0:0:0:
224,160,112701,1,0,0:0:0:0:
224,160,112795,1,0,0:0:0:0:
288,160,112889,1,8,0:0:0:0:
288,160,112982,1,8,0:0:0:0:
288,160,113076,1,8,0:0:0:0:
224,160,113170,1,0,0:0:0:0:
224,160,113264,1,0,0:0:0:0:
224,160,113451,1,0,0:0:0:0:
288,160,113545,1,8,0:0:0:0:
288,160,113639,1,8,0:0:0:0:
224,160,113732,1,0,0:0:0:0:
288,160,113826,1,8,0:0:0:0:
288,160,113920,1,8,0:0:0:0:
224,160,114014,1,0,0:0:0:0:
224,160,114107,1,0,0:0:0:0:
224,160,114201,1,0,0:0:0:0:
64,32,114389,2,0,L|320:32,1,245
64,32,115139,2,4,L|160:32,1,70
224,224,115514,1,4,0:0:0:0:
224,160,115795,1,0,0:0:0:0:
288,224,115889,1,12,0:0:0:0:
224,160,116076,1,0,0:0:0:0:
224,160,116170,1,0,0:0:0:0:
224,160,116264,1,0,0:0:0:0:
224,160,116357,1,0,0:0:0:0:
224,160,116451,1,0,0:0:0:0:
288,224,116639,1,12,0:0:0:0:
288,160,116826,1,8,0:0:0:0:
224,160,116920,1,0,0:0:0:0:
224,160,117014,1,0,0:0:0:0:
224,160,117107,1,0,0:0:0:0:
288,160,117201,1,8,0:0:0:0:
288,224,117389,1,12,0:0:0:0:
224,160,117576,1,0,0:0:0:0:
288,160,117670,1,8,0:0:0:0:
288,160,117764,1,8,0:0:0:0:
288,160,117857,1,8,0:0:0:0:
224,160,117951,1,0,0:0:0:0:
288,224,118139,1,12,0:0:0:0:
288,160,118420,1,8,0:0:0:0:
224,160,118514,1,0,0:0:0:0:
224,160,118607,1,0,0:0:0:0:
224,160,118701,1,0,0:0:0:0:
288,224,118889,1,12,0:0:0:0:
224,160,119076,1,0,0:0:0:0:
288,160,119170,1,8,0:0:0:0:
224,160,119264,1,0,0:0:0:0:
224,160,119357,1,0,0:0:0:0:
224,160,119451,1,0,0:0:0:0:
224,160,119545,1,0,0:0:0:0:
288,160,119639,1,8,0:0:0:0:
288,160,119732,1,8,0:0:0:0:
224,160,119826,1,0,0:0:0:0:
288,160,119920,1,8,0:0:0:0:
224,160,120014,1,0,0:0:0:0:
224,160,120139,1,0,0:0:0:0:
288,160,120264,1,8,0:0:0:0:
224,160,120389,1,0,0:0:0:0:
224,160,120514,1,0,0:0:0:0:
288,160,120639,1,8,0:0:0:0:
224,160,120764,1,0,0:0:0:0:
224,160,120889,1,0,0:0:0:0:
224,160,121014,1,0,0:0:0:0:
288,160,121139,1,8,0:0:0:0:
288,160,121201,1,8,0:0:0:0:
288,160,121264,1,8,0:0:0:0:
288,160,121326,1,8,0:0:0:0:
288,160,121389,1,8,0:0:0:0:
288,160,121451,1,8,0:0:0:0:
224,160,121514,1,0,0:0:0:0:
