osu file format v14

[General]
AudioFilename: Absurd_Gaff.mp3
AudioLeadIn: 0
PreviewTime: 49352
Countdown: 0
SampleSet: None
StackLeniency: 0.7
Mode: 1
LetterboxInBreaks: 0
WidescreenStoryboard: 1

[Editor]
DistanceSpacing: 1.2
BeatDivisor: 4
GridSize: 8
TimelineZoom: 3.199999

[Metadata]
Title:Absurd Gaff
TitleUnicode:Absurd Gaff
Artist:siromaru
ArtistUnicode:siromaru
Creator:-Kamikaze-
Version:MEGA's Muzukashii
Source:BMS
Tags:the of fighters 2008 resurrection bof2008 schranz _underjoy theziemniax ziemniak gekido- shxfted skalim tristan97 tornspirit frenzyli spoonguy paulmrm megative BillumMoto Janko MrDorian _Gezo_ Gezoda Nwolf zetera
BeatmapID:1046882
BeatmapSetID:365073

[Difficulty]
HPDrainRate:5
CircleSize:2
OverallDifficulty:5
ApproachRate:5
SliderMultiplier:1.9599999666214
SliderTickRate:1

[Events]
//Background and Video events
0,0,"ms_title.jpg",0,0
//Break Periods
//Storyboard Layer 0 (Background)
//Storyboard Layer 1 (Fail)
//Storyboard Layer 2 (Pass)
//Storyboard Layer 3 (Foreground)
//Storyboard Sound Samples

[TimingPoints]
14,375,4,3,0,60,1,0
61514,-100,4,3,0,60,0,1
85139,-100,4,3,0,60,0,0
97514,-100,4,3,0,60,0,1
115514,-100,4,3,0,60,0,0

[HitObjects]
256,192,1514,5,0,0:0:0:0:
256,192,1701,1,0,0:0:0:0:
256,192,1889,1,2,0:0:0:0:
256,192,2170,1,0,0:0:0:0:
256,192,2357,1,2,0:0:0:0:
256,192,2451,1,0,0:0:0:0:
256,192,2639,1,2,0:0:0:0:
256,192,2826,1,0,0:0:0:0:
256,192,3014,1,0,0:0:0:0:
256,192,3201,1,0,0:0:0:0:
256,192,3389,1,2,0:0:0:0:
256,192,3670,1,0,0:0:0:0:
256,192,3857,1,2,0:0:0:0:
256,192,3951,1,0,0:0:0:0:
256,192,4139,1,2,0:0:0:0:
256,192,4514,1,0,0:0:0:0:
256,192,4701,1,0,0:0:0:0:
256,192,4889,1,2,0:0:0:0:
256,192,5076,1,0,0:0:0:0:
256,192,5264,1,2,0:0:0:0:
256,192,5357,1,2,0:0:0:0:
256,192,5451,1,0,0:0:0:0:
256,192,5639,1,2,0:0:0:0:
256,192,5826,1,0,0:0:0:0:
256,192,6014,1,2,0:0:0:0:
256,192,6139,1,2,0:0:0:0:
256,192,6264,1,0,0:0:0:0:
256,192,6389,1,0,0:0:0:0:
256,192,6514,1,2,0:0:0:0:
256,192,6639,1,2,0:0:0:0:
256,192,6951,1,2,0:0:0:0:
256,192,7139,1,0,0:0:0:0:
256,192,7326,1,0,0:0:0:0:
256,192,7514,1,0,0:0:0:0:
256,192,7701,1,0,0:0:0:0:
256,192,7889,1,2,0:0:0:0:
256,192,8170,1,0,0:0:0:0:
256,192,8357,1,2,0:0:0:0:
256,192,8451,1,0,0:0:0:0:
256,192,8639,1,2,0:0:0:0:
256,192,8826,1,0,0:0:0:0:
256,192,9014,1,0,0:0:0:0:
256,192,9201,1,0,0:0:0:0:
256,192,9389,1,2,0:0:0:0:
256,192,9670,1,0,0:0:0:0:
256,192,9857,1,2,0:0:0:0:
256,192,9951,1,0,0:0:0:0:
256,192,10139,1,2,0:0:0:0:
256,192,10514,1,0,0:0:0:0:
256,192,10701,1,0,0:0:0:0:
256,192,10889,1,2,0:0:0:0:
256,192,11076,1,0,0:0:0:0:
256,192,11264,1,2,0:0:0:0:
256,192,11357,1,2,0:0:0:0:
256,192,11451,1,0,0:0:0:0:
256,192,11639,1,2,0:0:0:0:
264,96,11825,1,2,0:0:0:0:
256,192,12014,1,0,0:0:0:0:
256,192,12764,1,0,0:0:0:0:
256,192,12951,1,0,0:0:0:0:
256,192,13139,1,2,0:0:0:0:
256,192,13326,1,2,0:0:0:0:
256,192,13514,1,0,0:0:0:0:
256,192,13701,1,0,0:0:0:0:
256,192,13889,1,2,0:0:0:0:
256,192,14076,1,0,0:0:0:0:
256,192,14451,1,0,0:0:0:0:
256,192,14639,1,2,0:0:0:0:
256,192,14826,1,0,0:0:0:0:
256,192,15201,1,0,0:0:0:0:
256,192,15389,1,2,0:0:0:0:
256,192,15576,1,0,0:0:0:0:
256,192,15951,1,0,0:0:0:0:
256,192,16139,1,2,0:0:0:0:
256,192,16326,1,0,0:0:0:0:
256,192,16701,1,0,0:0:0:0:
256,192,16889,1,2,0:0:0:0:
256,192,17076,1,0,0:0:0:0:
256,192,17451,1,0,0:0:0:0:
256,192,17639,1,2,0:0:0:0:
256,192,17826,1,0,0:0:0:0:
256,192,18201,1,0,0:0:0:0:
256,192,18389,1,2,0:0:0:0:
256,192,18576,1,0,0:0:0:0:
256,192,18951,1,0,0:0:0:0:
256,192,19139,1,2,0:0:0:0:
256,192,19326,1,2,0:0:0:0:
256,192,19514,1,0,0:0:0:0:
256,192,19701,1,0,0:0:0:0:
256,192,19889,1,2,0:0:0:0:
256,192,20076,1,0,0:0:0:0:
256,192,20451,1,0,0:0:0:0:
256,192,20639,1,2,0:0:0:0:
256,192,20826,1,0,0:0:0:0:
256,192,21201,1,0,0:0:0:0:
256,192,21389,1,2,0:0:0:0:
256,192,21576,1,0,0:0:0:0:
256,192,21951,1,0,0:0:0:0:
256,192,22139,1,2,0:0:0:0:
256,192,22326,1,0,0:0:0:0:
256,192,22701,1,0,0:0:0:0:
256,192,22889,1,2,0:0:0:0:
256,192,23076,1,0,0:0:0:0:
256,192,23451,1,0,0:0:0:0:
256,192,23639,1,2,0:0:0:0:
256,192,23826,1,0,0:0:0:0:
256,192,24014,12,0,25139,0:0:0:0:
256,192,25514,5,0,0:0:0:0:
256,192,25701,1,0,0:0:0:0:
256,192,25889,1,2,0:0:0:0:
256,192,26076,1,0,0:0:0:0:
256,192,26264,1,6,0:0:0:0:
256,192,26639,1,0,0:0:0:0:
256,192,26826,1,0,0:0:0:0:
256,192,27014,1,6,0:0:0:0:
256,192,27389,1,0,0:0:0:0:
256,192,27576,1,2,0:0:0:0:
256,192,27764,1,6,0:0:0:0:
256,192,28139,1,0,0:0:0:0:
256,192,28326,1,0,0:0:0:0:
256,192,28514,1,6,0:0:0:0:
256,192,28889,1,0,0:0:0:0:
256,192,29076,1,2,0:0:0:0:
256,192,29264,1,6,0:0:0:0:
256,192,29639,1,0,0:0:0:0:
256,192,29826,1,0,0:0:0:0:
256,192,30014,1,6,0:0:0:0:
256,192,30201,1,0,0:0:0:0:
256,192,30295,1,0,0:0:0:0:
256,192,30389,1,2,0:0:0:0:
256,192,30576,1,0,0:0:0:0:
256,192,30764,1,2,0:0:0:0:
256,192,30951,1,0,0:0:0:0:
256,192,31139,1,2,0:0:0:0:
256,192,31326,1,2,0:0:0:0:
256,192,31514,1,0,0:0:0:0:
256,192,31701,1,0,0:0:0:0:
256,192,31889,1,2,0:0:0:0:
256,192,32076,1,0,0:0:0:0:
256,192,32264,1,6,0:0:0:0:
256,192,32639,1,0,0:0:0:0:
256,192,32826,1,2,0:0:0:0:
256,192,33014,1,6,0:0:0:0:
256,192,33389,1,0,0:0:0:0:
256,192,33576,1,0,0:0:0:0:
256,192,33764,1,6,0:0:0:0:
256,192,34139,1,0,0:0:0:0:
256,192,34326,1,2,0:0:0:0:
256,192,34514,1,6,0:0:0:0:
256,192,34889,1,0,0:0:0:0:
256,192,35076,1,0,0:0:0:0:
256,192,35264,1,6,0:0:0:0:
256,192,35639,1,0,0:0:0:0:
256,192,35826,1,2,0:0:0:0:
256,192,36014,12,0,37139,0:0:0:0:
256,192,37514,5,0,0:0:0:0:
256,192,37701,1,0,0:0:0:0:
256,192,37889,1,2,0:0:0:0:
256,192,38076,1,0,0:0:0:0:
256,192,38264,1,2,0:0:0:0:
256,192,38357,1,2,0:0:0:0:
256,192,38451,1,0,0:0:0:0:
256,192,38639,1,0,0:0:0:0:
256,192,38826,1,2,0:0:0:0:
256,192,39014,1,0,0:0:0:0:
256,192,39201,1,0,0:0:0:0:
256,192,39389,1,2,0:0:0:0:
256,192,39576,1,0,0:0:0:0:
256,192,39764,1,2,0:0:0:0:
256,192,39857,1,0,0:0:0:0:
256,192,39951,1,0,0:0:0:0:
256,192,40139,1,2,0:0:0:0:
256,192,40514,1,0,0:0:0:0:
256,192,40701,1,0,0:0:0:0:
256,192,40889,1,2,0:0:0:0:
256,192,41076,1,0,0:0:0:0:
256,192,41264,1,2,0:0:0:0:
256,192,41357,1,2,0:0:0:0:
256,192,41451,1,0,0:0:0:0:
256,192,41639,1,0,0:0:0:0:
256,192,41826,1,2,0:0:0:0:
256,192,42014,12,0,43139,0:0:0:0:
256,192,43514,5,0,0:0:0:0:
256,192,43701,1,0,0:0:0:0:
256,192,43889,1,2,0:0:0:0:
256,192,44076,1,0,0:0:0:0:
256,192,44264,1,2,0:0:0:0:
256,192,44357,1,2,0:0:0:0:
256,192,44451,1,0,0:0:0:0:
256,192,44639,1,2,0:0:0:0:
256,192,44826,1,0,0:0:0:0:
256,192,45014,1,0,0:0:0:0:
256,192,45201,1,0,0:0:0:0:
256,192,45389,1,2,0:0:0:0:
256,192,45576,1,0,0:0:0:0:
256,192,45764,1,2,0:0:0:0:
256,192,45857,1,0,0:0:0:0:
256,192,45951,1,0,0:0:0:0:
256,192,46139,1,2,0:0:0:0:
256,192,46514,1,0,0:0:0:0:
256,192,46701,1,0,0:0:0:0:
256,192,46889,1,2,0:0:0:0:
256,192,47076,1,0,0:0:0:0:
256,192,47264,1,2,0:0:0:0:
256,192,47357,1,2,0:0:0:0:
256,192,47451,1,0,0:0:0:0:
256,192,47639,1,0,0:0:0:0:
256,192,47826,1,2,0:0:0:0:
256,192,48014,1,0,0:0:0:0:
256,192,48201,1,2,0:0:0:0:
256,192,48295,1,0,0:0:0:0:
256,192,48389,1,0,0:0:0:0:
256,192,48764,2,0,L|384:96,1,140
256,192,49514,1,0,0:0:0:0:
256,192,49701,1,0,0:0:0:0:
256,192,49889,1,2,0:0:0:0:
256,192,50076,1,0,0:0:0:0:
256,192,50170,1,2,0:0:0:0:
256,192,50264,1,2,0:0:0:0:
256,192,50451,1,0,0:0:0:0:
256,192,50639,1,2,0:0:0:0:
256,192,50826,1,0,0:0:0:0:
256,192,51014,1,0,0:0:0:0:
256,192,51201,1,0,0:0:0:0:
256,192,51295,1,0,0:0:0:0:
256,192,51389,1,2,0:0:0:0:
256,192,51576,1,0,0:0:0:0:
256,192,51670,1,2,0:0:0:0:
256,192,51764,1,2,0:0:0:0:
256,192,51951,1,0,0:0:0:0:
256,192,52139,1,2,0:0:0:0:
256,192,52514,1,0,0:0:0:0:
256,192,52701,1,0,0:0:0:0:
256,192,52889,1,2,0:0:0:0:
256,192,53076,1,0,0:0:0:0:
256,192,53170,1,2,0:0:0:0:
256,192,53264,1,2,0:0:0:0:
256,192,53451,1,0,0:0:0:0:
256,192,53639,1,2,0:0:0:0:
256,192,53826,1,0,0:0:0:0:
256,192,54014,1,0,0:0:0:0:
256,192,54201,1,0,0:0:0:0:
256,192,54295,1,0,0:0:0:0:
256,192,54389,1,2,0:0:0:0:
256,192,54576,1,0,0:0:0:0:
256,192,54764,1,0,0:0:0:0:
256,192,54857,1,0,0:0:0:0:
256,192,54951,1,2,0:0:0:0:
256,192,55139,1,2,0:0:0:0:
256,192,55514,1,0,0:0:0:0:
256,192,55701,1,0,0:0:0:0:
256,192,55889,1,2,0:0:0:0:
256,192,56076,1,0,0:0:0:0:
256,192,56170,1,2,0:0:0:0:
256,192,56264,1,2,0:0:0:0:
256,192,56451,1,0,0:0:0:0:
256,192,56639,1,2,0:0:0:0:
256,192,56826,1,0,0:0:0:0:
256,192,57014,1,0,0:0:0:0:
256,192,57201,1,0,0:0:0:0:
256,192,57295,1,0,0:0:0:0:
256,192,57389,1,2,0:0:0:0:
256,192,57576,1,0,0:0:0:0:
256,192,57670,1,2,0:0:0:0:
256,192,57764,1,2,0:0:0:0:
256,192,57951,1,0,0:0:0:0:
256,192,58139,1,2,0:0:0:0:
256,192,58514,12,0,59639,0:0:0:0:
256,192,60014,5,2,0:0:0:0:
256,192,60139,1,0,0:0:0:0:
256,192,60264,1,0,0:0:0:0:
256,192,60389,1,2,0:0:0:0:
256,192,60576,1,0,0:0:0:0:
256,192,60764,1,2,0:0:0:0:
256,192,60857,1,2,0:0:0:0:
256,192,60951,1,2,0:0:0:0:
256,192,61139,1,0,0:0:0:0:
256,192,61514,1,0,0:0:0:0:
256,192,61701,1,0,0:0:0:0:
256,192,61889,1,2,0:0:0:0:
256,192,62076,1,0,0:0:0:0:
256,192,62170,1,0,0:0:0:0:
256,192,62264,1,2,0:0:0:0:
256,192,62451,1,0,0:0:0:0:
256,192,62639,1,2,0:0:0:0:
256,192,62826,1,0,0:0:0:0:
256,192,62920,1,2,0:0:0:0:
256,192,63014,1,2,0:0:0:0:
256,192,63201,1,0,0:0:0:0:
256,192,63389,1,0,0:0:0:0:
256,192,63576,1,2,0:0:0:0:
256,192,63764,1,0,0:0:0:0:
256,192,63951,1,0,0:0:0:0:
256,192,64139,1,2,0:0:0:0:
256,192,64326,1,0,0:0:0:0:
256,192,64514,1,2,0:0:0:0:
256,192,64607,1,2,0:0:0:0:
256,192,64701,1,0,0:0:0:0:
256,192,64889,1,0,0:0:0:0:
256,192,65076,1,0,0:0:0:0:
256,192,65264,1,2,0:0:0:0:
256,192,65357,1,0,0:0:0:0:
256,192,65451,1,0,0:0:0:0:
256,192,65639,1,0,0:0:0:0:
256,192,65826,1,2,0:0:0:0:
256,192,66014,1,0,0:0:0:0:
256,192,66201,1,2,0:0:0:0:
256,192,66295,1,2,0:0:0:0:
256,192,66389,1,0,0:0:0:0:
256,192,66576,1,0,0:0:0:0:
256,192,66764,1,0,0:0:0:0:
256,192,66951,1,0,0:0:0:0:
256,192,67045,1,0,0:0:0:0:
256,192,67139,1,2,0:0:0:0:
256,192,67514,1,0,0:0:0:0:
256,192,67701,1,0,0:0:0:0:
256,192,67889,1,2,0:0:0:0:
256,192,68076,1,0,0:0:0:0:
256,192,68170,1,0,0:0:0:0:
256,192,68264,1,2,0:0:0:0:
256,192,68451,1,0,0:0:0:0:
256,192,68639,1,2,0:0:0:0:
256,192,68826,1,0,0:0:0:0:
256,192,68920,1,2,0:0:0:0:
256,192,69014,1,2,0:0:0:0:
256,192,69201,1,0,0:0:0:0:
256,192,69389,1,0,0:0:0:0:
256,192,69576,1,2,0:0:0:0:
256,192,69764,1,0,0:0:0:0:
256,192,69951,1,0,0:0:0:0:
256,192,70139,1,2,0:0:0:0:
256,192,70326,1,0,0:0:0:0:
256,192,70514,1,2,0:0:0:0:
256,192,70607,1,2,0:0:0:0:
256,192,70701,1,0,0:0:0:0:
256,192,70889,1,2,0:0:0:0:
256,192,71076,1,0,0:0:0:0:
256,192,71264,1,2,0:0:0:0:
256,192,71357,1,0,0:0:0:0:
256,192,71451,1,0,0:0:0:0:
256,192,71639,1,0,0:0:0:0:
256,192,71826,1,2,0:0:0:0:
256,192,72014,1,2,0:0:0:0:
256,192,72107,1,0,0:0:0:0:
256,192,72201,1,0,0:0:0:0:
256,192,72389,1,2,0:0:0:0:
256,192,72482,1,0,0:0:0:0:
256,192,72576,1,0,0:0:0:0:
256,192,72764,2,0,L|392:112,1,140
256,192,73514,5,0,0:0:0:0:
256,192,73701,1,0,0:0:0:0:
256,192,73889,1,2,0:0:0:0:
256,192,74076,1,0,0:0:0:0:
256,192,74170,1,0,0:0:0:0:
256,192,74264,1,2,0:0:0:0:
256,192,74451,1,0,0:0:0:0:
256,192,74639,1,2,0:0:0:0:
256,192,74826,1,0,0:0:0:0:
256,192,74920,1,2,0:0:0:0:
256,192,75014,1,2,0:0:0:0:
256,192,75201,1,0,0:0:0:0:
256,192,75389,1,0,0:0:0:0:
256,192,75576,1,2,0:0:0:0:
256,192,75764,1,0,0:0:0:0:
256,192,75951,1,0,0:0:0:0:
256,192,76139,1,2,0:0:0:0:
256,192,76326,1,0,0:0:0:0:
256,192,76514,1,2,0:0:0:0:
256,192,76607,1,2,0:0:0:0:
256,192,76701,1,0,0:0:0:0:
256,192,76889,1,0,0:0:0:0:
256,192,77076,1,0,0:0:0:0:
256,192,77264,1,2,0:0:0:0:
256,192,77357,1,0,0:0:0:0:
256,192,77451,1,0,0:0:0:0:
256,192,77639,1,0,0:0:0:0:
256,192,77826,1,2,0:0:0:0:
256,192,78014,12,0,79139,0:0:0:0:
256,192,79514,5,0,0:0:0:0:
256,192,79701,1,0,0:0:0:0:
256,192,79889,1,2,0:0:0:0:
256,192,80076,1,0,0:0:0:0:
256,192,80170,1,0,0:0:0:0:
256,192,80264,1,2,0:0:0:0:
256,192,80451,1,0,0:0:0:0:
256,192,80639,1,2,0:0:0:0:
256,192,80826,1,0,0:0:0:0:
256,192,80920,1,2,0:0:0:0:
256,192,81014,1,2,0:0:0:0:
256,192,81201,1,0,0:0:0:0:
256,192,81389,1,0,0:0:0:0:
256,192,81576,1,2,0:0:0:0:
256,192,81764,1,0,0:0:0:0:
256,192,81951,1,0,0:0:0:0:
256,192,82139,1,2,0:0:0:0:
256,192,82326,1,0,0:0:0:0:
256,192,82514,1,2,0:0:0:0:
256,192,82607,1,2,0:0:0:0:
256,192,82701,1,0,0:0:0:0:
256,192,82889,1,0,0:0:0:0:
256,192,83076,1,0,0:0:0:0:
256,192,83264,1,2,0:0:0:0:
256,192,83357,1,0,0:0:0:0:
256,192,83451,1,0,0:0:0:0:
256,192,83639,1,0,0:0:0:0:
256,192,83826,1,2,0:0:0:0:
256,192,84014,12,0,85139,0:0:0:0:
256,192,85514,5,0,0:0:0:0:
256,192,85701,1,0,0:0:0:0:
256,192,85889,1,2,0:0:0:0:
256,192,86076,1,0,0:0:0:0:
256,192,86264,1,2,0:0:0:0:
256,192,86357,1,2,0:0:0:0:
256,192,86451,1,0,0:0:0:0:
256,192,86639,1,0,0:0:0:0:
256,192,86826,1,0,0:0:0:0:
256,192,87014,1,0,0:0:0:0:
256,192,87201,1,0,0:0:0:0:
256,192,87389,1,2,0:0:0:0:
256,192,87576,1,0,0:0:0:0:
256,192,87764,1,2,0:0:0:0:
256,192,87857,1,0,0:0:0:0:
256,192,87951,1,0,0:0:0:0:
256,192,88139,1,2,0:0:0:0:
256,192,88514,1,0,0:0:0:0:
256,192,88701,1,0,0:0:0:0:
256,192,88889,1,2,0:0:0:0:
256,192,89076,1,0,0:0:0:0:
256,192,89264,1,2,0:0:0:0:
256,192,89357,1,2,0:0:0:0:
256,192,89451,1,0,0:0:0:0:
256,192,89639,1,0,0:0:0:0:
256,192,89826,1,0,0:0:0:0:
256,192,90014,1,0,0:0:0:0:
256,192,90201,1,0,0:0:0:0:
256,192,90389,1,2,0:0:0:0:
256,192,90576,1,0,0:0:0:0:
256,192,90670,1,2,0:0:0:0:
256,192,90764,1,2,0:0:0:0:
256,192,91139,1,2,0:0:0:0:
256,192,91514,1,0,0:0:0:0:
256,192,91701,1,0,0:0:0:0:
256,192,91889,1,2,0:0:0:0:
256,192,92076,1,0,0:0:0:0:
256,192,92264,1,2,0:0:0:0:
256,192,92357,1,2,0:0:0:0:
256,192,92451,1,0,0:0:0:0:
256,192,92639,1,0,0:0:0:0:
256,192,92826,1,0,0:0:0:0:
256,192,93014,1,0,0:0:0:0:
256,192,93201,1,0,0:0:0:0:
256,192,93389,1,2,0:0:0:0:
256,192,93576,1,0,0:0:0:0:
256,192,93764,1,2,0:0:0:0:
256,192,93857,1,0,0:0:0:0:
256,192,93951,1,0,0:0:0:0:
256,192,94139,1,2,0:0:0:0:
256,192,94514,1,0,0:0:0:0:
256,192,94701,1,0,0:0:0:0:
256,192,94889,1,2,0:0:0:0:
256,192,95076,1,0,0:0:0:0:
256,192,95264,1,2,0:0:0:0:
256,192,95357,1,2,0:0:0:0:
256,192,95451,1,0,0:0:0:0:
256,192,95639,1,0,0:0:0:0:
256,192,95826,1,2,0:0:0:0:
256,192,96014,1,2,0:0:0:0:
256,192,96764,1,2,0:0:0:0:
256,192,96857,1,2,0:0:0:0:
256,192,96951,1,2,0:0:0:0:
256,192,97045,1,2,0:0:0:0:
256,192,97139,1,2,0:0:0:0:
256,192,97514,1,0,0:0:0:0:
256,192,97701,1,0,0:0:0:0:
256,192,97889,1,2,0:0:0:0:
256,192,98076,1,0,0:0:0:0:
256,192,98170,1,0,0:0:0:0:
256,192,98264,1,2,0:0:0:0:
256,192,98451,1,0,0:0:0:0:
256,192,98639,1,2,0:0:0:0:
256,192,98826,1,0,0:0:0:0:
256,192,99014,1,0,0:0:0:0:
256,192,99201,1,0,0:0:0:0:
256,192,99389,1,2,0:0:0:0:
256,192,99576,1,0,0:0:0:0:
256,192,99670,1,2,0:0:0:0:
256,192,99764,1,2,0:0:0:0:
256,192,99951,1,0,0:0:0:0:
256,192,100139,1,2,0:0:0:0:
256,192,100326,1,0,0:0:0:0:
256,192,100514,1,0,0:0:0:0:
256,192,100701,1,0,0:0:0:0:
256,192,100889,1,2,0:0:0:0:
256,192,101076,1,2,0:0:0:0:
256,192,101170,1,0,0:0:0:0:
256,192,101264,1,0,0:0:0:0:
256,192,101451,1,0,0:0:0:0:
256,192,101639,1,2,0:0:0:0:
256,192,101826,1,0,0:0:0:0:
256,192,102014,1,2,0:0:0:0:
256,192,102139,1,2,0:0:0:0:
256,192,102264,1,0,0:0:0:0:
256,192,102389,1,0,0:0:0:0:
256,192,102514,1,2,0:0:0:0:
256,192,102639,1,2,0:0:0:0:
256,192,102764,1,0,0:0:0:0:
256,192,102889,1,0,0:0:0:0:
256,192,103014,1,2,0:0:0:0:
256,192,103139,1,2,0:0:0:0:
256,192,103514,1,0,0:0:0:0:
256,192,103701,1,0,0:0:0:0:
256,192,103889,1,2,0:0:0:0:
256,192,104076,1,0,0:0:0:0:
256,192,104170,1,0,0:0:0:0:
256,192,104264,1,2,0:0:0:0:
256,192,104451,1,0,0:0:0:0:
256,192,104639,1,2,0:0:0:0:
256,192,104826,1,0,0:0:0:0:
256,192,105014,1,0,0:0:0:0:
256,192,105201,1,0,0:0:0:0:
256,192,105389,1,2,0:0:0:0:
256,192,105576,1,0,0:0:0:0:
256,192,105670,1,2,0:0:0:0:
256,192,105764,1,2,0:0:0:0:
256,192,105951,1,0,0:0:0:0:
256,192,106139,1,2,0:0:0:0:
256,192,106326,1,0,0:0:0:0:
256,192,106514,1,0,0:0:0:0:
256,192,106701,1,0,0:0:0:0:
256,192,106889,1,2,0:0:0:0:
256,192,107076,1,2,0:0:0:0:
256,192,107170,1,0,0:0:0:0:
256,192,107264,1,0,0:0:0:0:
256,192,107451,1,0,0:0:0:0:
256,192,107639,1,2,0:0:0:0:
256,192,107826,1,0,0:0:0:0:
256,192,108014,12,0,109139,0:0:0:0:
256,192,109514,5,0,0:0:0:0:
256,192,109701,1,0,0:0:0:0:
256,192,109889,1,2,0:0:0:0:
256,192,110076,1,0,0:0:0:0:
256,192,110170,1,0,0:0:0:0:
256,192,110264,1,2,0:0:0:0:
256,192,110451,1,0,0:0:0:0:
256,192,110639,1,2,0:0:0:0:
256,192,110826,1,0,0:0:0:0:
256,192,111014,1,0,0:0:0:0:
256,192,111201,1,0,0:0:0:0:
256,192,111389,1,2,0:0:0:0:
256,192,111576,1,0,0:0:0:0:
256,192,111670,1,2,0:0:0:0:
256,192,111764,1,2,0:0:0:0:
256,192,111951,1,0,0:0:0:0:
256,192,112139,1,2,0:0:0:0:
256,192,112326,1,0,0:0:0:0:
256,192,112514,1,0,0:0:0:0:
256,192,112701,1,0,0:0:0:0:
256,192,112889,1,2,0:0:0:0:
256,192,113076,1,2,0:0:0:0:
256,192,113170,1,0,0:0:0:0:
256,192,113264,1,0,0:0:0:0:
256,192,113451,1,0,0:0:0:0:
256,192,113639,1,2,0:0:0:0:
256,192,113826,1,0,0:0:0:0:
256,192,114014,12,0,115139,0:0:0:0:
256,192,115514,5,0,0:0:0:0:
256,192,115701,1,0,0:0:0:0:
256,192,115889,1,2,0:0:0:0:
256,192,116076,1,0,0:0:0:0:
256,192,116264,1,2,0:0:0:0:
256,192,116357,1,0,0:0:0:0:
256,192,116451,1,0,0:0:0:0:
256,192,116639,1,2,0:0:0:0:
256,192,116826,1,0,0:0:0:0:
256,192,117014,1,0,0:0:0:0:
256,192,117201,1,0,0:0:0:0:
256,192,117389,1,2,0:0:0:0:
256,192,117576,1,0,0:0:0:0:
256,192,117764,1,2,0:0:0:0:
256,192,117857,1,0,0:0:0:0:
256,192,117951,1,0,0:0:0:0:
256,192,118139,1,2,0:0:0:0:
256,192,118514,1,0,0:0:0:0:
256,192,118701,1,0,0:0:0:0:
256,192,118889,1,2,0:0:0:0:
256,192,119076,1,0,0:0:0:0:
256,192,119170,1,0,0:0:0:0:
256,192,119264,1,2,0:0:0:0:
256,192,119451,1,0,0:0:0:0:
256,192,119639,1,2,0:0:0:0:
256,192,119826,1,0,0:0:0:0:
256,192,120014,1,2,0:0:0:0:
256,192,120139,1,2,0:0:0:0:
256,192,120264,1,0,0:0:0:0:
256,192,120389,1,0,0:0:0:0:
256,192,120514,1,2,0:0:0:0:
256,192,120639,1,2,0:0:0:0:
256,192,120764,1,0,0:0:0:0:
256,192,120889,1,0,0:0:0:0:
256,192,121014,1,2,0:0:0:0:
256,192,121139,1,2,0:0:0:0:
256,192,121514,1,0,0:0:0:0:
