osu file format v14

[General]
AudioFilename: Absurd_Gaff.mp3
AudioLeadIn: 0
PreviewTime: 49352
Countdown: 0
SampleSet: None
StackLeniency: 0.7
Mode: 1
LetterboxInBreaks: 0
WidescreenStoryboard: 1

[Editor]
DistanceSpacing: 0.6
BeatDivisor: 2
GridSize: 8
TimelineZoom: 1.8

[Metadata]
Title:Absurd Gaff
TitleUnicode:Absurd Gaff
Artist:siromaru
ArtistUnicode:siromaru
Creator:-Kamikaze-
Version:MEGA's Futsuu
Source:BMS
Tags:the of fighters 2008 resurrection bof2008 schranz _underjoy theziemniax ziemniak gekido- shxfted skalim tristan97 tornspirit frenzyli spoonguy paulmrm megative BillumMoto Janko MrDorian _Gezo_ Gezoda Nwolf zetera
BeatmapID:1046881
BeatmapSetID:365073

[Difficulty]
HPDrainRate:4
CircleSize:5
OverallDifficulty:4
ApproachRate:5
SliderMultiplier:1.4
SliderTickRate:1

[Events]
//Background and Video events
0,0,"ms_title.jpg",0,0
//Break Periods
//Storyboard Layer 0 (Background)
//Storyboard Layer 1 (Fail)
//Storyboard Layer 2 (Pass)
//Storyboard Layer 3 (Foreground)
//Storyboard Sound Samples

[TimingPoints]
14,375,4,3,0,60,1,0
61514,-100,4,3,0,60,0,1
85139,-100,4,3,0,60,0,0
97514,-100,4,3,0,60,0,1
115514,-100,4,3,0,60,0,0

[HitObjects]
256,192,1514,5,0,0:0:0:0:
256,192,1889,1,2,0:0:0:0:
256,192,2264,1,0,0:0:0:0:
256,192,2451,1,0,0:0:0:0:
256,192,2639,1,2,0:0:0:0:
256,192,3014,1,0,0:0:0:0:
256,192,3389,1,2,0:0:0:0:
256,192,3764,1,0,0:0:0:0:
256,192,4139,1,2,0:0:0:0:
256,192,4514,1,0,0:0:0:0:
256,192,4889,1,2,0:0:0:0:
256,192,5264,1,0,0:0:0:0:
256,192,5451,1,0,0:0:0:0:
256,192,5639,1,2,0:0:0:0:
256,192,6014,1,0,0:0:0:0:
256,192,6389,1,0,0:0:0:0:
256,192,6764,1,0,0:0:0:0:
256,192,7139,1,0,0:0:0:0:
256,192,7514,1,0,0:0:0:0:
256,192,7889,1,2,0:0:0:0:
256,192,8264,1,0,0:0:0:0:
256,192,8451,1,0,0:0:0:0:
256,192,8639,1,2,0:0:0:0:
256,192,9014,1,0,0:0:0:0:
256,192,9389,1,2,0:0:0:0:
256,192,9764,1,0,0:0:0:0:
256,192,10139,1,2,0:0:0:0:
256,192,10514,1,0,0:0:0:0:
256,192,10889,1,2,0:0:0:0:
256,192,11264,1,0,0:0:0:0:
256,192,11451,1,0,0:0:0:0:
256,192,11639,1,2,0:0:0:0:
256,192,12014,1,2,0:0:0:0:
256,192,12764,1,2,0:0:0:0:
256,192,12951,1,2,0:0:0:0:
256,192,13139,1,0,0:0:0:0:
256,192,13514,1,4,0:0:0:0:
256,192,13889,1,2,0:0:0:0:
256,192,14264,1,0,0:0:0:0:
256,192,14639,1,2,0:0:0:0:
256,192,15014,1,0,0:0:0:0:
256,192,15389,1,2,0:0:0:0:
256,192,15764,1,0,0:0:0:0:
256,192,16139,1,2,0:0:0:0:
256,192,16514,1,0,0:0:0:0:
256,192,16889,1,2,0:0:0:0:
256,192,17264,1,0,0:0:0:0:
256,192,17639,1,2,0:0:0:0:
256,192,18014,1,0,0:0:0:0:
256,192,18389,1,2,0:0:0:0:
256,192,18764,1,0,0:0:0:0:
256,192,19139,1,6,0:0:0:0:
256,192,19514,1,0,0:0:0:0:
256,192,19889,1,2,0:0:0:0:
256,192,20264,1,0,0:0:0:0:
256,192,20639,1,2,0:0:0:0:
256,192,21014,1,0,0:0:0:0:
256,192,21389,1,2,0:0:0:0:
256,192,21764,1,0,0:0:0:0:
256,192,22139,1,2,0:0:0:0:
256,192,22514,1,0,0:0:0:0:
256,192,22889,1,2,0:0:0:0:
256,192,23264,1,0,0:0:0:0:
256,192,23639,1,0,0:0:0:0:
256,192,24014,2,0,L|376:80,3,140
256,192,25514,1,4,0:0:0:0:
256,192,25889,1,0,0:0:0:0:
256,192,26264,1,2,0:0:0:0:
256,192,26639,1,0,0:0:0:0:
256,192,27014,1,2,0:0:0:0:
256,192,27389,1,0,0:0:0:0:
256,192,27764,1,2,0:0:0:0:
256,192,28139,1,0,0:0:0:0:
256,192,28514,1,2,0:0:0:0:
256,192,28889,1,0,0:0:0:0:
256,192,29264,1,2,0:0:0:0:
256,192,29639,1,0,0:0:0:0:
256,192,30014,1,2,0:0:0:0:
256,192,30389,1,2,0:0:0:0:
256,192,30764,1,0,0:0:0:0:
256,192,31139,1,0,0:0:0:0:
256,192,31514,1,0,0:0:0:0:
256,192,31889,1,0,0:0:0:0:
256,192,32264,1,2,0:0:0:0:
256,192,32639,1,0,0:0:0:0:
256,192,33014,1,2,0:0:0:0:
256,192,33389,1,0,0:0:0:0:
256,192,33764,1,2,0:0:0:0:
256,192,34139,1,0,0:0:0:0:
256,192,34514,1,2,0:0:0:0:
256,192,34889,1,0,0:0:0:0:
256,192,35264,1,2,0:0:0:0:
256,192,35639,1,0,0:0:0:0:
256,192,36014,12,0,37139,0:0:0:0:
256,192,37514,5,0,0:0:0:0:
256,192,37889,1,2,0:0:0:0:
256,192,38264,1,0,0:0:0:0:
256,192,38451,1,0,0:0:0:0:
256,192,38639,1,2,0:0:0:0:
256,192,39014,1,0,0:0:0:0:
256,192,39389,1,2,0:0:0:0:
256,192,39764,1,0,0:0:0:0:
256,192,40139,1,2,0:0:0:0:
256,192,40514,1,0,0:0:0:0:
256,192,40889,1,2,0:0:0:0:
256,192,41264,1,0,0:0:0:0:
256,192,41451,1,0,0:0:0:0:
256,192,41639,1,2,0:0:0:0:
256,192,42014,1,0,0:0:0:0:
256,192,42389,1,6,0:0:0:0:
256,192,43514,1,0,0:0:0:0:
256,192,43889,1,2,0:0:0:0:
256,192,44264,1,0,0:0:0:0:
256,192,44451,1,0,0:0:0:0:
256,192,44639,1,2,0:0:0:0:
256,192,45014,1,0,0:0:0:0:
256,192,45389,1,2,0:0:0:0:
256,192,45764,1,0,0:0:0:0:
256,192,46139,1,2,0:0:0:0:
256,192,46514,1,0,0:0:0:0:
256,192,46889,1,2,0:0:0:0:
256,192,47264,1,0,0:0:0:0:
256,192,47451,1,0,0:0:0:0:
256,192,47639,1,2,0:0:0:0:
256,192,48014,1,0,0:0:0:0:
256,192,48389,1,0,0:0:0:0:
256,192,48764,1,2,0:0:0:0:
256,192,48951,1,2,0:0:0:0:
256,192,49139,1,2,0:0:0:0:
256,192,49514,1,6,0:0:0:0:
256,192,50076,1,0,0:0:0:0:
256,192,50264,1,2,0:0:0:0:
256,192,50826,1,0,0:0:0:0:
256,192,51201,1,0,0:0:0:0:
256,192,51389,1,0,0:0:0:0:
256,192,52514,1,2,0:0:0:0:
256,192,53076,1,0,0:0:0:0:
256,192,53264,1,2,0:0:0:0:
256,192,53826,1,0,0:0:0:0:
256,192,54201,1,2,0:0:0:0:
256,192,54389,1,2,0:0:0:0:
256,192,55139,1,2,0:0:0:0:
256,192,55514,1,2,0:0:0:0:
256,192,56076,1,0,0:0:0:0:
256,192,56264,1,2,0:0:0:0:
256,192,56826,1,0,0:0:0:0:
256,192,57201,1,0,0:0:0:0:
256,192,57389,1,0,0:0:0:0:
256,192,58514,1,2,0:0:0:0:
256,192,59076,1,0,0:0:0:0:
256,192,59264,1,2,0:0:0:0:
256,192,59826,1,0,0:0:0:0:
256,192,60014,12,0,61139,0:0:0:0:
256,192,61514,5,0,0:0:0:0:
256,192,61889,1,0,0:0:0:0:
256,192,62076,1,2,0:0:0:0:
256,192,62264,1,2,0:0:0:0:
256,192,62639,1,0,0:0:0:0:
256,192,62826,1,0,0:0:0:0:
256,192,63201,1,2,0:0:0:0:
256,192,63389,1,2,0:0:0:0:
256,192,63764,1,0,0:0:0:0:
256,192,64139,1,2,0:0:0:0:
256,192,64514,1,0,0:0:0:0:
256,192,64889,1,0,0:0:0:0:
256,192,65076,1,2,0:0:0:0:
256,192,65264,1,2,0:0:0:0:
256,192,65639,1,0,0:0:0:0:
256,192,65826,1,2,0:0:0:0:
256,192,66201,1,2,0:0:0:0:
256,192,66389,1,2,0:0:0:0:
256,192,66764,1,0,0:0:0:0:
256,192,67139,1,2,0:0:0:0:
256,192,67514,1,0,0:0:0:0:
256,192,67889,1,0,0:0:0:0:
256,192,68076,1,2,0:0:0:0:
256,192,68264,1,2,0:0:0:0:
256,192,68639,1,0,0:0:0:0:
256,192,68826,1,0,0:0:0:0:
256,192,69201,1,2,0:0:0:0:
256,192,69389,1,2,0:0:0:0:
256,192,69764,1,0,0:0:0:0:
256,192,70139,1,2,0:0:0:0:
256,192,70514,1,0,0:0:0:0:
256,192,70889,1,0,0:0:0:0:
256,192,71076,1,2,0:0:0:0:
256,192,71264,1,2,0:0:0:0:
256,192,71639,1,0,0:0:0:0:
256,192,71826,1,2,0:0:0:0:
256,192,72201,1,2,0:0:0:0:
256,192,72389,1,2,0:0:0:0:
256,192,72764,1,0,0:0:0:0:
256,192,73514,1,0,0:0:0:0:
256,192,73889,1,0,0:0:0:0:
256,192,74076,1,2,0:0:0:0:
256,192,74264,1,2,0:0:0:0:
256,192,74639,1,0,0:0:0:0:
256,192,74826,1,0,0:0:0:0:
256,192,75201,1,2,0:0:0:0:
256,192,75389,1,2,0:0:0:0:
256,192,75764,1,0,0:0:0:0:
256,192,76139,1,2,0:0:0:0:
256,192,76514,1,0,0:0:0:0:
256,192,76889,1,0,0:0:0:0:
256,192,77076,1,2,0:0:0:0:
256,192,77264,1,2,0:0:0:0:
256,192,77639,1,0,0:0:0:0:
256,192,77826,1,2,0:0:0:0:
256,192,78014,12,0,79326,0:0:0:0:
256,192,79514,5,0,0:0:0:0:
256,192,79889,1,0,0:0:0:0:
256,192,80076,1,2,0:0:0:0:
256,192,80264,1,2,0:0:0:0:
256,192,80639,1,0,0:0:0:0:
256,192,80826,1,0,0:0:0:0:
256,192,81201,1,2,0:0:0:0:
256,192,81389,1,2,0:0:0:0:
256,192,81764,1,0,0:0:0:0:
256,192,82139,1,2,0:0:0:0:
256,192,82514,1,0,0:0:0:0:
256,192,82889,1,0,0:0:0:0:
256,192,83076,1,2,0:0:0:0:
256,192,83264,1,2,0:0:0:0:
256,192,83639,1,0,0:0:0:0:
256,192,83826,1,2,0:0:0:0:
256,192,84014,12,0,85139,0:0:0:0:
256,192,85514,5,0,0:0:0:0:
256,192,85889,1,2,0:0:0:0:
256,192,86264,1,0,0:0:0:0:
256,192,86451,1,0,0:0:0:0:
256,192,86639,1,2,0:0:0:0:
256,192,87014,1,0,0:0:0:0:
256,192,87389,1,2,0:0:0:0:
256,192,87764,1,0,0:0:0:0:
256,192,87951,1,0,0:0:0:0:
256,192,88139,1,2,0:0:0:0:
256,192,88514,1,0,0:0:0:0:
256,192,88889,1,2,0:0:0:0:
256,192,89264,1,0,0:0:0:0:
256,192,89451,1,0,0:0:0:0:
256,192,89639,1,2,0:0:0:0:
256,192,90014,1,0,0:0:0:0:
256,192,90389,1,2,0:0:0:0:
256,192,90764,1,2,0:0:0:0:
256,192,91139,1,2,0:0:0:0:
256,192,91514,1,0,0:0:0:0:
256,192,91889,1,2,0:0:0:0:
256,192,92264,1,0,0:0:0:0:
256,192,92451,1,0,0:0:0:0:
256,192,92639,1,2,0:0:0:0:
256,192,93014,1,0,0:0:0:0:
256,192,93389,1,2,0:0:0:0:
256,192,93764,1,0,0:0:0:0:
256,192,93951,1,0,0:0:0:0:
256,192,94139,1,2,0:0:0:0:
256,192,94514,1,0,0:0:0:0:
256,192,94889,1,2,0:0:0:0:
256,192,95264,1,0,0:0:0:0:
256,192,95451,1,0,0:0:0:0:
256,192,95639,1,0,0:0:0:0:
256,192,96014,1,2,0:0:0:0:
256,192,96764,1,0,0:0:0:0:
256,192,97139,1,6,0:0:0:0:
256,192,97514,1,0,0:0:0:0:
256,192,97889,1,2,0:0:0:0:
256,192,98264,1,0,0:0:0:0:
256,192,98451,1,0,0:0:0:0:
256,192,98639,1,2,0:0:0:0:
256,192,99014,1,0,0:0:0:0:
256,192,99389,1,2,0:0:0:0:
256,192,99764,1,0,0:0:0:0:
256,192,99951,1,0,0:0:0:0:
256,192,100139,1,2,0:0:0:0:
256,192,100514,1,0,0:0:0:0:
256,192,100889,1,2,0:0:0:0:
256,192,101264,1,0,0:0:0:0:
256,192,101451,1,0,0:0:0:0:
256,192,101639,1,2,0:0:0:0:
256,192,102014,1,0,0:0:0:0:
256,192,102389,1,0,0:0:0:0:
256,192,102764,1,0,0:0:0:0:
256,192,103139,1,2,0:0:0:0:
256,192,103514,1,0,0:0:0:0:
256,192,103889,1,2,0:0:0:0:
256,192,104264,1,0,0:0:0:0:
256,192,104451,1,0,0:0:0:0:
256,192,104639,1,2,0:0:0:0:
256,192,105014,1,0,0:0:0:0:
256,192,105389,1,2,0:0:0:0:
256,192,105764,1,0,0:0:0:0:
256,192,105951,1,0,0:0:0:0:
256,192,106139,1,2,0:0:0:0:
256,192,106514,1,0,0:0:0:0:
256,192,106889,1,2,0:0:0:0:
256,192,107264,1,0,0:0:0:0:
256,192,107451,1,0,0:0:0:0:
256,192,107639,1,2,0:0:0:0:
256,192,108014,12,0,109139,0:0:0:0:
256,192,109514,5,0,0:0:0:0:
256,192,109889,1,2,0:0:0:0:
256,192,110264,1,0,0:0:0:0:
256,192,110451,1,0,0:0:0:0:
256,192,110639,1,2,0:0:0:0:
256,192,111014,1,0,0:0:0:0:
256,192,111389,1,2,0:0:0:0:
256,192,111764,1,0,0:0:0:0:
256,192,111951,1,0,0:0:0:0:
256,192,112139,1,2,0:0:0:0:
256,192,112514,1,0,0:0:0:0:
256,192,112889,1,2,0:0:0:0:
256,192,113264,1,0,0:0:0:0:
256,192,113451,1,0,0:0:0:0:
256,192,113639,1,2,0:0:0:0:
256,192,114014,12,0,115139,0:0:0:0:
256,192,115514,5,0,0:0:0:0:
256,192,115889,1,2,0:0:0:0:
256,192,116264,1,0,0:0:0:0:
256,192,116451,1,0,0:0:0:0:
256,192,116639,1,2,0:0:0:0:
256,192,117014,1,0,0:0:0:0:
256,192,117389,1,2,0:0:0:0:
256,192,117764,1,0,0:0:0:0:
256,192,117951,1,0,0:0:0:0:
256,192,118139,1,2,0:0:0:0:
256,192,118514,1,0,0:0:0:0:
256,192,118889,1,2,0:0:0:0:
256,192,119264,1,0,0:0:0:0:
256,192,119639,1,2,0:0:0:0:
256,192,120014,1,0,0:0:0:0:
256,192,120389,1,0,0:0:0:0:
256,192,120764,1,0,0:0:0:0:
256,192,121139,1,2,0:0:0:0:
256,192,121326,1,2,0:0:0:0:
256,192,121514,1,6,0:0:0:0:
