osu file format v14

[General]
AudioFilename: Absurd_Gaff.mp3
AudioLeadIn: 0
PreviewTime: 49352
Countdown: 0
SampleSet: Normal
StackLeniency: 0.7
Mode: 3
LetterboxInBreaks: 0
SpecialStyle: 1
WidescreenStoryboard: 1

[Editor]
DistanceSpacing: 1.2
BeatDivisor: 16
GridSize: 8
TimelineZoom: 2.6

[Metadata]
Title:Absurd Gaff
TitleUnicode:Absurd Gaff
Artist:siromaru
ArtistUnicode:siromaru
Creator:-Kamikaze-
Version:Billy's 9K Suffering
Source:BMS
Tags:the of fighters 2008 resurrection bof2008 schranz _underjoy theziemniax ziemniak gekido- shxfted skalim tristan97 tornspirit frenzyli spoonguy paulmrm megative BillumMoto Janko MrDorian _Gezo_ Gezoda Nwolf zetera
BeatmapID:909712
BeatmapSetID:365073

[Difficulty]
HPDrainRate:9
CircleSize:9
OverallDifficulty:7
ApproachRate:5
SliderMultiplier:1.4
SliderTickRate:1

[Events]
//Background and Video events
0,0,"ms_title.jpg",0,0
Video,-592,"mentalstock_movie.avi"
//Break Periods
//Storyboard Layer 0 (Background)
//Storyboard Layer 1 (Fail)
//Storyboard Layer 2 (Pass)
//Storyboard Layer 3 (Foreground)
//Storyboard Sound Samples
Sample,96014,0,"8bit2.wav",70

[TimingPoints]
14,375,4,1,1,60,1,0
13514,-100,4,2,1,60,0,0
37514,-100,4,1,1,60,0,0
49514,-100,4,1,1,60,0,1
61139,-100,4,2,1,60,0,0
61514,-100,4,3,1,60,0,1
85139,-100,4,2,1,60,0,0
85514,-100,4,1,1,60,0,0
97514,-100,4,3,1,60,0,1
115514,-100,4,1,1,60,0,0

[HitObjects]
142,192,1514,5,8,0:0:0:0:
256,192,1514,1,0,0:0:0:0:
312,192,1514,1,0,0:0:0:0:
85,192,1701,1,8,0:0:0:0:
312,192,1701,1,0,0:0:0:0:
28,192,1795,1,0,0:0:0:0:
199,192,1889,1,4,0:0:0:0:
369,192,1889,1,0,0:0:0:0:
426,192,1889,1,0,0:0:0:0:
256,192,2076,1,0,0:0:0:0:
85,192,2076,1,0,0:0:0:0:
483,192,2170,1,0,0:0:0:0:
312,192,2264,1,0,0:0:0:0:
142,192,2264,1,0,0:0:0:0:
483,192,2357,1,0,0:0:0:0:
426,192,2357,1,0,0:0:0:0:
199,192,2357,1,0,0:0:0:0:
28,192,2451,1,0,0:0:0:0:
85,192,2545,1,0,0:0:0:0:
369,192,2639,1,4,0:0:0:0:
256,192,2639,1,0,0:0:0:0:
199,192,2639,1,0,0:0:0:0:
483,192,2732,1,0,0:0:0:0:
312,192,2826,1,0,0:0:0:0:
142,192,2826,1,0,0:0:0:0:
199,192,2920,1,0,0:0:0:0:
85,192,3014,5,8,0:0:0:0:
28,192,3014,1,0,0:0:0:0:
369,192,3014,1,0,0:0:0:0:
256,192,3014,1,0,0:0:0:0:
312,192,3201,1,8,0:0:0:0:
85,192,3201,1,0,0:0:0:0:
28,192,3295,1,0,0:0:0:0:
426,192,3389,1,4,0:0:0:0:
369,192,3389,1,0,0:0:0:0:
199,192,3389,1,0,0:0:0:0:
85,192,3576,1,0,0:0:0:0:
256,192,3576,1,0,0:0:0:0:
483,192,3670,1,0,0:0:0:0:
142,192,3764,1,0,0:0:0:0:
312,192,3764,1,0,0:0:0:0:
199,192,3857,1,0,0:0:0:0:
426,192,3857,1,0,0:0:0:0:
483,192,3857,1,0,0:0:0:0:
28,192,3951,1,0,0:0:0:0:
85,192,4045,1,0,0:0:0:0:
199,192,4139,1,4,0:0:0:0:
256,192,4139,1,0,0:0:0:0:
369,192,4139,1,0,0:0:0:0:
483,192,4232,1,0,0:0:0:0:
312,192,4232,1,0,0:0:0:0:
142,192,4420,1,0,0:0:0:0:
28,192,4420,1,0,0:0:0:0:
199,192,4514,1,8,0:0:0:0:
426,192,4514,1,0,0:0:0:0:
85,192,4514,1,0,0:0:0:0:
369,192,4514,1,0,0:0:0:0:
312,192,4701,1,8,0:0:0:0:
85,192,4701,1,0,0:0:0:0:
28,192,4795,1,0,0:0:0:0:
426,192,4889,1,4,0:0:0:0:
369,192,4889,1,0,0:0:0:0:
199,192,4889,1,0,0:0:0:0:
85,192,5076,1,0,0:0:0:0:
256,192,5076,1,0,0:0:0:0:
483,192,5170,1,0,0:0:0:0:
142,192,5264,1,0,0:0:0:0:
312,192,5264,1,0,0:0:0:0:
199,192,5357,1,0,0:0:0:0:
426,192,5357,1,0,0:0:0:0:
483,192,5357,1,0,0:0:0:0:
28,192,5451,1,0,0:0:0:0:
85,192,5545,1,0,0:0:0:0:
256,192,5639,1,4,0:0:0:0:
369,192,5639,128,0,5826:0:0:0:0:
426,192,5732,1,0,0:0:0:0:
142,192,5826,1,0,0:0:0:0:
28,192,5920,1,0,0:0:0:0:
369,192,6014,1,2,0:0:0:0:
256,192,6014,1,0,0:0:0:0:
483,192,6014,1,0,0:0:0:0:
426,192,6014,1,0,0:0:0:0:
483,192,6139,1,2,0:0:0:0:
426,192,6139,1,0,0:0:0:0:
85,192,6201,1,0,0:0:0:0:
199,192,6201,1,0,0:0:0:0:
483,192,6264,1,2,0:0:0:0:
426,192,6264,1,0,0:0:0:0:
142,192,6295,1,0,0:0:0:0:
85,192,6389,1,2,0:0:0:0:
369,192,6389,1,0,0:0:0:0:
426,192,6389,1,0,0:0:0:0:
28,192,6389,1,0,0:0:0:0:
256,192,6389,1,0,0:0:0:0:
28,192,6514,1,2,0:0:0:0:
85,192,6514,1,0,0:0:0:0:
483,192,6576,1,0,0:0:0:0:
312,192,6576,1,0,0:0:0:0:
28,192,6639,1,2,0:0:0:0:
85,192,6639,1,0,0:0:0:0:
369,192,6670,1,0,0:0:0:0:
426,192,6764,1,0,0:0:0:0:
142,192,6764,1,0,0:0:0:0:
28,192,6764,1,0,0:0:0:0:
256,192,6857,1,2,0:0:0:0:
199,192,6857,1,0,0:0:0:0:
483,192,6951,1,2,0:0:0:0:
28,192,6951,1,0,0:0:0:0:
85,192,7045,1,0,0:0:0:0:
426,192,7045,1,0,0:0:0:0:
369,192,7139,1,0,0:0:0:0:
199,192,7139,1,0,0:0:0:0:
312,192,7139,1,0,0:0:0:0:
142,192,7139,1,0,0:0:0:0:
256,192,7326,1,0,0:0:0:0:
85,192,7326,1,0,0:0:0:0:
483,192,7420,1,0,0:0:0:0:
369,192,7420,1,0,0:0:0:0:
142,192,7514,5,8,0:0:0:0:
426,192,7514,1,0,0:0:0:0:
28,192,7514,1,0,0:0:0:0:
312,192,7514,1,0,0:0:0:0:
199,192,7514,1,0,0:0:0:0:
312,192,7701,1,8,0:0:0:0:
85,192,7701,1,0,0:0:0:0:
28,192,7795,1,0,0:0:0:0:
426,192,7889,1,4,0:0:0:0:
369,192,7889,1,0,0:0:0:0:
199,192,7889,1,0,0:0:0:0:
85,192,8076,1,0,0:0:0:0:
256,192,8076,1,0,0:0:0:0:
483,192,8170,1,0,0:0:0:0:
142,192,8264,1,0,0:0:0:0:
312,192,8264,1,0,0:0:0:0:
199,192,8357,1,0,0:0:0:0:
426,192,8357,1,0,0:0:0:0:
483,192,8357,1,0,0:0:0:0:
28,192,8451,1,0,0:0:0:0:
85,192,8545,1,0,0:0:0:0:
199,192,8639,1,4,0:0:0:0:
256,192,8639,1,0,0:0:0:0:
369,192,8639,1,0,0:0:0:0:
483,192,8732,1,0,0:0:0:0:
142,192,8826,1,0,0:0:0:0:
312,192,8826,1,0,0:0:0:0:
199,192,8920,1,0,0:0:0:0:
85,192,9014,5,8,0:0:0:0:
369,192,9014,1,0,0:0:0:0:
256,192,9014,1,0,0:0:0:0:
28,192,9014,1,0,0:0:0:0:
85,192,9201,1,8,0:0:0:0:
312,192,9201,1,0,0:0:0:0:
28,192,9295,1,0,0:0:0:0:
199,192,9389,1,4,0:0:0:0:
369,192,9389,1,0,0:0:0:0:
426,192,9389,1,0,0:0:0:0:
256,192,9576,1,0,0:0:0:0:
85,192,9576,1,0,0:0:0:0:
483,192,9670,1,0,0:0:0:0:
312,192,9764,1,0,0:0:0:0:
142,192,9764,1,0,0:0:0:0:
483,192,9857,1,0,0:0:0:0:
426,192,9857,1,0,0:0:0:0:
199,192,9857,1,0,0:0:0:0:
28,192,9951,1,0,0:0:0:0:
85,192,10045,1,0,0:0:0:0:
369,192,10139,1,4,0:0:0:0:
256,192,10139,1,0,0:0:0:0:
199,192,10139,1,0,0:0:0:0:
312,192,10232,1,0,0:0:0:0:
483,192,10232,1,0,0:0:0:0:
28,192,10420,1,0,0:0:0:0:
142,192,10420,1,0,0:0:0:0:
85,192,10514,1,8,0:0:0:0:
369,192,10514,1,0,0:0:0:70:8bit.wav
199,192,10514,1,0,0:0:0:0:
426,192,10514,1,0,0:0:0:0:
85,192,10701,1,8,0:0:0:0:
312,192,10701,1,0,0:0:0:0:
28,192,10795,1,0,0:0:0:0:
199,192,10889,1,4,0:0:0:0:
369,192,10889,1,0,0:0:0:0:
426,192,10889,1,0,0:0:0:0:
256,192,11076,1,0,0:0:0:0:
85,192,11076,1,0,0:0:0:0:
483,192,11170,1,0,0:0:0:0:
312,192,11264,1,0,0:0:0:0:
142,192,11264,1,0,0:0:0:0:
483,192,11357,1,0,0:0:0:0:
426,192,11357,1,0,0:0:0:0:
199,192,11357,1,0,0:0:0:0:
28,192,11451,1,0,0:0:0:0:
85,192,11545,1,0,0:0:0:0:
256,192,11639,1,4,0:0:0:0:
369,192,11639,1,0,0:0:0:0:
426,192,11732,1,0,0:0:0:0:
142,192,11826,1,0,0:0:0:0:
199,192,11826,1,0,0:0:0:0:
28,192,11920,1,0,0:0:0:0:
256,192,12014,128,0,12764:0:0:0:70:
142,192,12764,128,0,13514:0:0:0:70:
199,192,12764,128,0,13514:0:0:0:0:
312,192,12764,128,0,13514:0:0:0:0:
369,192,12764,128,0,13514:0:0:0:0:
85,192,12764,1,0,0:0:0:0:
426,192,12857,1,0,0:0:0:0:
28,192,12951,1,0,0:0:0:0:
483,192,13045,1,0,0:0:0:0:
85,192,13139,1,0,0:0:0:70:
256,192,13232,1,0,0:0:0:0:
483,192,13326,1,0,0:0:0:0:
256,192,13420,1,0,0:0:0:0:
28,192,13514,1,0,0:0:0:0:
85,192,13514,1,0,0:0:0:0:
426,192,13514,1,0,0:0:0:0:
483,192,13514,1,0,0:0:0:0:
85,192,13701,128,8,13889:0:0:0:0:
426,192,13701,128,0,13889:0:0:0:0:
483,192,13795,128,0,13889:0:0:0:0:
28,192,13795,128,0,13889:0:0:0:0:
142,192,13889,1,0,0:0:0:0:
369,192,13889,1,0,0:0:0:0:
256,192,13889,1,0,0:0:0:0:
85,192,14076,128,8,14264:0:0:0:0:
426,192,14076,128,0,14264:0:0:0:0:
28,192,14170,128,0,14264:0:0:0:0:
483,192,14170,128,0,14264:0:0:0:0:
142,192,14264,1,0,0:0:0:0:
369,192,14264,1,0,0:0:0:0:
85,192,14451,128,8,14639:0:0:0:0:
426,192,14451,128,0,14639:0:0:0:0:
483,192,14545,128,0,14639:0:0:0:0:
28,192,14545,128,0,14639:0:0:0:0:
142,192,14639,1,0,0:0:0:0:
256,192,14639,1,0,0:0:0:0:
369,192,14639,1,0,0:0:0:0:
426,192,14826,128,8,15014:0:0:0:0:
85,192,14826,128,0,15014:0:0:0:0:
28,192,14920,128,0,15014:0:0:0:0:
483,192,14920,128,0,15014:0:0:0:0:
369,192,15014,1,0,0:0:0:0:
142,192,15014,1,0,0:0:0:0:
85,192,15201,128,8,15389:0:0:0:0:
426,192,15201,128,0,15389:0:0:0:0:
483,192,15295,128,0,15389:0:0:0:0:
28,192,15295,128,0,15389:0:0:0:0:
142,192,15389,1,0,0:0:0:0:
256,192,15389,1,0,0:0:0:0:
369,192,15389,1,0,0:0:0:0:
426,192,15576,128,8,15764:0:0:0:0:
85,192,15576,128,0,15764:0:0:0:0:
28,192,15670,128,0,15764:0:0:0:0:
483,192,15670,128,0,15764:0:0:0:0:
369,192,15764,1,0,0:0:0:0:
142,192,15764,1,0,0:0:0:0:
85,192,15951,128,8,16139:0:0:0:0:
426,192,15951,128,0,16139:0:0:0:0:
483,192,16045,128,0,16139:0:0:0:0:
28,192,16045,128,0,16139:0:0:0:0:
142,192,16139,1,0,0:0:0:0:
256,192,16139,1,0,0:0:0:0:
369,192,16139,1,0,0:0:0:0:
426,192,16326,128,8,16514:0:0:0:0:
85,192,16326,128,0,16514:0:0:0:0:
28,192,16420,128,0,16514:0:0:0:0:
483,192,16420,128,0,16514:0:0:0:0:
369,192,16514,1,0,0:0:0:0:
142,192,16514,1,0,0:0:0:0:
85,192,16701,128,8,16889:0:0:0:0:
426,192,16701,128,0,16889:0:0:0:0:
483,192,16795,128,0,16889:0:0:0:0:
28,192,16795,128,0,16889:0:0:0:0:
142,192,16889,1,0,0:0:0:0:
256,192,16889,1,0,0:0:0:0:
369,192,16889,1,0,0:0:0:0:
426,192,17076,128,8,17264:0:0:0:0:
85,192,17076,128,0,17264:0:0:0:0:
28,192,17170,128,0,17264:0:0:0:0:
483,192,17170,128,0,17264:0:0:0:0:
369,192,17264,1,0,0:0:0:0:
142,192,17264,1,0,0:0:0:0:
85,192,17451,128,8,17639:0:0:0:0:
426,192,17451,128,0,17639:0:0:0:0:
483,192,17545,128,0,17639:0:0:0:0:
28,192,17545,128,0,17639:0:0:0:0:
142,192,17639,1,0,0:0:0:0:
256,192,17639,1,0,0:0:0:0:
369,192,17639,1,0,0:0:0:0:
426,192,17826,128,8,18014:0:0:0:0:
85,192,17826,128,0,18014:0:0:0:0:
28,192,17920,128,0,18014:0:0:0:0:
483,192,17920,128,0,18014:0:0:0:0:
369,192,18014,1,0,0:0:0:0:
142,192,18014,1,0,0:0:0:0:
85,192,18201,128,8,18389:0:0:0:0:
426,192,18201,128,0,18389:0:0:0:0:
483,192,18295,128,0,18389:0:0:0:0:
28,192,18295,128,0,18389:0:0:0:0:
142,192,18389,1,0,0:0:0:0:
256,192,18389,1,0,0:0:0:0:
369,192,18389,1,0,0:0:0:0:
426,192,18576,128,8,18764:0:0:0:0:
85,192,18576,128,0,18764:0:0:0:0:
28,192,18670,128,0,18764:0:0:0:0:
483,192,18670,128,0,18764:0:0:0:0:
369,192,18764,1,0,0:0:0:0:
142,192,18764,1,0,0:0:0:0:
85,192,18951,128,8,19139:0:0:0:0:
369,192,18951,128,0,19139:0:0:0:0:
28,192,19045,128,0,19139:0:0:0:0:
199,192,19045,128,0,19139:0:0:0:0:
142,192,19139,1,0,0:0:0:0:
426,192,19139,1,0,0:0:0:0:
483,192,19232,1,0,0:0:0:0:
426,192,19326,1,0,0:0:0:0:
483,192,19420,1,0,0:0:0:0:
85,192,19514,1,0,0:0:0:0:
199,192,19514,1,0,0:0:0:0:
312,192,19514,1,0,0:0:0:0:
28,192,19701,128,8,19889:0:0:0:0:
483,192,19701,128,0,19889:0:0:0:0:
142,192,19795,128,0,19889:0:0:0:0:
369,192,19795,128,0,19889:0:0:0:0:
85,192,19889,1,0,0:0:0:0:
256,192,19889,1,0,0:0:0:0:
426,192,19889,1,0,0:0:0:0:
483,192,20076,128,8,20264:0:0:0:0:
28,192,20076,128,0,20264:0:0:0:0:
369,192,20170,128,0,20264:0:0:0:0:
142,192,20170,128,0,20264:0:0:0:0:
426,192,20264,1,0,0:0:0:0:
85,192,20264,1,0,0:0:0:0:
28,192,20451,128,8,20639:0:0:0:0:
483,192,20451,128,0,20639:0:0:0:0:
142,192,20545,128,0,20639:0:0:0:0:
369,192,20545,128,0,20639:0:0:0:0:
256,192,20639,1,0,0:0:0:0:
85,192,20639,1,0,0:0:0:0:
426,192,20639,1,0,0:0:0:0:
483,192,20826,128,8,21014:0:0:0:0:
28,192,20826,128,0,21014:0:0:0:0:
369,192,20920,128,0,21014:0:0:0:0:
142,192,20920,128,0,21014:0:0:0:0:
426,192,21014,1,0,0:0:0:0:
85,192,21014,1,0,0:0:0:0:
28,192,21201,128,8,21389:0:0:0:0:
483,192,21201,128,0,21389:0:0:0:0:
142,192,21295,128,0,21389:0:0:0:0:
369,192,21295,128,0,21389:0:0:0:0:
256,192,21389,1,0,0:0:0:0:
85,192,21389,1,0,0:0:0:0:
426,192,21389,1,0,0:0:0:0:
483,192,21576,128,8,21764:0:0:0:0:
28,192,21576,128,0,21764:0:0:0:0:
369,192,21670,128,0,21764:0:0:0:0:
142,192,21670,128,0,21764:0:0:0:0:
426,192,21764,1,0,0:0:0:0:
85,192,21764,1,0,0:0:0:0:
28,192,21951,128,8,22139:0:0:0:0:
483,192,21951,128,0,22139:0:0:0:0:
142,192,22045,128,0,22139:0:0:0:0:
369,192,22045,128,0,22139:0:0:0:0:
256,192,22139,1,0,0:0:0:0:
85,192,22139,1,0,0:0:0:0:
426,192,22139,1,0,0:0:0:0:
483,192,22326,128,8,22514:0:0:0:0:
28,192,22326,128,0,22514:0:0:0:0:
369,192,22420,128,0,22514:0:0:0:0:
142,192,22420,128,0,22514:0:0:0:0:
426,192,22514,1,0,0:0:0:0:
85,192,22514,1,0,0:0:0:0:
28,192,22701,128,8,22889:0:0:0:0:
483,192,22701,128,0,22889:0:0:0:0:
142,192,22795,128,0,22889:0:0:0:0:
369,192,22795,128,0,22889:0:0:0:0:
85,192,22889,1,0,0:0:0:0:
426,192,22889,1,0,0:0:0:0:
256,192,22889,1,0,0:0:0:0:
483,192,23076,128,8,23264:0:0:0:0:
28,192,23076,128,0,23264:0:0:0:0:
369,192,23170,128,0,23264:0:0:0:0:
142,192,23170,128,0,23264:0:0:0:0:
426,192,23264,1,0,0:0:0:0:
85,192,23264,1,0,0:0:0:0:
28,192,23451,128,8,23639:0:0:0:0:
483,192,23451,128,0,23639:0:0:0:0:
142,192,23545,128,0,23639:0:0:0:0:
369,192,23545,128,0,23639:0:0:0:0:
256,192,23639,1,0,0:0:0:0:
85,192,23639,1,0,0:0:0:0:
426,192,23639,1,0,0:0:0:0:
483,192,23826,128,8,24014:0:0:0:0:
28,192,23826,128,0,24014:0:0:0:0:
369,192,23920,128,0,24014:0:0:0:0:
142,192,23920,128,0,24014:0:0:0:0:
256,192,24014,1,0,0:0:0:0:
312,192,24107,1,0,0:0:0:0:
199,192,24201,1,0,0:0:0:0:
312,192,24295,1,0,0:0:0:0:
199,192,24389,1,0,0:0:0:0:
256,192,24482,1,0,0:0:0:0:
142,192,24576,1,0,0:0:0:0:
256,192,24670,1,0,0:0:0:0:
142,192,24764,1,0,0:0:0:0:
199,192,24857,1,0,0:0:0:0:
85,192,24951,1,0,0:0:0:0:
199,192,25045,1,0,0:0:0:0:
28,192,25139,1,0,0:0:0:0:
85,192,25232,1,0,0:0:0:0:
142,192,25326,1,0,0:0:0:0:
28,192,25326,128,0,25514:0:0:0:0:
85,192,25514,1,0,0:0:0:0:
199,192,25514,1,0,0:0:0:0:
369,192,25514,1,0,0:0:0:0:
312,192,25514,1,0,0:0:0:0:
28,192,25701,128,8,25889:0:0:0:0:
85,192,25701,128,0,25889:0:0:0:0:
199,192,25795,128,0,25889:0:0:0:0:
142,192,25889,1,0,0:0:0:0:
256,192,25889,1,0,0:0:0:0:
369,192,25889,1,0,0:0:0:0:
312,192,26076,128,8,26264:0:0:0:0:
426,192,26076,128,0,26264:0:0:0:0:
369,192,26170,128,0,26264:0:0:0:0:
28,192,26264,128,4,26451:0:0:0:0:
199,192,26264,1,0,0:0:0:0:
85,192,26264,1,0,0:0:0:0:
483,192,26451,128,8,26639:0:0:0:0:
426,192,26451,128,0,26639:0:0:0:0:
312,192,26545,128,0,26639:0:0:0:0:
142,192,26639,1,0,0:0:0:0:
256,192,26639,1,0,0:0:0:0:
369,192,26639,1,0,0:0:0:0:
85,192,26826,128,8,27014:0:0:0:0:
199,192,26826,128,0,27014:0:0:0:0:
142,192,26920,128,0,27014:0:0:0:0:
312,192,27014,1,4,0:0:0:0:
426,192,27014,1,0,0:0:0:0:
483,192,27014,128,0,27201:0:0:0:0:
28,192,27201,128,8,27389:0:0:0:0:
85,192,27201,128,0,27389:0:0:0:0:
199,192,27295,128,0,27389:0:0:0:0:
142,192,27389,1,0,0:0:0:0:
256,192,27389,1,0,0:0:0:0:
369,192,27389,1,0,0:0:0:0:
426,192,27576,128,8,27764:0:0:0:0:
312,192,27576,128,0,27764:0:0:0:0:
369,192,27670,128,0,27764:0:0:0:0:
28,192,27764,128,4,27951:0:0:0:0:
199,192,27764,1,0,0:0:0:0:
85,192,27764,1,0,0:0:0:0:
483,192,27951,128,8,28139:0:0:0:0:
426,192,27951,128,0,28139:0:0:0:0:
312,192,28045,128,0,28139:0:0:0:0:
369,192,28139,1,0,0:0:0:0:
256,192,28139,1,0,0:0:0:0:
142,192,28139,1,0,0:0:0:0:
85,192,28326,128,8,28514:0:0:0:0:
199,192,28326,128,0,28514:0:0:0:0:
142,192,28420,128,0,28514:0:0:0:0:
312,192,28514,1,4,0:0:0:0:
426,192,28514,1,0,0:0:0:0:
483,192,28514,128,0,28701:0:0:0:0:
28,192,28701,128,8,28889:0:0:0:0:
85,192,28701,128,0,28889:0:0:0:0:
199,192,28795,128,0,28889:0:0:0:0:
142,192,28889,1,0,0:0:0:0:
256,192,28889,1,0,0:0:0:0:
369,192,28889,1,0,0:0:0:0:
426,192,29076,128,8,29264:0:0:0:0:
312,192,29076,128,0,29264:0:0:0:0:
369,192,29170,128,0,29264:0:0:0:0:
28,192,29264,128,4,29451:0:0:0:0:
199,192,29264,1,0,0:0:0:0:
85,192,29264,1,0,0:0:0:0:
483,192,29451,128,8,29639:0:0:0:0:
426,192,29451,128,0,29639:0:0:0:0:
312,192,29545,128,0,29639:0:0:0:0:
369,192,29639,1,0,0:0:0:0:
256,192,29639,1,0,0:0:0:0:
142,192,29639,1,0,0:0:0:0:
199,192,29826,128,8,30014:0:0:0:0:
85,192,29826,128,0,30014:0:0:0:0:
142,192,29920,128,0,30014:0:0:0:0:
426,192,30014,1,0,0:0:0:0:
483,192,30014,128,0,30201:0:0:0:0:
312,192,30014,1,0,0:0:0:0:
85,192,30201,128,8,30389:0:0:0:0:
28,192,30201,128,0,30389:0:0:0:0:
199,192,30295,128,0,30389:0:0:0:0:
369,192,30389,1,0,0:0:0:0:
256,192,30389,1,0,0:0:0:0:
142,192,30389,1,0,0:0:0:0:
483,192,30482,128,0,30764:0:0:0:0:
312,192,30576,128,8,30764:0:0:0:0:
426,192,30576,128,0,30764:0:0:0:0:
369,192,30670,128,0,30764:0:0:0:0:
28,192,30764,128,0,30857:0:0:0:0:
28,192,30951,128,0,31139:0:0:0:0:
483,192,31139,128,0,31326:0:0:0:0:
28,192,31326,128,0,31514:0:0:0:0:
312,192,31514,1,0,0:0:0:0:
426,192,31514,1,0,0:0:0:0:
483,192,31514,1,0,0:0:0:0:
28,192,31701,128,8,31889:0:0:0:0:
85,192,31701,128,0,31889:0:0:0:0:
199,192,31795,128,0,31889:0:0:0:0:
142,192,31889,1,0,0:0:0:0:
256,192,31889,1,0,0:0:0:0:
369,192,31889,1,0,0:0:0:0:
312,192,32076,128,8,32264:0:0:0:0:
426,192,32076,128,0,32264:0:0:0:0:
369,192,32170,128,0,32264:0:0:0:0:
28,192,32264,128,4,32451:0:0:0:0:
199,192,32264,1,0,0:0:0:0:
85,192,32264,1,0,0:0:0:0:
483,192,32451,128,8,32639:0:0:0:0:
426,192,32451,128,0,32639:0:0:0:0:
312,192,32545,128,0,32639:0:0:0:0:
142,192,32639,1,0,0:0:0:0:
256,192,32639,1,0,0:0:0:0:
369,192,32639,1,0,0:0:0:0:
85,192,32826,128,8,33014:0:0:0:0:
199,192,32826,128,0,33014:0:0:0:0:
142,192,32920,128,0,33014:0:0:0:0:
312,192,33014,1,4,0:0:0:0:
426,192,33014,1,0,0:0:0:0:
483,192,33014,128,0,33201:0:0:0:0:
28,192,33201,128,8,33389:0:0:0:0:
85,192,33201,128,0,33389:0:0:0:0:
199,192,33295,128,0,33389:0:0:0:0:
142,192,33389,1,0,0:0:0:0:
256,192,33389,1,0,0:0:0:0:
369,192,33389,1,0,0:0:0:0:
426,192,33576,128,8,33764:0:0:0:0:
312,192,33576,128,0,33764:0:0:0:0:
369,192,33670,128,0,33764:0:0:0:0:
28,192,33764,128,4,33951:0:0:0:0:
199,192,33764,1,0,0:0:0:0:
85,192,33764,1,0,0:0:0:0:
483,192,33951,128,8,34139:0:0:0:0:
426,192,33951,128,0,34139:0:0:0:0:
312,192,34045,128,0,34139:0:0:0:0:
369,192,34139,1,0,0:0:0:0:
256,192,34139,1,0,0:0:0:0:
142,192,34139,1,0,0:0:0:0:
85,192,34326,128,8,34514:0:0:0:0:
199,192,34326,128,0,34514:0:0:0:0:
142,192,34420,128,0,34514:0:0:0:0:
312,192,34514,1,4,0:0:0:0:
426,192,34514,1,0,0:0:0:0:
483,192,34514,128,0,34701:0:0:0:0:
28,192,34701,128,8,34889:0:0:0:0:
85,192,34701,128,0,34889:0:0:0:0:
199,192,34795,128,0,34889:0:0:0:0:
142,192,34889,1,0,0:0:0:0:
256,192,34889,1,0,0:0:0:0:
369,192,34889,1,0,0:0:0:0:
426,192,35076,128,8,35264:0:0:0:0:
312,192,35076,128,0,35264:0:0:0:0:
369,192,35170,128,0,35264:0:0:0:0:
28,192,35264,128,4,35451:0:0:0:0:
199,192,35264,1,0,0:0:0:0:
85,192,35264,1,0,0:0:0:0:
483,192,35451,128,8,35639:0:0:0:0:
426,192,35451,128,0,35639:0:0:0:0:
312,192,35545,128,0,35639:0:0:0:0:
369,192,35639,1,0,0:0:0:0:
256,192,35639,1,0,0:0:0:0:
142,192,35639,1,0,0:0:0:0:
199,192,35826,128,8,36014:0:0:0:0:
85,192,35826,128,0,36014:0:0:0:0:
142,192,35920,128,0,36014:0:0:0:0:
483,192,36014,1,0,0:0:0:0:
483,192,36107,1,0,0:0:0:0:
369,192,36201,1,0,0:0:0:0:
369,192,36295,1,0,0:0:0:0:
142,192,36389,128,0,36482:0:0:0:70:fx_synth04.wav
199,192,36389,128,0,36764:0:0:0:0:
28,192,36764,1,0,0:0:0:0:
28,192,36857,1,0,0:0:0:0:
142,192,36951,1,0,0:0:0:0:
142,192,37045,1,0,0:0:0:0:
199,192,37139,1,0,0:0:0:0:
85,192,37232,1,0,0:0:0:0:
28,192,37326,1,0,0:0:0:0:
199,192,37514,5,8,0:0:0:0:
256,192,37514,1,0,0:0:0:0:
369,192,37514,1,0,0:0:0:0:
85,192,37701,1,8,0:0:0:0:
369,192,37701,1,0,0:0:0:0:
28,192,37795,1,0,0:0:0:0:
199,192,37889,1,4,0:0:0:0:
483,192,37889,1,0,0:0:0:0:
426,192,37889,1,0,0:0:0:0:
312,192,38076,1,0,0:0:0:0:
85,192,38076,1,0,0:0:0:0:
426,192,38170,1,0,0:0:0:0:
256,192,38264,1,0,0:0:0:0:
142,192,38264,1,0,0:0:0:0:
28,192,38264,1,0,0:0:0:0:
483,192,38357,1,0,0:0:0:0:
369,192,38357,1,0,0:0:0:0:
199,192,38357,1,0,0:0:0:0:
28,192,38451,1,0,0:0:0:0:
85,192,38545,1,0,0:0:0:0:
369,192,38639,1,4,0:0:0:0:
426,192,38639,1,0,0:0:0:0:
199,192,38639,1,0,0:0:0:0:
483,192,38732,1,0,0:0:0:0:
312,192,38826,1,0,0:0:0:0:
142,192,38826,1,0,0:0:0:0:
256,192,38920,1,0,0:0:0:0:
85,192,39014,5,8,0:0:0:0:
369,192,39014,1,0,0:0:0:0:
28,192,39014,1,0,0:0:0:0:
199,192,39014,1,0,0:0:0:0:
312,192,39201,1,8,0:0:0:0:
142,192,39201,1,0,0:0:0:0:
28,192,39295,1,0,0:0:0:0:
426,192,39389,1,4,0:0:0:0:
369,192,39389,1,0,0:0:0:0:
199,192,39389,1,0,0:0:0:0:
85,192,39576,1,0,0:0:0:0:
312,192,39576,1,0,0:0:0:0:
483,192,39670,1,0,0:0:0:0:
142,192,39764,1,0,0:0:0:0:
369,192,39764,1,0,0:0:0:0:
199,192,39764,1,0,0:0:0:0:
312,192,39857,1,0,0:0:0:0:
483,192,39857,1,0,0:0:0:0:
256,192,39857,1,0,0:0:0:0:
85,192,39951,1,0,0:0:0:0:
28,192,40045,1,0,0:0:0:0:
199,192,40139,1,4,0:0:0:0:
256,192,40139,1,0,0:0:0:0:
369,192,40139,1,0,0:0:0:0:
483,192,40232,1,0,0:0:0:0:
312,192,40232,1,0,0:0:0:0:
142,192,40420,1,0,0:0:0:0:
28,192,40420,1,0,0:0:0:0:
85,192,40514,5,8,0:0:0:0:
312,192,40514,1,0,0:0:0:0:
256,192,40514,1,0,0:0:0:0:
199,192,40701,1,8,0:0:0:0:
426,192,40701,1,0,0:0:0:0:
28,192,40795,1,0,0:0:0:0:
426,192,40889,1,4,0:0:0:0:
369,192,40889,1,0,0:0:0:0:
142,192,40889,1,0,0:0:0:0:
256,192,41076,1,0,0:0:0:0:
28,192,41076,1,0,0:0:0:0:
483,192,41170,1,0,0:0:0:0:
142,192,41264,1,0,0:0:0:0:
312,192,41264,1,0,0:0:0:0:
85,192,41264,1,0,0:0:0:0:
199,192,41357,1,0,0:0:0:0:
426,192,41357,1,0,0:0:0:0:
483,192,41357,1,0,0:0:0:0:
28,192,41451,1,0,0:0:0:0:
85,192,41545,1,0,0:0:0:0:
199,192,41639,1,4,0:0:0:0:
256,192,41639,1,0,0:0:0:0:
369,192,41639,1,0,0:0:0:0:
483,192,41732,1,0,0:0:0:0:
142,192,41826,1,0,0:0:0:0:
312,192,41826,1,0,0:0:0:0:
199,192,41920,1,0,0:0:0:0:
85,192,42014,5,0,0:0:0:0:
28,192,42014,1,0,0:0:0:0:
256,192,42014,128,0,42107:0:0:0:0:
483,192,42014,128,0,42107:0:0:0:0:
426,192,42107,128,0,42201:0:0:0:0:
199,192,42107,128,0,42201:0:0:0:0:
142,192,42201,128,0,42295:0:0:0:0:
369,192,42201,128,0,42295:0:0:0:0:
85,192,42295,128,0,42389:0:0:0:0:
312,192,42295,128,0,42389:0:0:0:0:
28,192,42389,128,0,42482:0:0:0:0:
256,192,42389,128,0,42482:0:0:0:0:
483,192,42389,1,0,0:0:0:0:
85,192,42482,128,0,42576:0:0:0:0:
312,192,42482,128,0,42576:0:0:0:0:
142,192,42576,128,0,42670:0:0:0:0:
369,192,42576,128,0,42670:0:0:0:0:
199,192,42670,128,0,42764:0:0:0:0:
426,192,42670,128,0,42764:0:0:0:0:
256,192,42764,128,0,42857:0:0:0:0:
483,192,42764,128,0,42951:0:0:0:0:
312,192,42857,128,0,42951:0:0:0:0:
426,192,42951,128,0,43045:0:0:0:0:
256,192,42951,128,0,43045:0:0:0:0:
199,192,43045,128,0,43139:0:0:0:0:
369,192,43045,128,0,43139:0:0:0:0:
312,192,43139,128,0,43232:0:0:0:0:
142,192,43139,128,0,43232:0:0:0:0:
256,192,43232,128,0,43326:0:0:0:0:
85,192,43232,128,0,43326:0:0:0:0:
28,192,43326,128,0,43420:0:0:0:0:
199,192,43326,128,0,43420:0:0:0:0:
142,192,43420,128,0,43514:0:0:0:0:
85,192,43514,1,8,0:0:0:0:
28,192,43514,1,0,0:0:0:0:
312,192,43514,1,0,0:0:0:0:
369,192,43514,1,0,0:0:0:0:
426,192,43701,1,8,0:0:0:0:
142,192,43701,1,0,0:0:0:0:
483,192,43795,1,0,0:0:0:0:
312,192,43889,1,4,0:0:0:0:
28,192,43889,1,0,0:0:0:0:
85,192,43889,1,0,0:0:0:0:
199,192,44076,1,0,0:0:0:0:
426,192,44076,1,0,0:0:0:0:
85,192,44170,1,0,0:0:0:0:
256,192,44264,1,0,0:0:0:0:
369,192,44264,1,0,0:0:0:0:
483,192,44264,1,0,0:0:0:0:
28,192,44357,1,0,0:0:0:0:
142,192,44357,1,0,0:0:0:0:
312,192,44357,1,0,0:0:0:0:
483,192,44451,1,0,0:0:0:0:
426,192,44545,1,0,0:0:0:0:
142,192,44639,1,4,0:0:0:0:
85,192,44639,1,0,0:0:0:0:
312,192,44639,1,0,0:0:0:0:
28,192,44732,1,0,0:0:0:0:
199,192,44826,1,0,0:0:0:0:
369,192,44826,1,0,0:0:0:0:
256,192,44920,1,0,0:0:0:0:
483,192,45014,1,8,0:0:0:0:
142,192,45014,1,0,0:0:0:0:
312,192,45014,1,0,0:0:0:0:
199,192,45201,1,8,0:0:0:0:
369,192,45201,1,0,0:0:0:0:
483,192,45295,1,0,0:0:0:0:
85,192,45389,1,4,0:0:0:0:
142,192,45389,1,0,0:0:0:0:
312,192,45389,1,0,0:0:0:0:
426,192,45576,1,0,0:0:0:0:
199,192,45576,1,0,0:0:0:0:
28,192,45670,1,0,0:0:0:0:
369,192,45764,1,0,0:0:0:0:
142,192,45764,1,0,0:0:0:0:
312,192,45764,1,0,0:0:0:0:
199,192,45857,1,0,0:0:0:0:
28,192,45857,1,0,0:0:0:0:
256,192,45857,1,0,0:0:0:0:
426,192,45951,1,0,0:0:0:0:
483,192,46045,1,0,0:0:0:0:
312,192,46139,1,4,0:0:0:0:
256,192,46139,1,0,0:0:0:0:
142,192,46139,1,0,0:0:0:0:
28,192,46232,1,0,0:0:0:0:
199,192,46232,1,0,0:0:0:0:
369,192,46420,1,0,0:0:0:0:
483,192,46420,1,0,0:0:0:0:
426,192,46514,5,8,0:0:0:0:
199,192,46514,1,0,0:0:0:0:
256,192,46514,1,0,0:0:0:0:
312,192,46701,1,8,0:0:0:0:
85,192,46701,1,0,0:0:0:0:
483,192,46795,1,0,0:0:0:0:
85,192,46889,1,4,0:0:0:0:
142,192,46889,1,0,0:0:0:0:
369,192,46889,1,0,0:0:0:0:
256,192,47076,1,0,0:0:0:0:
483,192,47076,1,0,0:0:0:0:
28,192,47170,1,0,0:0:0:0:
369,192,47264,1,0,0:0:0:0:
199,192,47264,1,0,0:0:0:0:
426,192,47264,1,0,0:0:0:0:
312,192,47357,1,0,0:0:0:0:
85,192,47357,1,0,0:0:0:0:
28,192,47357,1,0,0:0:0:0:
483,192,47451,1,0,0:0:0:0:
426,192,47545,1,0,0:0:0:0:
312,192,47639,1,4,0:0:0:0:
256,192,47639,1,0,0:0:0:0:
142,192,47639,1,0,0:0:0:0:
28,192,47732,1,0,0:0:0:0:
369,192,47826,1,0,0:0:0:0:
199,192,47826,1,0,0:0:0:0:
312,192,47920,1,0,0:0:0:0:
85,192,48014,128,0,48201:0:0:0:0:
28,192,48014,1,0,0:0:0:0:
426,192,48014,128,0,48201:0:0:0:0:
483,192,48014,1,0,0:0:0:0:
369,192,48201,128,0,48389:0:0:0:0:
142,192,48201,128,0,48389:0:0:0:0:
199,192,48389,128,0,48576:0:0:0:0:
312,192,48389,128,0,48576:0:0:0:0:
256,192,48576,128,0,48764:0:0:0:0:
483,192,48764,128,0,49139:0:0:0:0:
28,192,48764,128,0,49139:0:0:0:0:
426,192,49139,128,0,49232:0:0:0:0:
85,192,49139,128,0,49232:0:0:0:0:
142,192,49232,128,0,49326:0:0:0:0:
369,192,49232,128,0,49326:0:0:0:0:
199,192,49326,128,0,49420:0:0:0:0:
312,192,49326,128,0,49420:0:0:0:0:
256,192,49420,128,0,49514:0:0:0:0:
369,192,49514,128,8,49889:0:0:0:0:
426,192,49514,128,0,49889:0:0:0:0:
28,192,49514,1,0,0:0:0:0:
28,192,49701,1,8,0:0:0:0:
199,192,49889,1,4,0:0:0:0:
483,192,49889,1,0,0:0:0:0:
369,192,50076,128,0,50451:0:0:0:0:
426,192,50076,128,0,50451:0:0:0:0:
85,192,50076,1,0,0:0:0:0:
256,192,50170,1,0,0:0:0:0:
28,192,50264,1,0,0:0:0:0:
199,192,50357,1,0,0:0:0:0:
142,192,50451,1,0,0:0:0:0:
312,192,50545,1,0,0:0:0:0:
483,192,50639,1,4,0:0:0:0:
256,192,50639,1,0,0:0:0:0:
28,192,50732,1,0,0:0:0:0:
85,192,50826,128,0,51014:0:0:0:0:
142,192,50826,128,0,51014:0:0:0:0:
369,192,50826,1,0,0:0:0:0:
483,192,50920,1,0,0:0:0:0:
312,192,51014,1,8,0:0:0:0:
426,192,51014,1,0,0:0:0:0:
142,192,51201,128,8,51295:0:0:0:0:
85,192,51201,128,0,51295:0:0:0:0:
483,192,51201,1,0,0:0:0:0:
28,192,51389,1,4,0:0:0:0:
256,192,51389,1,0,0:0:0:0:
85,192,51389,128,0,52139:0:0:0:0:
142,192,51389,128,0,52139:0:0:0:0:
369,192,51576,1,0,0:0:0:0:
483,192,51670,1,0,0:0:0:0:
199,192,51764,1,0,0:0:0:0:
256,192,51857,1,0,0:0:0:0:
28,192,51951,1,0,0:0:0:0:
256,192,52139,1,4,0:0:0:0:
312,192,52139,1,0,0:0:0:0:
426,192,52232,1,0,0:0:0:0:
483,192,52232,1,0,0:0:0:0:
369,192,52420,1,0,0:0:0:0:
142,192,52420,1,0,0:0:0:0:
199,192,52514,128,8,52889:0:0:0:0:
28,192,52514,128,0,52889:0:0:0:0:
256,192,52514,1,0,0:0:0:0:
256,192,52701,1,8,0:0:0:0:
483,192,52889,1,4,0:0:0:0:
85,192,52889,1,0,0:0:0:0:
199,192,53076,128,0,53451:0:0:0:0:
28,192,53076,128,0,53451:0:0:0:0:
312,192,53076,1,0,0:0:0:0:
426,192,53170,1,0,0:0:0:0:
256,192,53264,1,0,0:0:0:0:
483,192,53357,1,0,0:0:0:0:
369,192,53451,1,0,0:0:0:0:
142,192,53545,1,0,0:0:0:0:
85,192,53639,1,4,0:0:0:0:
256,192,53639,1,0,0:0:0:0:
369,192,53732,1,0,0:0:0:0:
312,192,53826,128,0,54014:0:0:0:0:
483,192,53826,128,0,54014:0:0:0:0:
199,192,53920,1,0,0:0:0:0:
28,192,54014,1,8,0:0:0:0:
28,192,54201,1,8,0:0:0:0:
312,192,54201,128,0,55139:0:0:0:0:
483,192,54201,128,0,55139:0:0:0:0:
426,192,54389,1,4,0:0:0:0:
256,192,54389,1,0,0:0:0:0:
28,192,54576,1,0,0:0:0:0:
199,192,54670,1,0,0:0:0:0:
85,192,54764,1,0,0:0:0:0:
142,192,54857,1,0,0:0:0:0:
256,192,54951,1,0,0:0:0:0:
199,192,55045,1,0,0:0:0:0:
369,192,55139,1,0,0:0:0:0:
426,192,55139,1,0,0:0:0:0:
85,192,55139,1,0,0:0:0:0:
28,192,55232,1,0,0:0:0:0:
483,192,55232,1,0,0:0:0:0:
85,192,55326,1,0,0:0:0:0:
426,192,55326,1,0,0:0:0:0:
28,192,55420,1,0,0:0:0:0:
483,192,55420,1,0,0:0:0:0:
369,192,55514,128,8,55889:0:0:0:0:
312,192,55514,128,0,55889:0:0:0:0:
28,192,55701,1,8,0:0:0:0:
199,192,55889,1,4,0:0:0:0:
483,192,55889,1,0,0:0:0:0:
369,192,56076,128,0,56451:0:0:0:0:
312,192,56076,128,0,56451:0:0:0:0:
85,192,56076,1,0,0:0:0:0:
256,192,56170,1,0,0:0:0:0:
28,192,56264,1,0,0:0:0:0:
199,192,56357,1,0,0:0:0:0:
142,192,56451,1,0,0:0:0:0:
426,192,56545,1,0,0:0:0:0:
483,192,56639,1,4,0:0:0:0:
256,192,56639,1,0,0:0:0:0:
28,192,56732,1,0,0:0:0:0:
85,192,56826,128,0,57014:0:0:0:0:
142,192,56826,128,0,57014:0:0:0:0:
369,192,56826,1,0,0:0:0:0:
483,192,56920,1,0,0:0:0:0:
312,192,57014,1,8,0:0:0:0:
426,192,57014,1,0,0:0:0:0:
142,192,57201,128,8,57295:0:0:0:0:
85,192,57201,128,0,57295:0:0:0:0:
483,192,57201,1,0,0:0:0:0:
28,192,57389,1,4,0:0:0:0:
256,192,57389,1,0,0:0:0:0:
85,192,57389,128,0,58139:0:0:0:0:
142,192,57389,128,0,58139:0:0:0:0:
369,192,57576,1,0,0:0:0:0:
483,192,57670,1,0,0:0:0:0:
199,192,57764,1,0,0:0:0:0:
256,192,57857,1,0,0:0:0:0:
28,192,57951,1,0,0:0:0:0:
256,192,58139,1,4,0:0:0:0:
312,192,58139,1,0,0:0:0:0:
426,192,58232,1,0,0:0:0:0:
483,192,58232,1,0,0:0:0:0:
369,192,58420,1,0,0:0:0:0:
142,192,58420,1,0,0:0:0:0:
199,192,58514,128,8,58889:0:0:0:0:
28,192,58514,128,0,58889:0:0:0:0:
256,192,58514,1,0,0:0:0:0:
256,192,58701,1,8,0:0:0:0:
483,192,58889,1,4,0:0:0:0:
85,192,58889,1,0,0:0:0:0:
199,192,59076,128,0,59451:0:0:0:0:
28,192,59076,128,0,59451:0:0:0:0:
312,192,59076,1,0,0:0:0:0:
426,192,59170,1,0,0:0:0:0:
256,192,59264,1,0,0:0:0:0:
483,192,59357,1,0,0:0:0:0:
369,192,59451,1,0,0:0:0:0:
142,192,59545,1,0,0:0:0:0:
85,192,59639,1,4,0:0:0:0:
256,192,59639,1,0,0:0:0:0:
369,192,59732,1,0,0:0:0:0:
312,192,59826,128,0,60014:0:0:0:0:
483,192,59826,128,0,60014:0:0:0:0:
199,192,59920,1,0,0:0:0:0:
256,192,60014,1,2,0:0:0:0:
142,192,60014,1,0,0:0:0:0:
199,192,60139,1,2,0:0:0:0:
85,192,60139,1,0,0:0:0:0:
312,192,60201,128,0,61326:0:0:0:0:
483,192,60201,128,0,61139:0:0:0:0:
142,192,60264,1,2,0:0:0:0:
28,192,60264,1,0,0:0:0:0:
199,192,60389,128,0,60482:0:0:0:0:
142,192,60482,128,0,60576:0:0:0:0:
85,192,60576,128,0,60670:0:0:0:0:
28,192,60670,128,0,60764:0:0:0:0:
426,192,60764,128,0,61201:0:0:0:70:
369,192,60764,128,0,61264:0:0:0:0:
256,192,61139,128,0,61467:0:0:0:70:
199,192,61185,128,0,61467:0:0:0:0:
142,192,61232,128,0,61467:0:0:0:0:
85,192,61279,128,0,61467:0:0:0:0:
28,192,61326,128,0,61467:0:0:0:0:
256,192,61514,1,8,0:0:0:0:
369,192,61514,1,0,0:0:0:0:
483,192,61514,1,0,0:0:0:0:
142,192,61514,1,0,0:0:0:0:
28,192,61514,1,0,0:0:0:0:
312,192,61701,128,2,61889:0:0:0:70:
483,192,61701,128,0,61889:0:0:0:0:
199,192,61701,1,0,0:0:0:0:
369,192,61889,1,8,0:0:0:0:
256,192,61889,1,0,0:0:0:0:
142,192,61889,1,0,0:0:0:0:
28,192,61889,1,0,0:0:0:0:
426,192,61889,1,0,0:0:0:0:
199,192,62076,128,2,62264:0:0:0:70:
369,192,62076,128,0,62264:0:0:0:0:
85,192,62076,1,0,0:0:0:0:
256,192,62264,1,8,0:0:0:0:
312,192,62264,1,0,0:0:0:0:
142,192,62264,1,0,0:0:0:0:
28,192,62264,1,0,0:0:0:0:
426,192,62264,1,0,0:0:0:0:
85,192,62451,128,2,62639:0:0:0:70:
256,192,62451,128,0,62639:0:0:0:0:
483,192,62451,1,0,0:0:0:0:
142,192,62639,1,8,0:0:0:0:
199,192,62639,1,0,0:0:0:0:
28,192,62639,1,0,0:0:0:0:
312,192,62639,1,0,0:0:0:0:
426,192,62639,1,0,0:0:0:0:
142,192,62826,128,2,63014:0:0:0:70:
483,192,62826,128,0,63014:0:0:0:0:
369,192,62826,1,0,0:0:0:0:
85,192,63014,1,8,0:0:0:0:
28,192,63014,1,0,0:0:0:0:
199,192,63014,1,0,0:0:0:0:
312,192,63014,1,0,0:0:0:0:
426,192,63014,1,0,0:0:0:0:
28,192,63201,128,2,63389:0:0:0:70:
369,192,63201,128,0,63389:0:0:0:0:
256,192,63201,1,0,0:0:0:0:
426,192,63389,1,8,0:0:0:0:
483,192,63389,1,0,0:0:0:0:
312,192,63389,1,0,0:0:0:0:
199,192,63389,1,0,0:0:0:0:
85,192,63389,1,0,0:0:0:0:
426,192,63576,128,2,63764:0:0:0:70:
256,192,63576,128,0,63764:0:0:0:0:
142,192,63576,1,0,0:0:0:0:
312,192,63764,1,8,0:0:0:0:
199,192,63764,1,0,0:0:0:0:
369,192,63764,1,0,0:0:0:0:
483,192,63764,1,0,0:0:0:0:
85,192,63764,1,0,0:0:0:0:
312,192,63951,128,2,64139:0:0:0:70:
142,192,63951,128,0,64139:0:0:0:0:
28,192,63951,1,0,0:0:0:0:
199,192,64139,1,8,0:0:0:0:
256,192,64139,1,0,0:0:0:0:
85,192,64139,1,0,0:0:0:0:
369,192,64139,1,0,0:0:0:0:
483,192,64139,1,0,0:0:0:0:
199,192,64326,128,2,64514:0:0:0:70:
28,192,64326,128,0,64514:0:0:0:0:
426,192,64326,1,0,0:0:0:0:
85,192,64514,1,8,0:0:0:0:
142,192,64514,1,0,0:0:0:0:
256,192,64514,1,0,0:0:0:0:
369,192,64514,1,0,0:0:0:0:
483,192,64514,1,0,0:0:0:0:
85,192,64701,128,2,64889:0:0:0:70:
426,192,64701,128,0,64889:0:0:0:0:
312,192,64701,1,0,0:0:0:0:
28,192,64889,1,8,0:0:0:0:
483,192,64889,1,0,0:0:0:0:
142,192,64889,1,0,0:0:0:0:
256,192,64889,1,0,0:0:0:0:
369,192,64889,1,0,0:0:0:0:
483,192,65076,128,2,65264:0:0:0:70:
312,192,65076,128,0,65264:0:0:0:0:
199,192,65076,1,0,0:0:0:0:
369,192,65264,1,8,0:0:0:0:
426,192,65264,1,0,0:0:0:0:
256,192,65264,1,0,0:0:0:0:
142,192,65264,1,0,0:0:0:0:
28,192,65264,1,0,0:0:0:0:
369,192,65451,128,2,65639:0:0:0:70:
199,192,65451,128,0,65639:0:0:0:0:
85,192,65451,1,0,0:0:0:0:
256,192,65639,1,8,0:0:0:0:
312,192,65639,1,0,0:0:0:0:
142,192,65639,1,0,0:0:0:0:
28,192,65639,1,0,0:0:0:0:
426,192,65639,1,0,0:0:0:0:
256,192,65826,128,2,66014:0:0:0:70:
85,192,65826,128,0,66014:0:0:0:0:
483,192,65826,1,0,0:0:0:0:
142,192,66014,1,8,0:0:0:0:
199,192,66014,1,0,0:0:0:0:
28,192,66014,1,0,0:0:0:0:
312,192,66014,1,0,0:0:0:0:
426,192,66014,1,0,0:0:0:0:
142,192,66201,128,2,66389:0:0:0:70:
483,192,66201,128,0,66389:0:0:0:0:
369,192,66201,1,0,0:0:0:0:
85,192,66389,1,8,0:0:0:0:
28,192,66389,1,0,0:0:0:0:
199,192,66389,1,0,0:0:0:0:
312,192,66389,1,0,0:0:0:0:
426,192,66389,1,0,0:0:0:0:
369,192,66576,128,2,66764:0:0:0:70:
28,192,66576,128,0,66764:0:0:0:0:
256,192,66576,1,0,0:0:0:0:
426,192,66764,1,8,0:0:0:0:
483,192,66764,1,0,0:0:0:0:
312,192,66764,1,0,0:0:0:0:
85,192,66764,1,0,0:0:0:0:
199,192,66764,1,0,0:0:0:0:
312,192,66951,128,2,67139:0:0:0:0:
142,192,66951,128,0,67139:0:0:0:0:
256,192,66951,1,0,0:0:0:0:
483,192,67139,1,0,0:0:0:0:
28,192,67139,1,0,0:0:0:0:
426,192,67232,1,0,0:0:0:0:
85,192,67232,1,0,0:0:0:0:
483,192,67326,1,0,0:0:0:0:
28,192,67326,1,0,0:0:0:0:
426,192,67420,1,0,0:0:0:0:
85,192,67420,1,0,0:0:0:0:
369,192,67514,1,8,0:0:0:0:
199,192,67514,1,0,0:0:0:0:
256,192,67514,1,0,0:0:0:0:
142,192,67701,128,2,67889:0:0:0:70:
369,192,67701,128,0,67889:0:0:0:0:
483,192,67701,1,0,0:0:0:0:
85,192,67889,1,8,0:0:0:0:
199,192,67889,1,0,0:0:0:0:
312,192,67889,1,0,0:0:0:0:
426,192,67889,1,0,0:0:0:0:
28,192,67889,1,0,0:0:0:0:
256,192,68076,128,2,68264:0:0:0:70:
483,192,68076,128,0,68264:0:0:0:0:
369,192,68076,1,0,0:0:0:0:
312,192,68264,1,8,0:0:0:0:
426,192,68264,1,0,0:0:0:0:
199,192,68264,1,0,0:0:0:0:
28,192,68264,1,0,0:0:0:0:
142,192,68264,1,0,0:0:0:0:
369,192,68451,128,2,68639:0:0:0:70:
85,192,68451,128,0,68639:0:0:0:0:
483,192,68451,1,0,0:0:0:0:
426,192,68639,1,8,0:0:0:0:
28,192,68639,1,0,0:0:0:0:
142,192,68639,1,0,0:0:0:0:
312,192,68639,1,0,0:0:0:0:
256,192,68639,1,0,0:0:0:0:
483,192,68826,128,2,69014:0:0:0:70:
199,192,68826,128,0,69014:0:0:0:0:
85,192,68826,1,0,0:0:0:0:
369,192,69014,1,8,0:0:0:0:
426,192,69014,1,0,0:0:0:0:
256,192,69014,1,0,0:0:0:0:
142,192,69014,1,0,0:0:0:0:
28,192,69014,1,0,0:0:0:0:
312,192,69201,128,2,69389:0:0:0:70:
85,192,69201,128,0,69389:0:0:0:0:
199,192,69201,1,0,0:0:0:0:
256,192,69389,1,8,0:0:0:0:
369,192,69389,1,0,0:0:0:0:
28,192,69389,1,0,0:0:0:0:
142,192,69389,1,0,0:0:0:0:
483,192,69389,1,0,0:0:0:0:
426,192,69576,128,2,69764:0:0:0:70:
199,192,69576,128,0,69764:0:0:0:0:
312,192,69576,1,0,0:0:0:0:
256,192,69764,1,8,0:0:0:0:
142,192,69764,1,0,0:0:0:0:
369,192,69764,1,0,0:0:0:0:
483,192,69764,1,0,0:0:0:0:
85,192,69764,1,0,0:0:0:0:
312,192,69951,128,2,70139:0:0:0:70:
28,192,69951,128,0,70139:0:0:0:0:
426,192,69951,1,0,0:0:0:0:
85,192,70139,1,8,0:0:0:0:
483,192,70139,1,0,0:0:0:0:
369,192,70139,1,0,0:0:0:0:
256,192,70139,1,0,0:0:0:0:
199,192,70139,1,0,0:0:0:0:
142,192,70326,128,2,70514:0:0:0:70:
426,192,70326,128,0,70514:0:0:0:0:
28,192,70326,1,0,0:0:0:0:
199,192,70514,1,8,0:0:0:0:
85,192,70514,1,0,0:0:0:0:
369,192,70514,1,0,0:0:0:0:
483,192,70514,1,0,0:0:0:0:
312,192,70514,1,0,0:0:0:0:
256,192,70701,128,2,70889:0:0:0:70:
28,192,70701,128,0,70889:0:0:0:0:
142,192,70701,1,0,0:0:0:0:
85,192,70889,1,8,0:0:0:0:
312,192,70889,1,0,0:0:0:0:
199,192,70889,1,0,0:0:0:0:
483,192,70889,1,0,0:0:0:0:
426,192,70889,1,0,0:0:0:0:
142,192,71076,128,2,71264:0:0:0:70:
369,192,71076,128,0,71264:0:0:0:0:
256,192,71076,1,0,0:0:0:0:
85,192,71264,1,8,0:0:0:0:
199,192,71264,1,0,0:0:0:0:
312,192,71264,1,0,0:0:0:0:
426,192,71264,1,0,0:0:0:0:
28,192,71264,1,0,0:0:0:0:
256,192,71451,128,2,71639:0:0:0:70:
483,192,71451,128,0,71639:0:0:0:0:
369,192,71451,1,0,0:0:0:0:
426,192,71639,1,8,0:0:0:0:
85,192,71639,1,0,0:0:0:0:
312,192,71639,1,0,0:0:0:0:
28,192,71639,1,0,0:0:0:0:
142,192,71639,1,0,0:0:0:0:
142,192,71826,128,2,72014:0:0:0:70:
426,192,71826,128,0,72014:0:0:0:0:
28,192,72014,1,8,0:0:0:0:
256,192,72014,1,0,0:0:0:0:
483,192,72014,1,0,0:0:0:0:
199,192,72014,1,0,0:0:0:0:
312,192,72014,1,0,0:0:0:0:
426,192,72107,1,0,0:0:0:0:
85,192,72107,1,0,0:0:0:0:
369,192,72107,1,0,0:0:0:0:
142,192,72107,1,0,0:0:0:0:
28,192,72201,1,2,0:0:0:0:
256,192,72201,1,0,0:0:0:0:
483,192,72201,1,0,0:0:0:0:
199,192,72201,1,0,0:0:0:0:
312,192,72201,1,0,0:0:0:0:
426,192,72295,1,0,0:0:0:0:
85,192,72295,1,0,0:0:0:0:
142,192,72295,1,0,0:0:0:0:
369,192,72295,1,0,0:0:0:0:
28,192,72389,1,8,0:0:0:0:
256,192,72389,1,0,0:0:0:0:
483,192,72389,1,0,0:0:0:0:
199,192,72389,1,0,0:0:0:0:
312,192,72389,1,0,0:0:0:0:
426,192,72482,1,0,0:0:0:0:
85,192,72482,1,0,0:0:0:0:
369,192,72482,1,0,0:0:0:0:
142,192,72482,1,0,0:0:0:0:
483,192,72576,1,2,0:0:0:0:
28,192,72576,1,0,0:0:0:0:
256,192,72576,1,0,0:0:0:0:
199,192,72576,1,0,0:0:0:0:
312,192,72576,1,0,0:0:0:0:
426,192,72670,1,0,0:0:0:0:
85,192,72670,1,0,0:0:0:0:
369,192,72670,1,0,0:0:0:0:
142,192,72670,1,0,0:0:0:0:
28,192,72764,128,0,73045:0:0:0:70:
85,192,72810,128,0,73092:0:0:0:0:
142,192,72857,128,0,73373:0:0:0:0:
199,192,72904,128,0,73326:0:0:0:0:
256,192,72951,128,0,73279:0:0:0:0:
312,192,72998,128,0,73232:0:0:0:0:
369,192,73045,128,0,73185:0:0:0:0:
426,192,73092,128,0,73139:0:0:0:0:
483,192,73139,1,0,0:0:0:70:
85,192,73420,1,0,0:0:0:0:
28,192,73467,1,0,0:0:0:0:
256,192,73514,1,8,0:0:0:0:
199,192,73514,1,0,0:0:0:0:
312,192,73514,1,0,0:0:0:0:
369,192,73514,1,0,0:0:0:0:
483,192,73514,1,0,0:0:0:0:
199,192,73701,128,2,73889:0:0:0:0:
28,192,73701,128,0,73889:0:0:0:70:
426,192,73701,1,0,0:0:0:0:
142,192,73889,1,8,0:0:0:0:
256,192,73889,1,0,0:0:0:0:
369,192,73889,1,0,0:0:0:0:
483,192,73889,1,0,0:0:0:0:
85,192,73889,1,0,0:0:0:0:
312,192,74076,128,2,74264:0:0:0:0:
142,192,74076,128,0,74264:0:0:0:70:
426,192,74076,1,0,0:0:0:0:
256,192,74264,1,8,0:0:0:0:
199,192,74264,1,0,0:0:0:0:
369,192,74264,1,0,0:0:0:0:
483,192,74264,1,0,0:0:0:0:
85,192,74264,1,0,0:0:0:0:
426,192,74451,128,2,74639:0:0:0:0:
256,192,74451,128,0,74639:0:0:0:70:
28,192,74451,1,0,0:0:0:0:
369,192,74639,1,8,0:0:0:0:
312,192,74639,1,0,0:0:0:0:
483,192,74639,1,0,0:0:0:0:
199,192,74639,1,0,0:0:0:0:
85,192,74639,1,0,0:0:0:0:
369,192,74826,128,2,75014:0:0:0:0:
28,192,74826,128,0,75014:0:0:0:70:
142,192,74826,1,0,0:0:0:0:
256,192,74826,1,0,0:0:0:0:
426,192,75014,1,8,0:0:0:0:
483,192,75014,1,0,0:0:0:0:
312,192,75014,1,0,0:0:0:0:
199,192,75014,1,0,0:0:0:0:
85,192,75014,1,0,0:0:0:0:
483,192,75201,128,2,75389:0:0:0:70:
142,192,75201,128,0,75389:0:0:0:0:
256,192,75201,1,0,0:0:0:0:
369,192,75201,1,0,0:0:0:0:
85,192,75389,1,8,0:0:0:0:
28,192,75389,1,0,0:0:0:0:
199,192,75389,1,0,0:0:0:0:
312,192,75389,1,0,0:0:0:0:
426,192,75389,1,0,0:0:0:0:
85,192,75576,128,2,75764:0:0:0:0:
256,192,75576,128,0,75764:0:0:0:70:
369,192,75576,1,0,0:0:0:0:
199,192,75764,1,8,0:0:0:0:
312,192,75764,1,0,0:0:0:0:
142,192,75764,1,0,0:0:0:0:
28,192,75764,1,0,0:0:0:0:
426,192,75764,1,0,0:0:0:0:
199,192,75951,128,0,76139:0:0:0:70:
369,192,75951,128,2,76139:0:0:0:0:
483,192,75951,1,0,0:0:0:0:
312,192,76139,1,8,0:0:0:0:
256,192,76139,1,0,0:0:0:0:
426,192,76139,1,0,0:0:0:0:
142,192,76139,1,0,0:0:0:0:
28,192,76139,1,0,0:0:0:0:
312,192,76326,128,2,76514:0:0:0:0:
483,192,76326,128,0,76514:0:0:0:70:
85,192,76326,1,0,0:0:0:0:
426,192,76514,1,8,0:0:0:0:
369,192,76514,1,0,0:0:0:0:
256,192,76514,1,0,0:0:0:0:
142,192,76514,1,0,0:0:0:0:
28,192,76514,1,0,0:0:0:0:
426,192,76701,128,2,76889:0:0:0:70:
85,192,76701,128,0,76889:0:0:0:0:
199,192,76701,1,0,0:0:0:0:
483,192,76889,1,8,0:0:0:0:
28,192,76889,1,0,0:0:0:0:
369,192,76889,1,0,0:0:0:0:
256,192,76889,1,0,0:0:0:0:
142,192,76889,1,0,0:0:0:0:
28,192,77076,128,0,77264:0:0:0:70:
199,192,77076,128,2,77264:0:0:0:0:
312,192,77076,1,0,0:0:0:0:
142,192,77264,1,8,0:0:0:0:
85,192,77264,1,0,0:0:0:0:
256,192,77264,1,0,0:0:0:0:
369,192,77264,1,0,0:0:0:0:
483,192,77264,1,0,0:0:0:0:
142,192,77451,128,2,77639:0:0:0:70:
312,192,77451,128,0,77639:0:0:0:0:
426,192,77451,1,0,0:0:0:0:
256,192,77639,1,8,0:0:0:0:
199,192,77639,1,0,0:0:0:0:
369,192,77639,1,0,0:0:0:0:
483,192,77639,1,0,0:0:0:0:
85,192,77639,1,0,0:0:0:0:
256,192,77826,128,0,78014:0:0:0:70:
426,192,77826,128,2,78014:0:0:0:0:
28,192,77826,1,0,0:0:0:0:
312,192,78014,128,0,78389:0:0:0:0:
369,192,78014,128,0,78389:0:0:0:0:
142,192,78201,128,0,78295:0:0:0:0:
199,192,78389,128,0,78576:0:0:0:0:
256,192,78389,128,0,78576:0:0:0:0:
426,192,78389,128,0,78576:0:0:0:0:
142,192,78389,128,0,78576:0:0:0:0:
483,192,78576,128,0,78764:0:0:0:0:
28,192,78576,128,0,78764:0:0:0:0:
256,192,78764,128,0,79326:0:0:0:0:
199,192,78764,128,0,79420:0:0:0:0:
312,192,78764,128,0,79232:0:0:0:0:
85,192,78764,128,0,79514:0:0:0:0:
426,192,78764,128,0,79139:0:0:0:0:
142,192,79514,1,8,0:0:0:0:
312,192,79514,1,0,0:0:0:0:
256,192,79514,1,0,0:0:0:0:
426,192,79514,1,0,0:0:0:0:
483,192,79514,1,0,0:0:0:0:
369,192,79701,128,2,79889:0:0:0:70:
142,192,79701,128,0,79889:0:0:0:0:
28,192,79701,1,0,0:0:0:0:
426,192,79889,1,8,0:0:0:0:
312,192,79889,1,0,0:0:0:0:
199,192,79889,1,0,0:0:0:0:
85,192,79889,1,0,0:0:0:0:
483,192,79889,1,0,0:0:0:0:
256,192,80076,128,2,80264:0:0:0:70:
28,192,80076,128,0,80264:0:0:0:0:
142,192,80076,1,0,0:0:0:0:
199,192,80264,1,8,0:0:0:0:
85,192,80264,1,0,0:0:0:0:
312,192,80264,1,0,0:0:0:0:
483,192,80264,1,0,0:0:0:0:
369,192,80264,1,0,0:0:0:0:
142,192,80451,128,0,80639:0:0:0:70:
426,192,80451,128,2,80639:0:0:0:0:
28,192,80451,1,0,0:0:0:0:
85,192,80639,1,8,0:0:0:0:
483,192,80639,1,0,0:0:0:0:
369,192,80639,1,0,0:0:0:0:
199,192,80639,1,0,0:0:0:0:
256,192,80639,1,0,0:0:0:0:
28,192,80826,128,0,81014:0:0:0:70:
312,192,80826,128,2,81014:0:0:0:0:
426,192,80826,1,0,0:0:0:0:
142,192,81014,1,8,0:0:0:0:
85,192,81014,1,0,0:0:0:0:
256,192,81014,1,0,0:0:0:0:
369,192,81014,1,0,0:0:0:0:
483,192,81014,1,0,0:0:0:0:
199,192,81201,128,2,81389:0:0:0:70:
426,192,81201,128,0,81389:0:0:0:0:
312,192,81201,1,0,0:0:0:0:
256,192,81389,1,8,0:0:0:0:
142,192,81389,1,0,0:0:0:0:
483,192,81389,1,0,0:0:0:0:
369,192,81389,1,0,0:0:0:0:
28,192,81389,1,0,0:0:0:0:
85,192,81576,128,2,81764:0:0:0:70:
312,192,81576,128,0,81764:0:0:0:0:
199,192,81576,1,0,0:0:0:0:
256,192,81764,1,8,0:0:0:0:
369,192,81764,1,0,0:0:0:0:
142,192,81764,1,0,0:0:0:0:
28,192,81764,1,0,0:0:0:0:
426,192,81764,1,0,0:0:0:0:
199,192,81951,128,2,82139:0:0:0:0:
483,192,81951,128,0,82139:0:0:0:70:
85,192,81951,1,0,0:0:0:0:
426,192,82139,1,8,0:0:0:0:
28,192,82139,1,0,0:0:0:0:
142,192,82139,1,0,0:0:0:0:
256,192,82139,1,0,0:0:0:0:
312,192,82139,1,0,0:0:0:0:
369,192,82326,128,2,82514:0:0:0:0:
85,192,82326,128,0,82514:0:0:0:70:
483,192,82326,1,0,0:0:0:0:
312,192,82514,1,8,0:0:0:0:
426,192,82514,1,0,0:0:0:0:
142,192,82514,1,0,0:0:0:0:
28,192,82514,1,0,0:0:0:0:
199,192,82514,1,0,0:0:0:0:
256,192,82701,128,2,82889:0:0:0:70:
483,192,82701,128,0,82889:0:0:0:0:
369,192,82701,1,0,0:0:0:0:
426,192,82889,1,8,0:0:0:0:
199,192,82889,1,0,0:0:0:0:
312,192,82889,1,0,0:0:0:0:
28,192,82889,1,0,0:0:0:0:
85,192,82889,1,0,0:0:0:0:
369,192,83076,128,2,83264:0:0:0:0:
142,192,83076,128,0,83264:0:0:0:70:
256,192,83076,1,0,0:0:0:0:
426,192,83264,1,8,0:0:0:0:
312,192,83264,1,0,0:0:0:0:
199,192,83264,1,0,0:0:0:0:
85,192,83264,1,0,0:0:0:0:
483,192,83264,1,0,0:0:0:0:
256,192,83451,128,2,83639:0:0:0:70:
28,192,83451,128,0,83639:0:0:0:0:
142,192,83451,1,0,0:0:0:0:
85,192,83639,1,8,0:0:0:0:
312,192,83639,1,0,0:0:0:0:
199,192,83639,1,0,0:0:0:0:
483,192,83639,1,0,0:0:0:0:
369,192,83639,1,0,0:0:0:0:
142,192,83826,1,0,0:0:0:70:
369,192,83826,1,2,0:0:0:0:
85,192,83920,1,0,0:0:0:0:
426,192,83920,1,0,0:0:0:0:
28,192,84014,1,0,0:0:0:0:
483,192,84014,1,0,0:0:0:0:
426,192,84107,1,0,0:0:0:0:
85,192,84107,1,0,0:0:0:0:
142,192,84201,128,0,84389:0:0:0:0:
369,192,84201,128,0,84389:0:0:0:0:
483,192,84389,128,0,84576:0:0:0:0:
28,192,84389,128,0,84576:0:0:0:0:
199,192,84576,128,0,84764:0:0:0:0:
312,192,84576,128,0,84764:0:0:0:0:
85,192,84764,128,0,84951:0:0:0:0:
426,192,84764,128,0,84951:0:0:0:0:
256,192,84951,128,0,85139:0:0:0:0:
312,192,85514,128,8,86264:0:0:0:0:
28,192,85514,1,0,0:0:0:0:
28,192,85701,1,8,0:0:0:0:
199,192,85889,1,4,0:0:0:0:
256,192,85889,1,0,0:0:0:0:
369,192,86076,1,0,0:0:0:0:
483,192,86170,1,0,0:0:0:0:
142,192,86264,128,0,87014:0:0:0:0:
199,192,86264,1,0,0:0:0:0:
426,192,86357,1,0,0:0:0:0:
85,192,86451,1,0,0:0:0:0:
28,192,86545,1,0,0:0:0:0:
312,192,86639,1,4,0:0:0:0:
369,192,86639,1,0,0:0:0:0:
199,192,86732,1,0,0:0:0:0:
426,192,86826,1,0,0:0:0:0:
483,192,86920,1,0,0:0:0:0:
28,192,87014,128,8,87764:0:0:0:0:
256,192,87014,1,0,0:0:0:0:
256,192,87201,1,8,0:0:0:0:
369,192,87389,1,4,0:0:0:0:
483,192,87389,1,0,0:0:0:0:
426,192,87576,1,0,0:0:0:0:
312,192,87670,1,0,0:0:0:0:
199,192,87764,128,0,88514:0:0:0:0:
142,192,87764,1,0,0:0:0:0:
369,192,87857,1,0,0:0:0:0:
28,192,87951,1,0,0:0:0:0:
142,192,88045,1,0,0:0:0:0:
312,192,88139,1,4,0:0:0:0:
426,192,88139,1,0,0:0:0:0:
369,192,88232,1,0,0:0:0:0:
142,192,88420,1,0,0:0:0:0:
369,192,88514,128,8,89264:0:0:0:0:
28,192,88514,1,0,0:0:0:0:
28,192,88701,1,8,0:0:0:0:
256,192,88889,1,4,0:0:0:0:
312,192,88889,1,0,0:0:0:0:
426,192,89076,1,0,0:0:0:0:
142,192,89170,1,0,0:0:0:0:
199,192,89264,128,0,90014:0:0:0:0:
483,192,89264,1,0,0:0:0:0:
312,192,89357,1,0,0:0:0:0:
28,192,89451,1,0,0:0:0:0:
256,192,89545,1,0,0:0:0:0:
369,192,89639,1,4,0:0:0:0:
426,192,89639,1,0,0:0:0:0:
85,192,89732,1,0,0:0:0:0:
426,192,89826,1,0,0:0:0:0:
312,192,89920,1,0,0:0:0:0:
483,192,90014,128,8,90764:0:0:0:0:
142,192,90014,1,0,0:0:0:0:
142,192,90201,1,8,0:0:0:0:
369,192,90389,1,0,0:0:0:0:
426,192,90389,1,0,0:0:0:0:
199,192,90576,1,0,0:0:0:0:
85,192,90670,1,0,0:0:0:0:
256,192,90764,128,4,91514:0:0:0:0:
312,192,90764,128,0,90826:0:0:0:0:
369,192,90826,128,0,90889:0:0:0:0:
426,192,90889,128,0,90951:0:0:0:0:
483,192,90951,128,0,91326:0:0:0:0:
426,192,91326,128,0,91389:0:0:0:0:
369,192,91389,128,0,91451:0:0:0:0:
312,192,91451,128,0,91514:0:0:0:0:
199,192,91514,128,8,92264:0:0:0:0:
28,192,91514,1,0,0:0:0:0:
28,192,91701,1,8,0:0:0:0:
369,192,91889,1,4,0:0:0:0:
483,192,91889,1,0,0:0:0:0:
312,192,92076,1,0,0:0:0:0:
483,192,92170,1,0,0:0:0:0:
85,192,92264,128,0,93014:0:0:0:0:
256,192,92264,1,0,0:0:0:0:
369,192,92357,1,0,0:0:0:0:
256,192,92451,1,0,0:0:0:0:
312,192,92545,1,0,0:0:0:0:
28,192,92639,1,4,0:0:0:0:
426,192,92639,1,0,0:0:0:0:
199,192,92732,1,0,0:0:0:0:
369,192,92826,1,0,0:0:0:0:
312,192,92920,1,0,0:0:0:0:
28,192,93014,128,8,93764:0:0:0:0:
483,192,93014,1,0,0:0:0:0:
483,192,93201,1,8,0:0:0:0:
199,192,93389,1,4,0:0:0:0:
369,192,93389,1,0,0:0:0:0:
85,192,93576,1,0,0:0:0:0:
256,192,93670,1,0,0:0:0:0:
312,192,93764,128,0,94514:0:0:0:0:
142,192,93764,1,0,0:0:0:0:
426,192,93857,1,0,0:0:0:0:
85,192,93951,1,0,0:0:0:0:
28,192,94045,1,0,0:0:0:0:
369,192,94139,1,4,0:0:0:0:
483,192,94139,1,0,0:0:0:0:
142,192,94232,1,0,0:0:0:0:
426,192,94420,1,0,0:0:0:0:
483,192,94514,128,8,95264:0:0:0:0:
199,192,94514,1,0,0:0:0:0:
199,192,94701,1,8,0:0:0:0:
256,192,94889,1,4,0:0:0:0:
426,192,94889,1,0,0:0:0:0:
199,192,95076,1,0,0:0:0:0:
142,192,95170,1,0,0:0:0:0:
312,192,95264,128,0,96014:0:0:0:0:
256,192,95264,1,0,0:0:0:0:
28,192,95357,1,0,0:0:0:0:
85,192,95451,1,0,0:0:0:0:
199,192,95545,1,0,0:0:0:0:
426,192,95639,1,4,0:0:0:0:
483,192,95639,1,0,0:0:0:0:
142,192,95732,1,0,0:0:0:0:
369,192,95826,1,0,0:0:0:0:
28,192,95920,1,0,0:0:0:0:
312,192,96764,1,0,0:0:0:70:
199,192,96764,1,0,0:0:0:0:
256,192,96764,128,0,97514:0:0:0:0:
369,192,96857,1,0,0:0:0:0:
142,192,96857,1,0,0:0:0:0:
199,192,96951,1,0,0:0:0:0:
312,192,96951,1,0,0:0:0:0:
142,192,97045,1,0,0:0:0:0:
369,192,97045,1,0,0:0:0:0:
483,192,97139,1,0,0:0:0:70:
28,192,97139,1,0,0:0:0:0:
426,192,97232,1,0,0:0:0:0:
85,192,97232,1,0,0:0:0:0:
483,192,97326,1,0,0:0:0:0:
28,192,97326,1,0,0:0:0:0:
426,192,97420,1,0,0:0:0:0:
85,192,97420,1,0,0:0:0:0:
369,192,97514,1,8,0:0:0:0:
199,192,97514,1,0,0:0:0:0:
142,192,97514,1,0,0:0:0:0:
312,192,97514,128,0,98264:0:0:0:0:
85,192,97701,128,0,97889:0:0:0:70:
483,192,97701,1,2,0:0:0:0:
28,192,97889,1,8,0:0:0:0:
199,192,97889,1,4,0:0:0:0:
426,192,97889,1,0,0:0:0:0:
85,192,98076,128,2,98264:0:0:0:70:
483,192,98076,1,0,0:0:0:0:
142,192,98264,128,8,99014:0:0:0:0:
199,192,98264,1,0,0:0:0:0:
256,192,98264,1,0,0:0:0:0:
369,192,98264,1,0,0:0:0:0:
426,192,98451,128,2,98639:0:0:0:0:
312,192,98451,1,0,0:0:0:70:
369,192,98639,1,4,0:0:0:0:
28,192,98639,1,8,0:0:0:0:
199,192,98639,1,0,0:0:0:0:
426,192,98826,128,2,99014:0:0:0:70:
312,192,98826,1,0,0:0:0:0:
28,192,99014,128,8,99764:0:0:0:0:
199,192,99014,1,0,0:0:0:0:
483,192,99014,1,0,0:0:0:0:
256,192,99014,1,0,0:0:0:0:
369,192,99201,128,0,99389:0:0:0:70:
85,192,99201,1,2,0:0:0:0:
483,192,99389,1,4,0:0:0:0:
199,192,99389,1,8,0:0:0:0:
142,192,99389,1,0,0:0:0:0:
369,192,99576,128,2,99764:0:0:0:70:
85,192,99576,1,0,0:0:0:0:
199,192,99764,128,8,100514:0:0:0:0:
256,192,99764,1,0,0:0:0:0:
142,192,99764,1,0,0:0:0:0:
426,192,99764,1,0,0:0:0:0:
483,192,99951,128,2,100139:0:0:0:70:
85,192,99951,1,0,0:0:0:0:
312,192,100139,1,4,0:0:0:0:
28,192,100139,1,8,0:0:0:0:
426,192,100139,1,0,0:0:0:0:
483,192,100326,128,2,100514:0:0:0:70:
85,192,100326,1,0,0:0:0:0:
369,192,100514,128,8,101264:0:0:0:0:
312,192,100514,1,0,0:0:0:0:
256,192,100514,1,0,0:0:0:0:
28,192,100514,1,0,0:0:0:0:
142,192,100701,128,2,100889:0:0:0:70:
426,192,100701,1,0,0:0:0:0:
483,192,100889,1,8,0:0:0:0:
85,192,100889,1,4,0:0:0:0:
256,192,100889,1,0,0:0:0:0:
142,192,101076,128,2,101264:0:0:0:70:
426,192,101076,1,0,0:0:0:0:
199,192,101264,128,8,102014:0:0:0:0:
28,192,101264,1,0,0:0:0:0:
256,192,101264,1,0,0:0:0:0:
85,192,101264,1,0,0:0:0:0:
312,192,101451,128,2,101639:0:0:0:0:
426,192,101451,1,0,0:0:0:70:
85,192,101639,1,8,0:0:0:0:
483,192,101639,1,4,0:0:0:0:
142,192,101639,1,0,0:0:0:0:
312,192,101826,128,2,102014:0:0:0:0:
426,192,101826,1,0,0:0:0:70:
28,192,102014,1,0,0:0:0:0:
85,192,102014,1,0,0:0:0:0:
142,192,102014,1,0,0:0:0:0:
369,192,102139,1,0,0:0:0:0:
426,192,102139,1,0,0:0:0:0:
483,192,102139,1,0,0:0:0:0:
199,192,102264,1,0,0:0:0:0:
85,192,102264,1,0,0:0:0:0:
142,192,102264,1,0,0:0:0:0:
369,192,102389,1,0,0:0:0:0:
426,192,102389,1,0,0:0:0:0:
312,192,102389,1,0,0:0:0:0:
256,192,102514,1,0,0:0:0:0:
199,192,102514,1,0,0:0:0:0:
142,192,102514,1,0,0:0:0:0:
312,192,102639,1,0,0:0:0:0:
369,192,102639,1,0,0:0:0:0:
256,192,102639,1,0,0:0:0:0:
199,192,102764,1,0,0:0:0:0:
85,192,102764,1,0,0:0:0:0:
142,192,102764,1,0,0:0:0:0:
369,192,102889,1,0,0:0:0:0:
426,192,102889,1,0,0:0:0:0:
312,192,102889,1,0,0:0:0:0:
28,192,103014,1,0,0:0:0:0:
85,192,103014,1,0,0:0:0:0:
142,192,103014,1,0,0:0:0:0:
483,192,103139,1,0,0:0:0:0:
426,192,103185,1,0,0:0:0:0:
369,192,103232,1,0,0:0:0:0:
312,192,103279,1,0,0:0:0:0:
256,192,103326,1,0,0:0:0:0:
199,192,103373,1,0,0:0:0:0:
142,192,103420,1,0,0:0:0:0:
85,192,103467,1,0,0:0:0:0:
483,192,103514,128,8,104264:0:0:0:0:
256,192,103514,1,0,0:0:0:0:
312,192,103514,1,0,0:0:0:0:
28,192,103514,1,0,0:0:0:0:
369,192,103514,1,0,0:0:0:0:
142,192,103701,128,0,103889:0:0:0:70:
28,192,103701,1,2,0:0:0:0:
199,192,103889,1,4,0:0:0:0:
369,192,103889,1,8,0:0:0:0:
426,192,103889,1,0,0:0:0:0:
142,192,104076,128,2,104264:0:0:0:70:
28,192,104076,1,0,0:0:0:0:
312,192,104264,128,8,105014:0:0:0:0:
28,192,104451,128,2,104639:0:0:0:70:
369,192,104451,1,0,0:0:0:0:
426,192,104639,1,4,0:0:0:0:
199,192,104639,1,8,0:0:0:0:
142,192,104639,1,0,0:0:0:0:
28,192,104826,128,0,105014:0:0:0:70:
369,192,104826,1,2,0:0:0:0:
85,192,105014,128,8,105764:0:0:0:0:
256,192,105014,1,0,0:0:0:0:
483,192,105014,1,0,0:0:0:0:
199,192,105014,1,0,0:0:0:0:
426,192,105201,128,0,105389:0:0:0:70:
142,192,105201,1,2,0:0:0:0:
28,192,105389,1,4,0:0:0:0:
256,192,105389,1,8,0:0:0:0:
369,192,105389,1,0,0:0:0:0:
426,192,105576,128,0,105764:0:0:0:70:
142,192,105576,1,2,0:0:0:0:
199,192,105764,128,8,106514:0:0:0:0:
256,192,105764,1,0,0:0:0:0:
28,192,105764,1,0,0:0:0:0:
369,192,105764,1,0,0:0:0:0:
312,192,105951,128,2,106139:0:0:0:0:
483,192,105951,1,0,0:0:0:70:
426,192,106139,1,4,0:0:0:0:
142,192,106139,1,8,0:0:0:0:
28,192,106139,1,0,0:0:0:0:
312,192,106326,128,2,106514:0:0:0:0:
483,192,106326,1,0,0:0:0:70:
369,192,106514,128,8,107264:0:0:0:0:
426,192,106514,1,0,0:0:0:0:
28,192,106514,1,0,0:0:0:0:
142,192,106514,1,0,0:0:0:0:
85,192,106701,128,2,106889:0:0:0:70:
256,192,106701,1,0,0:0:0:0:
312,192,106889,1,8,0:0:0:0:
483,192,106889,1,4,0:0:0:0:
142,192,106889,1,0,0:0:0:0:
85,192,107076,128,2,107264:0:0:0:70:
256,192,107076,1,0,0:0:0:0:
199,192,107264,128,8,108014:0:0:0:0:
483,192,107264,1,0,0:0:0:0:
142,192,107264,1,0,0:0:0:0:
312,192,107264,1,0,0:0:0:0:
426,192,107451,128,0,107639:0:0:0:70:
28,192,107451,1,2,0:0:0:0:
142,192,107639,1,8,0:0:0:0:
256,192,107639,1,4,0:0:0:0:
369,192,107639,1,0,0:0:0:0:
426,192,107826,128,0,108014:0:0:0:70:
28,192,107826,1,2,0:0:0:0:
312,192,108014,128,8,108389:0:0:0:0:
369,192,108107,128,0,108389:0:0:0:0:
426,192,108201,128,0,108389:0:0:0:0:
483,192,108295,128,0,108389:0:0:0:0:
199,192,108389,128,0,108764:0:0:0:0:
142,192,108482,128,0,108764:0:0:0:0:
85,192,108576,128,0,108764:0:0:0:0:
28,192,108670,128,0,108764:0:0:0:0:
256,192,108764,128,0,109139:0:0:0:0:
312,192,108857,128,0,109139:0:0:0:0:
369,192,108951,128,0,109139:0:0:0:0:
426,192,109045,128,0,109139:0:0:0:0:
199,192,109139,1,0,0:0:0:0:
483,192,109139,1,0,0:0:0:0:
142,192,109185,1,0,0:0:0:0:
85,192,109232,1,0,0:0:0:0:
28,192,109279,1,0,0:0:0:0:
199,192,109326,1,0,0:0:0:0:
142,192,109373,1,0,0:0:0:0:
85,192,109420,1,0,0:0:0:0:
28,192,109467,1,0,0:0:0:0:
369,192,109514,1,8,0:0:0:0:
256,192,109514,1,0,0:0:0:0:
426,192,109514,1,0,0:0:0:0:
312,192,109514,128,0,110264:0:0:0:0:
85,192,109701,128,0,109889:0:0:0:70:
483,192,109701,1,2,0:0:0:0:
28,192,109889,1,4,0:0:0:0:
199,192,109889,1,8,0:0:0:0:
426,192,109889,1,0,0:0:0:0:
85,192,110076,128,0,110264:0:0:0:70:
483,192,110076,1,2,0:0:0:0:
142,192,110264,128,8,111014:0:0:0:0:
199,192,110264,1,0,0:0:0:0:
256,192,110264,1,0,0:0:0:0:
369,192,110264,1,0,0:0:0:0:
426,192,110451,128,0,110639:0:0:0:70:
312,192,110451,1,2,0:0:0:0:
369,192,110639,1,8,0:0:0:0:
28,192,110639,1,4,0:0:0:0:
199,192,110639,1,0,0:0:0:0:
426,192,110826,128,0,111014:0:0:0:70:
312,192,110826,1,2,0:0:0:0:
28,192,111014,128,8,111764:0:0:0:0:
199,192,111014,1,0,0:0:0:0:
483,192,111014,1,0,0:0:0:0:
256,192,111014,1,0,0:0:0:0:
369,192,111201,128,0,111389:0:0:0:70:
85,192,111201,1,2,0:0:0:0:
483,192,111389,1,8,0:0:0:0:
199,192,111389,1,4,0:0:0:0:
142,192,111389,1,0,0:0:0:0:
369,192,111576,128,0,111764:0:0:0:70:
85,192,111576,1,2,0:0:0:0:
199,192,111764,128,8,112514:0:0:0:0:
256,192,111764,1,0,0:0:0:0:
142,192,111764,1,0,0:0:0:0:
426,192,111764,1,0,0:0:0:0:
483,192,111951,128,0,112139:0:0:0:70:
85,192,111951,1,2,0:0:0:0:
312,192,112139,1,8,0:0:0:0:
28,192,112139,1,4,0:0:0:0:
426,192,112139,1,0,0:0:0:0:
483,192,112326,128,0,112514:0:0:0:70:
85,192,112326,1,2,0:0:0:0:
369,192,112514,128,8,113264:0:0:0:0:
312,192,112514,1,0,0:0:0:0:
256,192,112514,1,0,0:0:0:0:
28,192,112514,1,0,0:0:0:0:
142,192,112701,128,0,112889:0:0:0:70:
426,192,112701,1,2,0:0:0:0:
483,192,112889,1,4,0:0:0:0:
85,192,112889,1,8,0:0:0:0:
256,192,112889,1,0,0:0:0:0:
142,192,113076,128,0,113264:0:0:0:70:
426,192,113076,1,2,0:0:0:0:
199,192,113264,128,8,114014:0:0:0:0:
28,192,113264,1,0,0:0:0:0:
256,192,113264,1,0,0:0:0:0:
85,192,113264,1,0,0:0:0:0:
312,192,113451,128,0,113639:0:0:0:70:
426,192,113451,1,2,0:0:0:0:
85,192,113639,1,4,0:0:0:0:
483,192,113639,1,8,0:0:0:0:
142,192,113639,1,0,0:0:0:0:
312,192,113826,128,0,114014:0:0:0:70:
426,192,113826,1,2,0:0:0:0:
142,192,114014,128,8,114389:0:0:0:0:
369,192,114014,128,0,114389:0:0:0:0:
28,192,114201,128,0,114576:0:0:0:0:
483,192,114201,128,0,114576:0:0:0:0:
199,192,114389,128,0,114764:0:0:0:0:
312,192,114389,128,0,114764:0:0:0:0:
85,192,114576,128,0,114951:0:0:0:0:
426,192,114576,128,0,114951:0:0:0:0:
256,192,114764,128,0,115139:0:0:0:0:
369,192,114951,128,0,115326:0:0:0:0:
142,192,114951,128,0,115326:0:0:0:0:
483,192,115139,128,0,115514:0:0:0:0:
28,192,115139,128,0,115514:0:0:0:0:
426,192,115326,128,0,115514:0:0:0:0:
85,192,115326,128,0,115514:0:0:0:0:
312,192,115514,128,8,116264:0:0:0:0:
199,192,115514,1,0,0:0:0:0:
142,192,115514,1,0,0:0:0:0:
256,192,115514,1,0,0:0:0:0:
369,192,115514,1,0,0:0:0:0:
142,192,115701,1,8,0:0:0:70:
426,192,115889,1,4,0:0:0:0:
369,192,115889,1,0,0:0:0:0:
85,192,116076,1,0,0:0:0:70:
142,192,116170,1,0,0:0:0:0:
256,192,116264,128,0,117014:0:0:0:0:
483,192,116264,1,0,0:0:0:0:
426,192,116357,1,0,0:0:0:0:
199,192,116451,1,0,0:0:0:70:
369,192,116545,1,0,0:0:0:0:
28,192,116639,1,4,0:0:0:0:
312,192,116826,1,0,0:0:0:70:
426,192,116920,1,0,0:0:0:0:
85,192,117014,128,8,117764:0:0:0:0:
199,192,117014,1,0,0:0:0:0:
142,192,117014,1,0,0:0:0:0:
28,192,117014,1,0,0:0:0:0:
369,192,117014,1,0,0:0:0:0:
483,192,117014,1,0,0:0:0:0:
199,192,117201,1,8,0:0:0:0:
426,192,117389,1,4,0:0:0:0:
28,192,117389,1,0,0:0:0:0:
312,192,117576,1,0,0:0:0:70:
483,192,117670,1,0,0:0:0:0:
199,192,117764,128,0,118514:0:0:0:0:
256,192,117764,1,0,0:0:0:0:
369,192,117857,1,0,0:0:0:0:
28,192,117951,1,0,0:0:0:70:
312,192,118139,1,4,0:0:0:0:
426,192,118139,1,0,0:0:0:0:
483,192,118232,1,0,0:0:0:0:
85,192,118420,1,0,0:0:0:0:
369,192,118514,128,8,119264:0:0:0:0:
142,192,118514,1,0,0:0:0:0:
28,192,118514,1,0,0:0:0:0:
426,192,118514,1,0,0:0:0:0:
483,192,118514,1,0,0:0:0:0:
312,192,118514,1,0,0:0:0:0:
256,192,118701,1,0,0:0:0:70:
312,192,118889,1,4,0:0:0:0:
85,192,118889,1,0,0:0:0:0:
142,192,118889,1,0,0:0:0:0:
426,192,119076,1,0,0:0:0:70:
483,192,119170,1,0,0:0:0:0:
199,192,119264,128,8,120014:0:0:0:0:
142,192,119264,1,0,0:0:0:0:
85,192,119264,1,0,0:0:0:0:
28,192,119264,1,0,0:0:0:0:
256,192,119264,1,0,0:0:0:0:
312,192,119264,1,0,0:0:0:0:
426,192,119451,1,8,0:0:0:70:
142,192,119639,1,4,0:0:0:0:
28,192,119639,1,0,0:0:0:0:
312,192,119639,1,0,0:0:0:0:
85,192,119826,1,0,0:0:0:70:
28,192,119920,1,0,0:0:0:0:
256,192,120014,1,8,0:0:0:0:
312,192,120014,1,0,0:0:0:0:
369,192,120014,1,0,0:0:0:0:
426,192,120014,1,0,0:0:0:0:
483,192,120014,1,0,0:0:0:0:
256,192,120139,1,8,0:0:0:0:
312,192,120139,1,0,0:0:0:0:
369,192,120139,1,0,0:0:0:0:
483,192,120139,1,0,0:0:0:0:
426,192,120139,1,0,0:0:0:0:
256,192,120264,1,8,0:0:0:0:
312,192,120264,1,0,0:0:0:0:
369,192,120264,1,0,0:0:0:0:
426,192,120264,1,0,0:0:0:0:
483,192,120264,1,0,0:0:0:0:
142,192,120389,1,8,0:0:0:0:
28,192,120389,1,0,0:0:0:0:
256,192,120389,1,0,0:0:0:0:
85,192,120389,1,0,0:0:0:0:
199,192,120389,1,0,0:0:0:0:
256,192,120514,1,8,0:0:0:0:
85,192,120514,1,0,0:0:0:0:
199,192,120514,1,0,0:0:0:0:
142,192,120514,1,0,0:0:0:0:
28,192,120514,1,0,0:0:0:0:
85,192,120639,1,8,0:0:0:0:
199,192,120639,1,0,0:0:0:0:
28,192,120639,1,0,0:0:0:0:
256,192,120639,1,0,0:0:0:0:
142,192,120639,1,0,0:0:0:0:
312,192,120764,1,8,0:0:0:0:
256,192,120764,1,0,0:0:0:0:
483,192,120764,1,0,0:0:0:0:
369,192,120764,1,0,0:0:0:0:
426,192,120764,1,0,0:0:0:0:
256,192,120889,1,8,0:0:0:0:
426,192,120889,1,0,0:0:0:0:
483,192,120889,1,0,0:0:0:0:
369,192,120889,1,0,0:0:0:0:
312,192,120889,1,0,0:0:0:0:
312,192,121014,1,8,0:0:0:0:
256,192,121014,1,0,0:0:0:0:
426,192,121014,1,0,0:0:0:0:
369,192,121014,1,0,0:0:0:0:
483,192,121014,1,0,0:0:0:0:
28,192,121139,1,8,0:0:0:0:
85,192,121139,1,0,0:0:0:0:
142,192,121170,1,0,0:0:0:0:
199,192,121170,1,0,0:0:0:0:
312,192,121201,1,0,0:0:0:0:
369,192,121201,1,0,0:0:0:0:
426,192,121232,1,0,0:0:0:0:
483,192,121232,1,0,0:0:0:0:
28,192,121264,1,0,0:0:0:0:
85,192,121264,1,0,0:0:0:0:
142,192,121295,1,0,0:0:0:0:
199,192,121295,1,0,0:0:0:0:
312,192,121326,1,0,0:0:0:0:
369,192,121326,1,0,0:0:0:0:
426,192,121357,1,0,0:0:0:0:
483,192,121357,1,0,0:0:0:0:
28,192,121389,1,0,0:0:0:0:
85,192,121389,1,0,0:0:0:0:
142,192,121420,1,0,0:0:0:0:
199,192,121420,1,0,0:0:0:0:
312,192,121451,1,0,0:0:0:0:
369,192,121451,1,0,0:0:0:0:
426,192,121482,1,0,0:0:0:0:
483,192,121482,1,0,0:0:0:0:
28,192,121514,1,4,0:0:0:0:
85,192,121514,1,0,0:0:0:0:
142,192,121514,1,0,0:0:0:0:
199,192,121514,1,0,0:0:0:0:
256,192,121514,1,0,0:0:0:0:
