osu file format v14

[General]
AudioFilename: Absurd_Gaff.mp3
AudioLeadIn: 0
PreviewTime: 49352
Countdown: 0
SampleSet: Soft
StackLeniency: 0.7
Mode: 3
LetterboxInBreaks: 0
SpecialStyle: 0
WidescreenStoryboard: 1

[Editor]
Bookmarks: 6028,19528
DistanceSpacing: 1.2
BeatDivisor: 2
GridSize: 8
TimelineZoom: 0.8000001

[Metadata]
Title:Absurd Gaff
TitleUnicode:Absurd Gaff
Artist:siromaru
ArtistUnicode:siromaru
Creator:-Kamikaze-
Version:Billy's 9K Easy
Source:BMS
Tags:the of fighters 2008 resurrection bof2008 schranz _underjoy theziemniax ziemniak gekido- shxfted skalim tristan97 tornspirit frenzyli spoonguy paulmrm megative BillumMoto Janko MrDorian _Gezo_ Gezoda Nwolf zetera
BeatmapID:909711
BeatmapSetID:365073

[Difficulty]
HPDrainRate:6
CircleSize:9
OverallDifficulty:6
ApproachRate:5
SliderMultiplier:1.4
SliderTickRate:1

[Events]
//Background and Video events
0,0,"ms_title.jpg",0,0
Video,-592,"mentalstock_movie.avi"
//Break Periods
//Storyboard Layer 0 (Background)
//Storyboard Layer 1 (Fail)
//Storyboard Layer 2 (Pass)
//Storyboard Layer 3 (Foreground)
//Storyboard Sound Samples
Sample,10514,0,"8bit.wav",70

[TimingPoints]
14,375,4,1,1,60,1,0
13514,-100,4,2,1,60,0,0
37514,-100,4,1,1,60,0,0
49514,-100,4,1,1,60,0,1
61139,-100,4,2,1,60,0,0
61514,-100,4,3,1,60,0,1
85139,-100,4,2,1,60,0,0
85514,-100,4,1,1,60,0,0
97514,-100,4,3,1,60,0,1
115514,-100,4,1,1,60,0,0

[HitObjects]
199,192,1514,5,8,0:0:0:0:
142,192,1889,1,4,0:0:0:0:
312,192,2639,1,4,0:0:0:0:
369,192,3014,1,8,0:0:0:0:
256,192,3389,1,4,0:0:0:0:
28,192,4139,1,4,0:0:0:0:
256,192,4514,1,8,0:0:0:0:
483,192,4889,1,4,0:0:0:0:
370,192,5639,1,4,0:0:0:0:
142,192,6014,128,2,6389:0:0:0:0:
85,192,6389,128,2,6764:0:0:0:0:
256,192,6764,1,0,0:0:0:0:
256,192,7139,1,0,0:0:0:0:
28,192,7514,1,8,0:0:0:0:
370,192,7889,1,4,0:0:0:0:
313,192,8639,1,4,0:0:0:0:
199,192,9014,1,8,0:0:0:0:
427,192,9389,1,4,0:0:0:0:
85,192,10139,1,4,0:0:0:0:
427,192,10514,1,8,0:0:0:0:
256,192,10889,1,4,0:0:0:0:
28,192,11639,1,4,0:0:0:0:
199,192,12014,128,0,12764:0:0:0:70:
483,192,12764,128,0,13139:0:0:0:70:
28,192,13139,128,0,13514:0:0:0:70:
256,192,13514,1,0,0:0:0:0:
142,192,13889,1,0,0:0:0:0:
28,192,14264,1,0,0:0:0:0:
313,192,14639,1,0,0:0:0:0:
427,192,15014,1,0,0:0:0:0:
256,192,15389,1,0,0:0:0:0:
28,192,15764,1,0,0:0:0:0:
369,192,16139,1,0,0:0:0:0:
483,192,16514,1,0,0:0:0:0:
85,192,16889,1,0,0:0:0:0:
256,192,17264,1,0,0:0:0:0:
427,192,17639,1,0,0:0:0:0:
199,192,18014,1,0,0:0:0:0:
142,192,18389,1,0,0:0:0:0:
28,192,18764,1,0,0:0:0:0:
484,192,19139,128,0,19514:0:0:0:0:
370,192,19514,1,0,0:0:0:0:
28,192,19889,1,0,0:0:0:0:
426,192,20264,1,0,0:0:0:0:
199,192,20639,1,0,0:0:0:0:
484,192,21014,1,0,0:0:0:0:
85,192,21389,1,0,0:0:0:0:
199,192,21764,1,0,0:0:0:0:
256,192,22139,1,0,0:0:0:0:
28,192,22514,1,0,0:0:0:0:
85,192,22889,1,0,0:0:0:0:
369,192,23264,1,0,0:0:0:0:
142,192,23639,1,0,0:0:0:0:
483,192,24014,128,0,24389:0:0:0:0:
313,192,24389,128,0,24764:0:0:0:0:
256,192,24764,128,0,25139:0:0:0:0:
28,192,25139,128,0,25514:0:0:0:0:
369,192,25514,1,0,0:0:0:0:
142,192,25889,1,0,0:0:0:0:
85,192,26264,1,4,0:0:0:0:
312,192,26639,1,0,0:0:0:0:
483,192,27014,1,4,0:0:0:0:
313,192,27389,1,0,0:0:0:0:
28,192,27764,1,4,0:0:0:0:
199,192,28139,1,0,0:0:0:0:
483,192,28514,1,4,0:0:0:0:
312,192,28889,1,0,0:0:0:0:
28,192,29264,1,4,0:0:0:0:
142,192,29639,1,0,0:0:0:0:
256,192,30014,1,0,0:0:0:0:
427,192,30389,1,0,0:0:0:0:
199,192,30764,128,0,31139:0:0:0:0:
426,192,31139,128,0,31514:0:0:0:0:
28,192,31514,1,0,0:0:0:0:
256,192,31889,1,0,0:0:0:0:
370,192,32264,1,4,0:0:0:0:
427,192,32639,1,0,0:0:0:0:
142,192,33014,1,4,0:0:0:0:
484,192,33389,1,0,0:0:0:0:
313,192,33764,1,4,0:0:0:0:
256,192,34139,1,0,0:0:0:0:
85,192,34514,1,4,0:0:0:0:
426,192,34889,1,0,0:0:0:0:
28,192,35264,1,4,0:0:0:0:
142,192,35639,1,0,0:0:0:0:
426,192,36014,128,0,36389:0:0:0:0:
312,192,36389,128,0,36764:0:0:0:70:fx_synth04.wav
199,192,36764,128,0,37139:0:0:0:0:
85,192,37139,128,0,37326:0:0:0:0:
312,192,37514,1,8,0:0:0:0:
142,192,37889,1,4,0:0:0:0:
199,192,37889,1,0,0:0:0:0:
312,192,38264,1,0,0:0:0:0:
142,192,38639,1,4,0:0:0:0:
199,192,38639,1,0,0:0:0:0:
85,192,39014,1,8,0:0:0:0:
369,192,39389,1,4,0:0:0:0:
426,192,39389,1,0,0:0:0:0:
85,192,39764,1,0,0:0:0:0:
369,192,40139,1,4,0:0:0:0:
426,192,40139,1,0,0:0:0:0:
483,192,40514,1,8,0:0:0:0:
85,192,40889,1,4,0:0:0:0:
28,192,40889,1,0,0:0:0:0:
483,192,41264,1,0,0:0:0:0:
85,192,41639,1,4,0:0:0:0:
28,192,41639,1,0,0:0:0:0:
426,192,42014,128,0,42389:0:0:0:0:
142,192,42389,128,0,42764:0:0:0:0:
483,192,42764,128,0,43139:0:0:0:0:
28,192,43139,128,0,43514:0:0:0:0:
256,192,43514,1,8,0:0:0:0:
312,192,43889,1,4,0:0:0:0:
199,192,43889,1,0,0:0:0:0:
256,192,44264,1,0,0:0:0:0:
199,192,44639,1,4,0:0:0:0:
312,192,44639,1,0,0:0:0:0:
256,192,45014,1,8,0:0:0:0:
142,192,45389,1,4,0:0:0:0:
369,192,45389,1,0,0:0:0:0:
256,192,45764,1,0,0:0:0:0:
142,192,46139,1,4,0:0:0:0:
369,192,46139,1,0,0:0:0:0:
256,192,46514,1,8,0:0:0:0:
85,192,46889,1,4,0:0:0:0:
426,192,46889,1,0,0:0:0:0:
256,192,47264,1,0,0:0:0:0:
85,192,47639,1,4,0:0:0:0:
426,192,47639,1,0,0:0:0:0:
256,192,48014,1,0,0:0:0:0:
256,192,48389,5,0,0:0:0:0:
85,192,48764,128,0,49514:0:0:0:0:
142,192,49514,5,8,0:0:0:0:
369,192,49514,1,0,0:0:0:0:
369,192,50076,1,0,0:0:0:0:
142,192,50076,1,0,0:0:0:0:
256,192,50826,1,0,0:0:0:0:
28,192,50826,1,0,0:0:0:0:
256,192,51201,1,8,0:0:0:0:
28,192,51201,1,0,0:0:0:0:
426,192,52514,1,8,0:0:0:0:
199,192,52514,1,0,0:0:0:0:
426,192,53076,1,0,0:0:0:0:
199,192,53076,1,0,0:0:0:0:
484,192,53826,1,0,0:0:0:0:
256,192,53826,1,0,0:0:0:0:
256,192,54201,1,8,0:0:0:0:
484,192,54201,1,0,0:0:0:0:
85,192,55514,1,8,0:0:0:0:
313,192,55514,1,0,0:0:0:0:
85,192,56076,1,0,0:0:0:0:
312,192,56076,1,0,0:0:0:0:
28,192,56826,1,0,0:0:0:0:
256,192,56826,1,0,0:0:0:0:
256,192,57201,1,8,0:0:0:0:
28,192,57201,1,0,0:0:0:0:
142,192,58514,1,8,0:0:0:0:
369,192,58514,1,0,0:0:0:0:
142,192,59076,1,0,0:0:0:0:
369,192,59076,1,0,0:0:0:0:
256,192,59826,1,0,0:0:0:0:
483,192,59826,1,0,0:0:0:0:
256,192,60201,1,0,0:0:0:0:
483,192,60201,1,0,0:0:0:0:
199,192,60764,1,0,0:0:0:70:
142,192,61139,1,0,0:0:0:70:
85,192,61701,128,2,61889:0:0:0:70:
427,192,62076,128,2,62264:0:0:0:70:
85,192,62451,128,2,62639:0:0:0:70:
483,192,62826,128,2,63014:0:0:0:70:
312,192,63201,128,2,63389:0:0:0:70:
199,192,63576,128,2,63764:0:0:0:70:
312,192,63951,128,2,64139:0:0:0:70:
85,192,64326,128,2,64514:0:0:0:70:
142,192,64701,128,2,64889:0:0:0:70:
483,192,65076,128,2,65264:0:0:0:70:
142,192,65451,128,2,65639:0:0:0:70:
369,192,65826,128,2,66014:0:0:0:70:
426,192,66201,128,2,66389:0:0:0:70:
85,192,66576,128,2,66764:0:0:0:70:
199,192,66951,128,2,67139:0:0:0:0:
256,192,67139,128,0,67514:0:0:0:0:
85,192,67701,128,2,67889:0:0:0:70:
142,192,68076,128,2,68264:0:0:0:70:
256,192,68451,128,2,68639:0:0:0:70:
369,192,68826,128,2,69014:0:0:0:70:
312,192,69201,128,2,69389:0:0:0:70:
28,192,69576,128,2,69764:0:0:0:70:
427,192,69951,128,2,70139:0:0:0:70:
199,192,70326,128,2,70514:0:0:0:70:
312,192,70701,128,2,70889:0:0:0:70:
484,192,71076,128,2,71264:0:0:0:70:
142,192,71451,128,2,71639:0:0:0:70:
426,192,71826,128,2,72014:0:0:0:70:
199,192,72014,128,8,72201:0:0:0:0:
313,192,72201,128,2,72389:0:0:0:0:
199,192,72389,128,8,72576:0:0:0:0:
312,192,72576,128,2,72764:0:0:0:0:
256,192,72764,128,0,73326:0:0:0:70:
370,192,73701,128,2,73889:0:0:0:0:
142,192,74076,128,2,74264:0:0:0:0:
427,192,74451,128,2,74639:0:0:0:0:
85,192,74826,128,2,75014:0:0:0:0:
256,192,75201,128,2,75389:0:0:0:70:
484,192,75576,128,2,75764:0:0:0:0:
28,192,75951,128,0,76139:0:0:0:70:
199,192,76326,128,2,76514:0:0:0:0:
483,192,76701,128,2,76889:0:0:0:70:
370,192,77076,128,0,77264:0:0:0:70:
85,192,77451,128,2,77639:0:0:0:70:
312,192,77826,128,0,78014:0:0:0:70:
199,192,78014,128,0,78389:0:0:0:0:
28,192,78389,128,0,78764:0:0:0:0:
427,192,78764,128,0,79139:0:0:0:0:
256,192,79139,128,0,79514:0:0:0:0:
483,192,79701,128,2,79889:0:0:0:70:
85,192,80076,128,2,80264:0:0:0:70:
256,192,80451,128,0,80639:0:0:0:70:
28,192,80826,128,0,81014:0:0:0:70:
369,192,81201,128,2,81389:0:0:0:70:
426,192,81576,128,2,81764:0:0:0:70:
199,192,81951,128,2,82139:0:0:0:0:
85,192,82326,128,2,82514:0:0:0:0:
484,192,82701,128,2,82889:0:0:0:70:
28,192,83076,128,2,83264:0:0:0:0:
313,192,83451,128,2,83639:0:0:0:70:
484,192,83826,128,0,84014:0:0:0:70:
370,192,84014,128,0,84389:0:0:0:0:
28,192,84389,128,0,84764:0:0:0:0:
199,192,84764,128,0,85139:0:0:0:0:
312,192,85514,128,8,86264:0:0:0:0:
199,192,86264,128,0,87014:0:0:0:0:
142,192,87014,128,8,87764:0:0:0:0:
369,192,87764,128,0,88514:0:0:0:0:
426,192,88514,128,8,89264:0:0:0:0:
142,192,89264,128,0,90014:0:0:0:0:
483,192,90014,128,8,90764:0:0:0:0:
256,192,90764,128,4,91514:0:0:0:0:
199,192,91514,128,8,92264:0:0:0:0:
85,192,92264,128,0,93014:0:0:0:0:
28,192,93014,128,8,93764:0:0:0:0:
142,192,93764,128,0,94514:0:0:0:0:
312,192,94514,128,8,95264:0:0:0:0:
142,192,95264,128,0,96014:0:0:0:0:
483,192,96014,1,0,0:0:0:70:8bit2.wav
28,192,96014,1,0,0:0:0:0:
369,192,96764,128,0,97514:0:0:0:70:
312,192,97514,128,8,98264:0:0:0:0:
85,192,97889,1,8,0:0:0:0:
199,192,98264,128,8,99014:0:0:0:0:
426,192,98639,1,4,0:0:0:0:
142,192,99014,128,8,99764:0:0:0:0:
483,192,99389,1,4,0:0:0:0:
369,192,99764,128,8,100514:0:0:0:0:
85,192,100139,1,4,0:0:0:0:
426,192,100514,128,8,101264:0:0:0:0:
199,192,100889,1,8,0:0:0:0:
142,192,101264,128,8,102014:0:0:0:0:
312,192,101639,1,8,0:0:0:0:
256,192,102014,128,0,102389:0:0:0:0:
199,192,102389,128,0,102764:0:0:0:0:
312,192,102764,128,0,103139:0:0:0:0:
256,192,103139,128,0,103514:0:0:0:0:
199,192,103514,128,8,104264:0:0:0:0:
426,192,103889,1,4,0:0:0:0:
85,192,104264,128,8,105014:0:0:0:0:
483,192,104639,1,4,0:0:0:0:
28,192,105014,128,8,105764:0:0:0:0:
256,192,105389,1,4,0:0:0:0:
142,192,105764,128,8,106514:0:0:0:0:
369,192,106139,1,4,0:0:0:0:
312,192,106514,128,8,107264:0:0:0:0:
199,192,106889,1,8,0:0:0:0:
142,192,107264,128,8,108014:0:0:0:0:
369,192,107639,1,8,0:0:0:0:
28,192,108014,128,8,108201:0:0:0:0:
85,192,108201,128,0,108389:0:0:0:0:
142,192,108389,128,0,108576:0:0:0:0:
199,192,108576,128,0,108764:0:0:0:0:
312,192,108764,128,0,108951:0:0:0:0:
369,192,108951,128,0,109139:0:0:0:0:
426,192,109139,128,0,109514:0:0:0:0:
483,192,109139,128,0,109514:0:0:0:0:
199,192,109514,128,8,110264:0:0:0:0:
426,192,109889,1,4,0:0:0:0:
312,192,110264,128,8,111014:0:0:0:0:
85,192,110639,1,8,0:0:0:0:
369,192,111014,128,8,111764:0:0:0:0:
28,192,111389,1,8,0:0:0:0:
142,192,111764,128,8,112514:0:0:0:0:
426,192,112139,1,8,0:0:0:0:
85,192,112514,128,8,113264:0:0:0:0:
312,192,112889,1,4,0:0:0:0:
369,192,113264,128,8,114014:0:0:0:0:
256,192,113639,1,4,0:0:0:0:
85,192,114014,128,8,114389:0:0:0:0:
312,192,114389,128,0,114764:0:0:0:0:
199,192,114764,128,0,115139:0:0:0:0:
483,192,115139,128,0,115514:0:0:0:0:
312,192,115514,128,8,116264:0:0:0:0:
85,192,115889,1,4,0:0:0:0:
426,192,116264,128,0,117014:0:0:0:0:
28,192,116639,1,4,0:0:0:0:
483,192,117014,128,8,117764:0:0:0:0:
256,192,117389,1,4,0:0:0:0:
369,192,117764,128,0,118514:0:0:0:0:
142,192,118139,1,4,0:0:0:0:
199,192,118514,128,8,119264:0:0:0:0:
312,192,118889,1,4,0:0:0:0:
369,192,119264,128,8,120014:0:0:0:0:
142,192,119639,1,4,0:0:0:0:
199,192,120014,128,8,120389:0:0:0:0:
312,192,120014,128,0,120389:0:0:0:0:
426,192,120389,128,8,120764:0:0:0:0:
85,192,120389,128,0,120764:0:0:0:0:
28,192,120764,128,8,121139:0:0:0:0:
483,192,120764,128,0,121139:0:0:0:0:
256,192,121139,128,8,121514:0:0:0:0:
199,192,121514,1,4,0:0:0:0:
312,192,121514,1,0,0:0:0:0:
