osu file format v14

[General]
AudioFilename: Absurd_Gaff.mp3
AudioLeadIn: 0
PreviewTime: 49352
Countdown: 0
SampleSet: Normal
StackLeniency: 0.7
Mode: 3
LetterboxInBreaks: 0
SpecialStyle: 0
WidescreenStoryboard: 1

[Editor]
Bookmarks: 6028,19528
DistanceSpacing: 1.2
BeatDivisor: 4
GridSize: 8
TimelineZoom: 1.399999

[Metadata]
Title:Absurd Gaff
TitleUnicode:Absurd Gaff
Artist:siromaru
ArtistUnicode:siromaru
Creator:-Kamikaze-
Version:9K Frenzy Another
Source:BMS
Tags:the of fighters 2008 resurrection bof2008 schranz _underjoy theziemniax ziemniak gekido- shxfted skalim tristan97 tornspirit frenzyli spoonguy paulmrm megative BillumMoto Janko MrDorian _Gezo_ Gezoda Nwolf zetera
BeatmapID:862158
BeatmapSetID:365073

[Difficulty]
HPDrainRate:8
CircleSize:9
OverallDifficulty:8
ApproachRate:5
SliderMultiplier:1.4
SliderTickRate:1

[Events]
//Background and Video events
0,0,"ms_title.jpg",0,0
Video,-592,"mentalstock_movie.avi"
//Break Periods
//Storyboard Layer 0 (Background)
//Storyboard Layer 1 (Fail)
//Storyboard Layer 2 (Pass)
//Storyboard Layer 3 (Foreground)
//Storyboard Sound Samples

[TimingPoints]
14,375,4,1,1,60,1,0
13514,-100,4,2,1,60,0,0
37514,-100,4,1,1,60,0,0
49514,-100,4,1,1,60,0,1
61139,-100,4,2,1,60,0,0
61514,-100,4,3,1,60,0,1
85139,-100,4,2,1,60,0,0
85514,-100,4,1,1,60,0,0
97514,-100,4,3,1,60,0,1
115514,-100,4,1,1,60,0,0

[HitObjects]
85,192,1514,5,0,0:0:0:0:
28,192,1514,1,0,0:0:0:0:
483,192,1607,1,0,0:0:0:0:
142,192,1701,1,0,0:0:0:0:
199,192,1701,1,0,0:0:0:0:
256,192,1795,1,0,0:0:0:0:
369,192,1889,1,0,0:0:0:0:
312,192,1889,1,0,0:0:0:0:
426,192,1889,1,0,0:0:0:0:
142,192,2076,1,0,0:0:0:0:
199,192,2076,1,0,0:0:0:0:
312,192,2170,1,0,0:0:0:0:
369,192,2170,1,0,0:0:0:0:
199,192,2264,1,0,0:0:0:0:
142,192,2264,1,0,0:0:0:0:
312,192,2357,1,0,0:0:0:0:
369,192,2357,1,0,0:0:0:0:
256,192,2357,1,0,0:0:0:0:
142,192,2451,1,0,0:0:0:0:
199,192,2451,1,0,0:0:0:0:
312,192,2545,1,0,0:0:0:0:
369,192,2545,1,0,0:0:0:0:
142,192,2639,1,0,0:0:0:0:
199,192,2639,1,0,0:0:0:0:
256,192,2639,1,0,0:0:0:0:
312,192,2732,1,0,0:0:0:0:
369,192,2732,1,0,0:0:0:0:
142,192,2826,1,0,0:0:0:0:
199,192,2826,1,0,0:0:0:0:
369,192,2920,1,0,0:0:0:0:
312,192,2920,1,0,0:0:0:0:
28,192,3014,1,0,0:0:0:0:
85,192,3014,1,0,0:0:0:0:
483,192,3107,1,0,0:0:0:0:
199,192,3201,1,0,0:0:0:0:
142,192,3201,1,0,0:0:0:0:
256,192,3295,1,0,0:0:0:0:
312,192,3389,1,0,0:0:0:0:
369,192,3389,1,0,0:0:0:0:
426,192,3389,1,0,0:0:0:0:
142,192,3576,1,0,0:0:0:0:
199,192,3576,1,0,0:0:0:0:
312,192,3670,1,0,0:0:0:0:
369,192,3670,1,0,0:0:0:0:
142,192,3764,1,0,0:0:0:0:
199,192,3764,1,0,0:0:0:0:
256,192,3857,1,0,0:0:0:0:
312,192,3857,1,0,0:0:0:0:
369,192,3857,1,0,0:0:0:0:
199,192,3951,1,0,0:0:0:0:
142,192,3951,1,0,0:0:0:0:
312,192,4045,1,0,0:0:0:0:
369,192,4045,1,0,0:0:0:0:
256,192,4139,1,0,0:0:0:0:
199,192,4139,1,0,0:0:0:0:
142,192,4139,1,0,0:0:0:0:
369,192,4232,1,0,0:0:0:0:
142,192,4326,1,0,0:0:0:0:
312,192,4420,1,0,0:0:0:0:
426,192,4514,1,0,0:0:0:0:
483,192,4514,1,0,0:0:0:0:
28,192,4607,1,0,0:0:0:0:
369,192,4701,1,0,0:0:0:0:
312,192,4701,1,0,0:0:0:0:
85,192,4795,1,0,0:0:0:0:
142,192,4889,1,0,0:0:0:0:
199,192,4889,1,0,0:0:0:0:
256,192,4889,1,0,0:0:0:0:
312,192,5076,1,0,0:0:0:0:
369,192,5076,1,0,0:0:0:0:
199,192,5170,1,0,0:0:0:0:
142,192,5170,1,0,0:0:0:0:
426,192,5264,1,0,0:0:0:0:
312,192,5264,1,0,0:0:0:0:
85,192,5357,1,0,0:0:0:0:
199,192,5357,1,0,0:0:0:0:
369,192,5451,1,0,0:0:0:0:
312,192,5451,1,0,0:0:0:0:
199,192,5545,1,0,0:0:0:0:
142,192,5545,1,0,0:0:0:0:
312,192,5639,1,0,0:0:0:0:
426,192,5639,1,0,0:0:0:0:
199,192,5732,1,0,0:0:0:0:
85,192,5732,1,0,0:0:0:0:
369,192,5826,1,0,0:0:0:0:
312,192,5826,1,0,0:0:0:0:
199,192,5920,1,0,0:0:0:0:
142,192,5920,1,0,0:0:0:0:
256,192,6014,1,0,0:0:0:0:
483,192,6014,1,0,0:0:0:0:
28,192,6014,1,0,0:0:0:0:
256,192,6139,1,0,0:0:0:0:
483,192,6139,1,0,0:0:0:0:
28,192,6139,1,0,0:0:0:0:
256,192,6264,1,0,0:0:0:0:
483,192,6264,1,0,0:0:0:0:
28,192,6264,1,0,0:0:0:0:
256,192,6389,1,0,0:0:0:0:
483,192,6389,1,0,0:0:0:0:
28,192,6389,1,0,0:0:0:0:
256,192,6514,1,0,0:0:0:0:
483,192,6514,1,0,0:0:0:0:
28,192,6514,1,0,0:0:0:0:
256,192,6639,1,0,0:0:0:0:
483,192,6639,1,0,0:0:0:0:
28,192,6639,1,0,0:0:0:0:
85,192,6764,1,0,0:0:0:0:
199,192,6764,1,0,0:0:0:0:
312,192,6857,1,0,0:0:0:0:
426,192,6857,1,0,0:0:0:0:
85,192,6951,1,0,0:0:0:0:
199,192,6951,1,0,0:0:0:0:
256,192,6951,1,0,0:0:0:0:
312,192,7045,1,0,0:0:0:0:
426,192,7045,1,0,0:0:0:0:
199,192,7139,1,0,0:0:0:0:
85,192,7139,1,0,0:0:0:0:
426,192,7232,1,0,0:0:0:0:
312,192,7232,1,0,0:0:0:0:
85,192,7326,1,0,0:0:0:0:
199,192,7326,1,0,0:0:0:0:
312,192,7420,1,0,0:0:0:0:
426,192,7420,1,0,0:0:0:0:
256,192,7420,1,0,0:0:0:0:
28,192,7514,1,0,0:0:0:0:
85,192,7514,1,0,0:0:0:0:
256,192,7607,1,0,0:0:0:0:
142,192,7701,1,0,0:0:0:0:
199,192,7701,1,0,0:0:0:0:
483,192,7795,1,0,0:0:0:0:
312,192,7889,1,0,0:0:0:0:
369,192,7889,1,0,0:0:0:0:
256,192,7889,1,0,0:0:0:0:
199,192,8076,1,0,0:0:0:0:
142,192,8076,1,0,0:0:0:0:
312,192,8170,1,0,0:0:0:0:
369,192,8170,1,0,0:0:0:0:
199,192,8264,1,0,0:0:0:0:
142,192,8264,1,0,0:0:0:0:
312,192,8357,1,0,0:0:0:0:
369,192,8357,1,0,0:0:0:0:
256,192,8357,1,0,0:0:0:0:
199,192,8451,1,0,0:0:0:0:
142,192,8451,1,0,0:0:0:0:
312,192,8545,1,0,0:0:0:0:
369,192,8545,1,0,0:0:0:0:
199,192,8639,1,0,0:0:0:0:
142,192,8639,1,0,0:0:0:0:
256,192,8639,1,0,0:0:0:0:
312,192,8732,1,0,0:0:0:0:
369,192,8732,1,0,0:0:0:0:
199,192,8826,1,0,0:0:0:0:
142,192,8826,1,0,0:0:0:0:
312,192,8920,1,0,0:0:0:0:
369,192,8920,1,0,0:0:0:0:
85,192,9014,1,0,0:0:0:0:
28,192,9014,1,0,0:0:0:0:
256,192,9107,1,0,0:0:0:0:
142,192,9201,1,0,0:0:0:0:
199,192,9201,1,0,0:0:0:0:
483,192,9295,1,0,0:0:0:0:
369,192,9389,5,0,0:0:0:0:
312,192,9389,1,0,0:0:0:0:
256,192,9389,1,0,0:0:0:0:
199,192,9576,1,0,0:0:0:0:
142,192,9576,1,0,0:0:0:0:
312,192,9670,1,0,0:0:0:0:
369,192,9670,1,0,0:0:0:0:
199,192,9764,1,0,0:0:0:0:
142,192,9764,1,0,0:0:0:0:
312,192,9857,1,0,0:0:0:0:
369,192,9857,1,0,0:0:0:0:
256,192,9857,1,0,0:0:0:0:
199,192,9951,1,0,0:0:0:0:
142,192,9951,1,0,0:0:0:0:
312,192,10045,1,0,0:0:0:0:
369,192,10045,1,0,0:0:0:0:
199,192,10139,1,0,0:0:0:0:
142,192,10139,1,0,0:0:0:0:
256,192,10139,1,0,0:0:0:0:
369,192,10232,1,0,0:0:0:0:
142,192,10326,1,0,0:0:0:0:
312,192,10420,1,0,0:0:0:0:
483,192,10514,128,0,12014:0:0:0:0:
28,192,10514,128,0,12014:0:0:0:0:
142,192,10701,1,0,0:0:0:0:
199,192,10701,1,0,0:0:0:0:
312,192,10795,1,0,0:0:0:0:
369,192,10795,1,0,0:0:0:0:
199,192,10889,1,0,0:0:0:0:
142,192,10889,1,0,0:0:0:0:
142,192,11076,1,0,0:0:0:0:
199,192,11076,1,0,0:0:0:0:
312,192,11170,1,0,0:0:0:0:
369,192,11170,1,0,0:0:0:0:
199,192,11264,1,0,0:0:0:0:
142,192,11264,1,0,0:0:0:0:
312,192,11357,1,0,0:0:0:0:
369,192,11357,1,0,0:0:0:0:
256,192,11357,1,0,0:0:0:0:
142,192,11451,1,0,0:0:0:0:
199,192,11451,1,0,0:0:0:0:
312,192,11545,1,0,0:0:0:0:
369,192,11545,1,0,0:0:0:0:
199,192,11639,1,0,0:0:0:0:
142,192,11639,1,0,0:0:0:0:
256,192,11639,1,0,0:0:0:0:
369,192,11732,1,0,0:0:0:0:
312,192,11732,1,0,0:0:0:0:
142,192,11826,1,0,0:0:0:0:
199,192,11826,1,0,0:0:0:0:
312,192,11920,1,0,0:0:0:0:
369,192,11920,1,0,0:0:0:0:
256,192,12014,128,0,13514:0:0:0:0:
142,192,12764,1,0,0:0:0:0:
199,192,12764,1,0,0:0:0:0:
369,192,12857,1,0,0:0:0:0:
312,192,12857,1,0,0:0:0:0:
142,192,12951,1,0,0:0:0:0:
199,192,12951,1,0,0:0:0:0:
369,192,13045,1,0,0:0:0:0:
312,192,13045,1,0,0:0:0:0:
142,192,13139,1,0,0:0:0:0:
199,192,13139,1,0,0:0:0:0:
369,192,13232,1,0,0:0:0:0:
312,192,13232,1,0,0:0:0:0:
142,192,13326,1,0,0:0:0:0:
199,192,13326,1,0,0:0:0:0:
369,192,13420,1,0,0:0:0:0:
312,192,13420,1,0,0:0:0:0:
483,192,13514,1,0,0:0:0:0:
142,192,13514,1,0,0:0:0:0:
199,192,13514,1,0,0:0:0:0:
28,192,13514,1,0,0:0:0:0:
426,192,13607,1,0,0:0:0:0:
369,192,13701,1,0,0:0:0:0:
312,192,13795,1,0,0:0:0:0:
483,192,13889,1,0,0:0:0:0:
142,192,13889,1,0,0:0:0:0:
199,192,13889,1,0,0:0:0:0:
256,192,13889,1,0,0:0:0:0:
426,192,13982,1,0,0:0:0:0:
369,192,14076,1,0,0:0:0:0:
312,192,14170,1,0,0:0:0:0:
483,192,14264,1,0,0:0:0:0:
256,192,14264,1,0,0:0:0:0:
28,192,14264,1,0,0:0:0:0:
426,192,14357,1,0,0:0:0:0:
369,192,14451,1,0,0:0:0:0:
312,192,14545,1,0,0:0:0:0:
483,192,14639,1,0,0:0:0:0:
199,192,14639,1,0,0:0:0:0:
142,192,14639,1,0,0:0:0:0:
256,192,14639,1,0,0:0:0:0:
426,192,14732,1,0,0:0:0:0:
369,192,14826,1,0,0:0:0:0:
312,192,14920,1,0,0:0:0:0:
483,192,15014,1,0,0:0:0:0:
28,192,15014,1,0,0:0:0:0:
256,192,15014,1,0,0:0:0:0:
426,192,15107,1,0,0:0:0:0:
369,192,15201,1,0,0:0:0:0:
312,192,15295,1,0,0:0:0:0:
483,192,15389,1,0,0:0:0:0:
256,192,15389,1,0,0:0:0:0:
142,192,15389,1,0,0:0:0:0:
199,192,15389,1,0,0:0:0:0:
426,192,15482,1,0,0:0:0:0:
369,192,15576,1,0,0:0:0:0:
312,192,15670,1,0,0:0:0:0:
483,192,15764,1,0,0:0:0:0:
256,192,15764,1,0,0:0:0:0:
28,192,15764,1,0,0:0:0:0:
426,192,15857,1,0,0:0:0:0:
369,192,15951,1,0,0:0:0:0:
312,192,16045,1,0,0:0:0:0:
483,192,16139,1,0,0:0:0:0:
199,192,16139,1,0,0:0:0:0:
142,192,16139,1,0,0:0:0:0:
256,192,16139,1,0,0:0:0:0:
426,192,16232,1,0,0:0:0:0:
369,192,16326,1,0,0:0:0:0:
312,192,16420,1,0,0:0:0:0:
483,192,16514,1,0,0:0:0:0:
28,192,16514,1,0,0:0:0:0:
256,192,16514,1,0,0:0:0:0:
426,192,16607,1,0,0:0:0:0:
369,192,16701,1,0,0:0:0:0:
312,192,16795,1,0,0:0:0:0:
483,192,16889,1,0,0:0:0:0:
256,192,16889,1,0,0:0:0:0:
142,192,16889,1,0,0:0:0:0:
199,192,16889,1,0,0:0:0:0:
426,192,16982,1,0,0:0:0:0:
369,192,17076,1,0,0:0:0:0:
312,192,17170,1,0,0:0:0:0:
483,192,17264,1,0,0:0:0:0:
256,192,17264,1,0,0:0:0:0:
28,192,17264,1,0,0:0:0:0:
426,192,17357,1,0,0:0:0:0:
369,192,17451,1,0,0:0:0:0:
312,192,17545,1,0,0:0:0:0:
483,192,17639,1,0,0:0:0:0:
199,192,17639,1,0,0:0:0:0:
142,192,17639,1,0,0:0:0:0:
256,192,17639,1,0,0:0:0:0:
426,192,17732,1,0,0:0:0:0:
369,192,17826,1,0,0:0:0:0:
312,192,17920,1,0,0:0:0:0:
483,192,18014,1,0,0:0:0:0:
28,192,18014,1,0,0:0:0:0:
256,192,18014,1,0,0:0:0:0:
426,192,18107,1,0,0:0:0:0:
369,192,18201,1,0,0:0:0:0:
312,192,18295,1,0,0:0:0:0:
483,192,18389,1,0,0:0:0:0:
256,192,18389,1,0,0:0:0:0:
142,192,18389,1,0,0:0:0:0:
199,192,18389,1,0,0:0:0:0:
426,192,18482,1,0,0:0:0:0:
369,192,18576,1,0,0:0:0:0:
312,192,18670,1,0,0:0:0:0:
483,192,18764,1,0,0:0:0:0:
256,192,18764,1,0,0:0:0:0:
28,192,18764,1,0,0:0:0:0:
426,192,18857,1,0,0:0:0:0:
369,192,18951,1,0,0:0:0:0:
312,192,19045,1,0,0:0:0:0:
256,192,19139,1,0,0:0:0:0:
28,192,19139,1,0,0:0:0:0:
85,192,19232,1,0,0:0:0:0:
312,192,19232,1,0,0:0:0:0:
142,192,19326,1,0,0:0:0:0:
369,192,19326,1,0,0:0:0:0:
199,192,19420,1,0,0:0:0:0:
426,192,19420,1,0,0:0:0:0:
28,192,19514,1,0,0:0:0:0:
256,192,19514,1,0,0:0:0:0:
483,192,19514,1,0,0:0:0:0:
85,192,19607,1,0,0:0:0:0:
142,192,19701,1,0,0:0:0:0:
199,192,19795,1,0,0:0:0:0:
369,192,19889,1,0,0:0:0:0:
28,192,19889,1,0,0:0:0:0:
312,192,19889,1,0,0:0:0:0:
256,192,19889,1,0,0:0:0:0:
85,192,19982,1,0,0:0:0:0:
142,192,20076,1,0,0:0:0:0:
199,192,20170,1,0,0:0:0:0:
28,192,20264,1,0,0:0:0:0:
483,192,20264,1,0,0:0:0:0:
256,192,20264,1,0,0:0:0:0:
85,192,20357,1,0,0:0:0:0:
142,192,20451,1,0,0:0:0:0:
199,192,20545,1,0,0:0:0:0:
28,192,20639,1,0,0:0:0:0:
369,192,20639,1,0,0:0:0:0:
256,192,20639,1,0,0:0:0:0:
312,192,20639,1,0,0:0:0:0:
85,192,20732,1,0,0:0:0:0:
142,192,20826,1,0,0:0:0:0:
199,192,20920,1,0,0:0:0:0:
28,192,21014,1,0,0:0:0:0:
256,192,21014,1,0,0:0:0:0:
483,192,21014,1,0,0:0:0:0:
85,192,21107,1,0,0:0:0:0:
142,192,21201,1,0,0:0:0:0:
199,192,21295,1,0,0:0:0:0:
28,192,21389,1,0,0:0:0:0:
312,192,21389,1,0,0:0:0:0:
256,192,21389,1,0,0:0:0:0:
369,192,21389,1,0,0:0:0:0:
85,192,21482,1,0,0:0:0:0:
142,192,21576,1,0,0:0:0:0:
199,192,21670,1,0,0:0:0:0:
28,192,21764,1,0,0:0:0:0:
483,192,21764,1,0,0:0:0:0:
256,192,21764,1,0,0:0:0:0:
85,192,21857,1,0,0:0:0:0:
142,192,21951,1,0,0:0:0:0:
199,192,22045,1,0,0:0:0:0:
28,192,22139,1,0,0:0:0:0:
369,192,22139,1,0,0:0:0:0:
256,192,22139,1,0,0:0:0:0:
312,192,22139,1,0,0:0:0:0:
85,192,22232,1,0,0:0:0:0:
142,192,22326,1,0,0:0:0:0:
199,192,22420,1,0,0:0:0:0:
28,192,22514,1,0,0:0:0:0:
256,192,22514,1,0,0:0:0:0:
483,192,22514,1,0,0:0:0:0:
85,192,22607,1,0,0:0:0:0:
142,192,22701,1,0,0:0:0:0:
199,192,22795,1,0,0:0:0:0:
28,192,22889,1,0,0:0:0:0:
312,192,22889,1,0,0:0:0:0:
256,192,22889,1,0,0:0:0:0:
369,192,22889,1,0,0:0:0:0:
85,192,22982,1,0,0:0:0:0:
142,192,23076,1,0,0:0:0:0:
199,192,23170,1,0,0:0:0:0:
28,192,23264,1,0,0:0:0:0:
483,192,23264,1,0,0:0:0:0:
256,192,23264,1,0,0:0:0:0:
85,192,23357,1,0,0:0:0:0:
142,192,23451,1,0,0:0:0:0:
199,192,23545,1,0,0:0:0:0:
28,192,23639,1,0,0:0:0:0:
369,192,23639,1,0,0:0:0:0:
256,192,23639,1,0,0:0:0:0:
312,192,23639,1,0,0:0:0:0:
85,192,23732,1,0,0:0:0:0:
142,192,23826,1,0,0:0:0:0:
199,192,23920,1,0,0:0:0:0:
483,192,24014,1,0,0:0:0:0:
369,192,24107,1,0,0:0:0:0:
256,192,24201,1,0,0:0:0:0:
312,192,24201,1,0,0:0:0:0:
142,192,24295,1,0,0:0:0:0:
199,192,24295,1,0,0:0:0:0:
28,192,24389,1,0,0:0:0:0:
483,192,24389,1,0,0:0:0:0:
369,192,24482,1,0,0:0:0:0:
256,192,24576,1,0,0:0:0:0:
312,192,24576,1,0,0:0:0:0:
142,192,24670,1,0,0:0:0:0:
199,192,24670,1,0,0:0:0:0:
28,192,24764,1,0,0:0:0:0:
483,192,24764,1,0,0:0:0:0:
369,192,24857,1,0,0:0:0:0:
256,192,24951,1,0,0:0:0:0:
312,192,24951,1,0,0:0:0:0:
142,192,25045,1,0,0:0:0:0:
199,192,25045,1,0,0:0:0:0:
28,192,25139,1,0,0:0:0:0:
483,192,25139,1,0,0:0:0:0:
426,192,25139,1,0,0:0:0:0:
369,192,25232,1,0,0:0:0:0:
312,192,25232,1,0,0:0:0:0:
256,192,25326,1,0,0:0:0:0:
199,192,25326,1,0,0:0:0:0:
142,192,25420,1,0,0:0:0:0:
85,192,25420,1,0,0:0:0:0:
256,192,25514,1,0,0:0:0:0:
483,192,25514,1,0,0:0:0:0:
28,192,25514,1,0,0:0:0:0:
426,192,25607,1,0,0:0:0:0:
369,192,25701,1,0,0:0:0:0:
312,192,25795,1,0,0:0:0:0:
256,192,25889,1,0,0:0:0:0:
28,192,25889,1,0,0:0:0:0:
85,192,25889,1,0,0:0:0:0:
142,192,25889,1,0,0:0:0:0:
312,192,25982,1,0,0:0:0:0:
369,192,26076,1,0,0:0:0:0:
426,192,26170,1,0,0:0:0:0:
483,192,26264,1,0,0:0:0:0:
28,192,26264,1,0,0:0:0:0:
256,192,26264,1,0,0:0:0:0:
85,192,26357,1,0,0:0:0:0:
142,192,26451,1,0,0:0:0:0:
199,192,26545,1,0,0:0:0:0:
256,192,26639,1,0,0:0:0:0:
483,192,26639,1,0,0:0:0:0:
426,192,26639,1,0,0:0:0:0:
369,192,26639,1,0,0:0:0:0:
199,192,26732,1,0,0:0:0:0:
142,192,26826,1,0,0:0:0:0:
85,192,26920,1,0,0:0:0:0:
28,192,27014,1,0,0:0:0:0:
483,192,27014,1,0,0:0:0:0:
256,192,27014,1,0,0:0:0:0:
426,192,27107,1,0,0:0:0:0:
369,192,27201,1,0,0:0:0:0:
312,192,27295,1,0,0:0:0:0:
256,192,27389,1,0,0:0:0:0:
199,192,27389,1,0,0:0:0:0:
142,192,27389,1,0,0:0:0:0:
85,192,27389,1,0,0:0:0:0:
312,192,27482,1,0,0:0:0:0:
369,192,27576,1,0,0:0:0:0:
426,192,27670,1,0,0:0:0:0:
483,192,27764,1,0,0:0:0:0:
28,192,27764,1,0,0:0:0:0:
256,192,27764,1,0,0:0:0:0:
85,192,27857,1,0,0:0:0:0:
142,192,27951,1,0,0:0:0:0:
199,192,28045,1,0,0:0:0:0:
256,192,28139,1,0,0:0:0:0:
312,192,28139,1,0,0:0:0:0:
369,192,28139,1,0,0:0:0:0:
426,192,28139,1,0,0:0:0:0:
199,192,28232,1,0,0:0:0:0:
142,192,28326,1,0,0:0:0:0:
85,192,28420,1,0,0:0:0:0:
28,192,28514,1,0,0:0:0:0:
483,192,28514,1,0,0:0:0:0:
256,192,28514,1,0,0:0:0:0:
426,192,28607,1,0,0:0:0:0:
369,192,28701,1,0,0:0:0:0:
312,192,28795,1,0,0:0:0:0:
256,192,28889,5,0,0:0:0:0:
28,192,28889,1,0,0:0:0:0:
142,192,28889,1,0,0:0:0:0:
199,192,28889,1,0,0:0:0:0:
312,192,28982,1,0,0:0:0:0:
369,192,29076,1,0,0:0:0:0:
426,192,29170,1,0,0:0:0:0:
483,192,29264,1,0,0:0:0:0:
28,192,29264,1,0,0:0:0:0:
256,192,29264,1,0,0:0:0:0:
85,192,29357,1,0,0:0:0:0:
142,192,29451,1,0,0:0:0:0:
199,192,29545,1,0,0:0:0:0:
256,192,29639,1,0,0:0:0:0:
312,192,29639,1,0,0:0:0:0:
369,192,29639,1,0,0:0:0:0:
483,192,29639,1,0,0:0:0:0:
199,192,29732,1,0,0:0:0:0:
142,192,29826,1,0,0:0:0:0:
85,192,29920,1,0,0:0:0:0:
28,192,30014,128,0,30201:0:0:0:0:
483,192,30014,128,0,30201:0:0:0:0:
312,192,30014,128,0,30201:0:0:0:0:
199,192,30014,128,0,30201:0:0:0:0:
256,192,30201,128,0,30389:0:0:0:0:
85,192,30389,128,0,30576:0:0:0:0:
426,192,30389,128,0,30576:0:0:0:0:
142,192,30389,128,0,30576:0:0:0:0:
369,192,30389,128,0,30576:0:0:0:0:
256,192,30576,128,0,30764:0:0:0:0:
28,192,30764,1,0,0:0:0:0:
483,192,30764,1,0,0:0:0:0:
85,192,30857,1,0,0:0:0:0:
142,192,30951,1,0,0:0:0:0:
369,192,30951,1,0,0:0:0:0:
312,192,30951,1,0,0:0:0:0:
199,192,31045,1,0,0:0:0:0:
256,192,31139,1,0,0:0:0:0:
312,192,31232,1,0,0:0:0:0:
369,192,31326,1,0,0:0:0:0:
142,192,31326,1,0,0:0:0:0:
199,192,31326,1,0,0:0:0:0:
426,192,31420,1,0,0:0:0:0:
483,192,31514,1,0,0:0:0:0:
28,192,31514,1,0,0:0:0:0:
85,192,31514,1,0,0:0:0:0:
369,192,31607,1,0,0:0:0:0:
256,192,31701,1,0,0:0:0:0:
312,192,31701,1,0,0:0:0:0:
142,192,31795,1,0,0:0:0:0:
28,192,31889,1,0,0:0:0:0:
369,192,31889,1,0,0:0:0:0:
483,192,31889,1,0,0:0:0:0:
426,192,31889,1,0,0:0:0:0:
142,192,31982,1,0,0:0:0:0:
256,192,32076,1,0,0:0:0:0:
199,192,32076,1,0,0:0:0:0:
369,192,32170,1,0,0:0:0:0:
483,192,32264,1,0,0:0:0:0:
28,192,32264,1,0,0:0:0:0:
142,192,32357,1,0,0:0:0:0:
256,192,32451,1,0,0:0:0:0:
312,192,32451,1,0,0:0:0:0:
369,192,32545,1,0,0:0:0:0:
483,192,32639,1,0,0:0:0:0:
142,192,32639,1,0,0:0:0:0:
85,192,32639,1,0,0:0:0:0:
28,192,32639,1,0,0:0:0:0:
369,192,32732,1,0,0:0:0:0:
256,192,32826,1,0,0:0:0:0:
199,192,32826,1,0,0:0:0:0:
142,192,32920,1,0,0:0:0:0:
28,192,33014,1,0,0:0:0:0:
483,192,33014,1,0,0:0:0:0:
369,192,33107,1,0,0:0:0:0:
256,192,33201,1,0,0:0:0:0:
312,192,33201,1,0,0:0:0:0:
142,192,33295,1,0,0:0:0:0:
28,192,33389,1,0,0:0:0:0:
426,192,33389,1,0,0:0:0:0:
483,192,33389,1,0,0:0:0:0:
369,192,33389,1,0,0:0:0:0:
142,192,33482,1,0,0:0:0:0:
256,192,33576,1,0,0:0:0:0:
199,192,33576,1,0,0:0:0:0:
369,192,33670,1,0,0:0:0:0:
483,192,33764,1,0,0:0:0:0:
28,192,33764,1,0,0:0:0:0:
142,192,33857,1,0,0:0:0:0:
256,192,33951,1,0,0:0:0:0:
312,192,33951,1,0,0:0:0:0:
369,192,34045,1,0,0:0:0:0:
483,192,34139,1,0,0:0:0:0:
142,192,34139,1,0,0:0:0:0:
85,192,34139,1,0,0:0:0:0:
28,192,34139,1,0,0:0:0:0:
369,192,34232,1,0,0:0:0:0:
256,192,34326,1,0,0:0:0:0:
199,192,34326,1,0,0:0:0:0:
142,192,34420,1,0,0:0:0:0:
483,192,34514,1,0,0:0:0:0:
28,192,34514,1,0,0:0:0:0:
369,192,34607,1,0,0:0:0:0:
256,192,34701,1,0,0:0:0:0:
312,192,34701,1,0,0:0:0:0:
142,192,34795,1,0,0:0:0:0:
28,192,34889,1,0,0:0:0:0:
369,192,34889,1,0,0:0:0:0:
426,192,34889,1,0,0:0:0:0:
483,192,34889,1,0,0:0:0:0:
142,192,34982,1,0,0:0:0:0:
256,192,35076,1,0,0:0:0:0:
199,192,35076,1,0,0:0:0:0:
369,192,35170,1,0,0:0:0:0:
28,192,35264,1,0,0:0:0:0:
483,192,35264,1,0,0:0:0:0:
142,192,35357,1,0,0:0:0:0:
256,192,35451,1,0,0:0:0:0:
312,192,35451,1,0,0:0:0:0:
369,192,35545,1,0,0:0:0:0:
483,192,35639,1,0,0:0:0:0:
142,192,35639,1,0,0:0:0:0:
85,192,35639,1,0,0:0:0:0:
28,192,35639,1,0,0:0:0:0:
369,192,35732,1,0,0:0:0:0:
256,192,35826,1,0,0:0:0:0:
199,192,35826,1,0,0:0:0:0:
142,192,35920,1,0,0:0:0:0:
28,192,36014,1,0,0:0:0:0:
483,192,36014,1,0,0:0:0:0:
85,192,36107,1,0,0:0:0:0:
426,192,36107,1,0,0:0:0:0:
142,192,36201,1,0,0:0:0:0:
369,192,36201,1,0,0:0:0:0:
199,192,36295,1,0,0:0:0:0:
312,192,36295,1,0,0:0:0:0:
256,192,36389,128,0,36764:0:0:0:0:
28,192,36389,1,0,0:0:0:0:
483,192,36389,1,0,0:0:0:0:
85,192,36482,1,0,0:0:0:0:
426,192,36482,1,0,0:0:0:0:
142,192,36576,1,0,0:0:0:0:
369,192,36576,1,0,0:0:0:0:
199,192,36670,1,0,0:0:0:0:
312,192,36670,1,0,0:0:0:0:
28,192,36764,1,0,0:0:0:0:
142,192,36857,1,0,0:0:0:0:
199,192,36951,1,0,0:0:0:0:
256,192,36951,1,0,0:0:0:0:
369,192,37045,1,0,0:0:0:0:
312,192,37045,1,0,0:0:0:0:
85,192,37139,128,0,37514:0:0:0:0:
483,192,37139,1,0,0:0:0:0:
426,192,37514,1,0,0:0:0:0:
312,192,37514,1,0,0:0:0:0:
199,192,37514,1,0,0:0:0:0:
483,192,37607,1,0,0:0:0:0:
256,192,37701,1,0,0:0:0:0:
28,192,37701,1,0,0:0:0:0:
142,192,37795,1,0,0:0:0:0:
312,192,37889,1,0,0:0:0:0:
369,192,37889,1,0,0:0:0:0:
426,192,37889,1,0,0:0:0:0:
199,192,38076,1,0,0:0:0:0:
85,192,38076,1,0,0:0:0:0:
312,192,38170,1,0,0:0:0:0:
426,192,38170,1,0,0:0:0:0:
85,192,38264,1,0,0:0:0:0:
199,192,38264,1,0,0:0:0:0:
312,192,38357,1,0,0:0:0:0:
256,192,38357,1,0,0:0:0:0:
426,192,38357,1,0,0:0:0:0:
85,192,38451,1,0,0:0:0:0:
199,192,38451,1,0,0:0:0:0:
426,192,38545,1,0,0:0:0:0:
312,192,38545,1,0,0:0:0:0:
85,192,38639,1,0,0:0:0:0:
199,192,38639,1,0,0:0:0:0:
256,192,38639,1,0,0:0:0:0:
312,192,38732,1,0,0:0:0:0:
426,192,38732,1,0,0:0:0:0:
199,192,38826,1,0,0:0:0:0:
85,192,38826,1,0,0:0:0:0:
426,192,38920,1,0,0:0:0:0:
312,192,38920,1,0,0:0:0:0:
85,192,39014,1,0,0:0:0:0:
199,192,39014,1,0,0:0:0:0:
483,192,39107,1,0,0:0:0:0:
256,192,39201,1,0,0:0:0:0:
28,192,39201,1,0,0:0:0:0:
142,192,39295,1,0,0:0:0:0:
312,192,39389,1,0,0:0:0:0:
369,192,39389,1,0,0:0:0:0:
426,192,39389,1,0,0:0:0:0:
85,192,39576,1,0,0:0:0:0:
199,192,39576,1,0,0:0:0:0:
312,192,39670,1,0,0:0:0:0:
426,192,39670,1,0,0:0:0:0:
85,192,39764,1,0,0:0:0:0:
199,192,39764,1,0,0:0:0:0:
256,192,39857,1,0,0:0:0:0:
312,192,39857,1,0,0:0:0:0:
426,192,39857,1,0,0:0:0:0:
199,192,39951,1,0,0:0:0:0:
85,192,39951,1,0,0:0:0:0:
312,192,40045,1,0,0:0:0:0:
426,192,40045,1,0,0:0:0:0:
256,192,40139,1,0,0:0:0:0:
199,192,40139,1,0,0:0:0:0:
85,192,40139,1,0,0:0:0:0:
483,192,40232,1,0,0:0:0:0:
85,192,40326,1,0,0:0:0:0:
199,192,40420,1,0,0:0:0:0:
312,192,40514,1,0,0:0:0:0:
426,192,40514,1,0,0:0:0:0:
28,192,40607,1,0,0:0:0:0:
483,192,40701,1,0,0:0:0:0:
256,192,40701,1,0,0:0:0:0:
369,192,40795,1,0,0:0:0:0:
142,192,40889,1,0,0:0:0:0:
199,192,40889,1,0,0:0:0:0:
85,192,40889,1,0,0:0:0:0:
312,192,41076,1,0,0:0:0:0:
426,192,41076,1,0,0:0:0:0:
85,192,41170,1,0,0:0:0:0:
199,192,41170,1,0,0:0:0:0:
426,192,41264,1,0,0:0:0:0:
312,192,41264,1,0,0:0:0:0:
256,192,41357,1,0,0:0:0:0:
85,192,41357,1,0,0:0:0:0:
199,192,41357,1,0,0:0:0:0:
426,192,41451,1,0,0:0:0:0:
312,192,41451,1,0,0:0:0:0:
85,192,41545,1,0,0:0:0:0:
199,192,41545,1,0,0:0:0:0:
426,192,41639,1,0,0:0:0:0:
312,192,41639,1,0,0:0:0:0:
256,192,41639,1,0,0:0:0:0:
199,192,41732,1,0,0:0:0:0:
85,192,41732,1,0,0:0:0:0:
312,192,41826,1,0,0:0:0:0:
426,192,41826,1,0,0:0:0:0:
199,192,41920,1,0,0:0:0:0:
85,192,41920,1,0,0:0:0:0:
426,192,42014,128,0,42764:0:0:0:0:
312,192,42014,128,0,42389:0:0:0:0:
199,192,42389,128,0,43139:0:0:0:0:
483,192,42764,128,0,43514:0:0:0:0:
28,192,43139,128,0,43514:0:0:0:0:
85,192,43514,1,0,0:0:0:0:
199,192,43514,1,0,0:0:0:0:
142,192,43607,1,0,0:0:0:0:
312,192,43701,1,0,0:0:0:0:
426,192,43701,1,0,0:0:0:0:
369,192,43795,1,0,0:0:0:0:
256,192,43889,1,0,0:0:0:0:
28,192,43889,1,0,0:0:0:0:
483,192,43889,1,0,0:0:0:0:
199,192,44076,1,0,0:0:0:0:
142,192,44076,1,0,0:0:0:0:
312,192,44170,1,0,0:0:0:0:
369,192,44170,1,0,0:0:0:0:
142,192,44264,1,0,0:0:0:0:
199,192,44264,1,0,0:0:0:0:
312,192,44357,1,0,0:0:0:0:
256,192,44357,1,0,0:0:0:0:
369,192,44357,1,0,0:0:0:0:
142,192,44451,1,0,0:0:0:0:
199,192,44451,1,0,0:0:0:0:
369,192,44545,1,0,0:0:0:0:
312,192,44545,1,0,0:0:0:0:
199,192,44639,1,0,0:0:0:0:
256,192,44639,1,0,0:0:0:0:
142,192,44639,1,0,0:0:0:0:
369,192,44732,1,0,0:0:0:0:
312,192,44732,1,0,0:0:0:0:
142,192,44826,1,0,0:0:0:0:
199,192,44826,1,0,0:0:0:0:
369,192,44920,1,0,0:0:0:0:
312,192,44920,1,0,0:0:0:0:
85,192,45014,1,0,0:0:0:0:
199,192,45014,1,0,0:0:0:0:
142,192,45107,1,0,0:0:0:0:
312,192,45201,1,0,0:0:0:0:
426,192,45201,1,0,0:0:0:0:
369,192,45295,1,0,0:0:0:0:
483,192,45389,1,0,0:0:0:0:
256,192,45389,1,0,0:0:0:0:
28,192,45389,1,0,0:0:0:0:
142,192,45576,1,0,0:0:0:0:
199,192,45576,1,0,0:0:0:0:
369,192,45670,1,0,0:0:0:0:
312,192,45670,1,0,0:0:0:0:
199,192,45764,1,0,0:0:0:0:
142,192,45764,1,0,0:0:0:0:
369,192,45857,1,0,0:0:0:0:
256,192,45857,1,0,0:0:0:0:
312,192,45857,1,0,0:0:0:0:
199,192,45951,1,0,0:0:0:0:
142,192,45951,1,0,0:0:0:0:
312,192,46045,1,0,0:0:0:0:
369,192,46045,1,0,0:0:0:0:
142,192,46139,1,0,0:0:0:0:
256,192,46139,1,0,0:0:0:0:
199,192,46139,1,0,0:0:0:0:
483,192,46232,1,0,0:0:0:0:
28,192,46326,1,0,0:0:0:0:
199,192,46420,1,0,0:0:0:0:
312,192,46514,1,0,0:0:0:0:
426,192,46514,1,0,0:0:0:0:
85,192,46701,1,0,0:0:0:0:
199,192,46795,1,0,0:0:0:0:
312,192,46889,1,0,0:0:0:0:
369,192,46889,1,0,0:0:0:0:
426,192,46889,1,0,0:0:0:0:
199,192,47076,1,0,0:0:0:0:
142,192,47076,1,0,0:0:0:0:
312,192,47170,1,0,0:0:0:0:
369,192,47170,1,0,0:0:0:0:
142,192,47264,1,0,0:0:0:0:
199,192,47264,1,0,0:0:0:0:
312,192,47357,1,0,0:0:0:0:
256,192,47357,1,0,0:0:0:0:
369,192,47357,1,0,0:0:0:0:
142,192,47451,1,0,0:0:0:0:
199,192,47451,1,0,0:0:0:0:
369,192,47545,1,0,0:0:0:0:
312,192,47545,1,0,0:0:0:0:
199,192,47639,1,0,0:0:0:0:
256,192,47639,1,0,0:0:0:0:
142,192,47639,1,0,0:0:0:0:
369,192,47732,1,0,0:0:0:0:
312,192,47732,1,0,0:0:0:0:
142,192,47826,1,0,0:0:0:0:
199,192,47826,1,0,0:0:0:0:
369,192,47920,1,0,0:0:0:0:
312,192,47920,1,0,0:0:0:0:
199,192,48014,1,0,0:0:0:0:
483,192,48014,1,0,0:0:0:0:
28,192,48014,128,0,48764:0:0:0:0:
312,192,48201,1,0,0:0:0:0:
199,192,48389,5,0,0:0:0:0:
483,192,48389,1,0,0:0:0:0:
483,192,48764,1,0,0:0:0:0:
312,192,48764,128,0,49514:0:0:0:0:
199,192,48764,128,0,49514:0:0:0:0:
256,192,49514,5,0,0:0:0:0:
142,192,49514,1,0,0:0:0:0:
85,192,49514,1,0,0:0:0:0:
483,192,49607,1,0,0:0:0:0:
256,192,49701,1,0,0:0:0:0:
142,192,49701,1,0,0:0:0:0:
85,192,49701,1,0,0:0:0:0:
483,192,49795,1,0,0:0:0:0:
312,192,49889,1,0,0:0:0:0:
28,192,49889,1,0,0:0:0:0:
426,192,49889,1,0,0:0:0:0:
256,192,50076,1,0,0:0:0:0:
142,192,50076,1,0,0:0:0:0:
85,192,50076,1,0,0:0:0:0:
483,192,50170,1,0,0:0:0:0:
256,192,50264,1,0,0:0:0:0:
142,192,50264,1,0,0:0:0:0:
85,192,50264,1,0,0:0:0:0:
312,192,50357,1,0,0:0:0:0:
369,192,50357,1,0,0:0:0:0:
426,192,50357,1,0,0:0:0:0:
28,192,50451,1,0,0:0:0:0:
483,192,50545,1,0,0:0:0:0:
369,192,50639,1,0,0:0:0:0:
312,192,50639,1,0,0:0:0:0:
426,192,50639,1,0,0:0:0:0:
28,192,50732,1,0,0:0:0:0:
199,192,50826,1,0,0:0:0:0:
142,192,50826,1,0,0:0:0:0:
312,192,50920,1,0,0:0:0:0:
369,192,50920,1,0,0:0:0:0:
426,192,50920,1,0,0:0:0:0:
85,192,51014,1,0,0:0:0:0:
483,192,51107,1,0,0:0:0:0:
256,192,51107,1,0,0:0:0:0:
199,192,51201,1,0,0:0:0:0:
142,192,51201,1,0,0:0:0:0:
426,192,51295,1,0,0:0:0:0:
199,192,51389,1,0,0:0:0:0:
256,192,51389,1,0,0:0:0:0:
142,192,51389,1,0,0:0:0:0:
369,192,51482,1,0,0:0:0:0:
199,192,51576,1,0,0:0:0:0:
142,192,51576,1,0,0:0:0:0:
312,192,51670,1,0,0:0:0:0:
199,192,51764,1,0,0:0:0:0:
483,192,51764,1,0,0:0:0:0:
142,192,51764,1,0,0:0:0:0:
426,192,51857,1,0,0:0:0:0:
85,192,51857,1,0,0:0:0:0:
369,192,51951,1,0,0:0:0:0:
199,192,51951,1,0,0:0:0:0:
312,192,52045,1,0,0:0:0:0:
426,192,52139,1,0,0:0:0:0:
85,192,52139,1,0,0:0:0:0:
369,192,52232,1,0,0:0:0:0:
199,192,52232,1,0,0:0:0:0:
312,192,52326,1,0,0:0:0:0:
426,192,52420,1,0,0:0:0:0:
256,192,52420,1,0,0:0:0:0:
199,192,52514,1,0,0:0:0:0:
312,192,52514,1,0,0:0:0:0:
85,192,52514,1,0,0:0:0:0:
483,192,52607,1,0,0:0:0:0:
199,192,52701,1,0,0:0:0:0:
312,192,52701,1,0,0:0:0:0:
85,192,52701,1,0,0:0:0:0:
483,192,52795,1,0,0:0:0:0:
256,192,52889,1,0,0:0:0:0:
369,192,52889,1,0,0:0:0:0:
28,192,52889,1,0,0:0:0:0:
199,192,53076,1,0,0:0:0:0:
312,192,53076,1,0,0:0:0:0:
85,192,53076,1,0,0:0:0:0:
483,192,53170,1,0,0:0:0:0:
199,192,53264,1,0,0:0:0:0:
312,192,53264,1,0,0:0:0:0:
85,192,53264,1,0,0:0:0:0:
28,192,53357,1,0,0:0:0:0:
85,192,53451,1,0,0:0:0:0:
142,192,53545,1,0,0:0:0:0:
199,192,53639,1,0,0:0:0:0:
426,192,53639,1,0,0:0:0:0:
369,192,53732,1,0,0:0:0:0:
28,192,53826,1,0,0:0:0:0:
199,192,53826,1,0,0:0:0:0:
312,192,53826,1,0,0:0:0:0:
483,192,53920,1,0,0:0:0:0:
426,192,54014,1,0,0:0:0:0:
369,192,54107,1,0,0:0:0:0:
28,192,54201,1,0,0:0:0:0:
199,192,54201,1,0,0:0:0:0:
312,192,54201,1,0,0:0:0:0:
483,192,54295,1,0,0:0:0:0:
28,192,54389,1,0,0:0:0:0:
199,192,54389,1,0,0:0:0:0:
312,192,54389,1,0,0:0:0:0:
483,192,54482,1,0,0:0:0:0:
28,192,54576,1,0,0:0:0:0:
199,192,54576,1,0,0:0:0:0:
312,192,54576,1,0,0:0:0:0:
483,192,54670,1,0,0:0:0:0:
28,192,54764,1,0,0:0:0:0:
199,192,54764,1,0,0:0:0:0:
312,192,54764,1,0,0:0:0:0:
483,192,54857,1,0,0:0:0:0:
312,192,54951,1,0,0:0:0:0:
199,192,55045,1,0,0:0:0:0:
369,192,55139,128,0,55232:0:0:0:0:
426,192,55139,128,0,55232:0:0:0:0:
85,192,55232,128,0,55326:0:0:0:0:
142,192,55232,128,0,55326:0:0:0:0:
369,192,55326,128,0,55420:0:0:0:0:
426,192,55326,128,0,55420:0:0:0:0:
85,192,55420,128,0,55514:0:0:0:0:
142,192,55420,128,0,55514:0:0:0:0:
369,192,55514,1,0,0:0:0:0:
426,192,55514,1,0,0:0:0:0:
199,192,55514,1,0,0:0:0:0:
28,192,55607,1,0,0:0:0:0:
369,192,55701,1,0,0:0:0:0:
426,192,55701,1,0,0:0:0:0:
199,192,55701,1,0,0:0:0:0:
28,192,55795,1,0,0:0:0:0:
85,192,55889,1,0,0:0:0:0:
142,192,55889,1,0,0:0:0:0:
256,192,55889,1,0,0:0:0:0:
369,192,56076,1,0,0:0:0:0:
426,192,56076,1,0,0:0:0:0:
199,192,56076,1,0,0:0:0:0:
28,192,56170,1,0,0:0:0:0:
369,192,56264,1,0,0:0:0:0:
426,192,56264,1,0,0:0:0:0:
256,192,56264,1,0,0:0:0:0:
85,192,56357,1,0,0:0:0:0:
142,192,56357,1,0,0:0:0:0:
199,192,56357,1,0,0:0:0:0:
483,192,56451,1,0,0:0:0:0:
312,192,56545,1,0,0:0:0:0:
85,192,56639,1,0,0:0:0:0:
142,192,56639,1,0,0:0:0:0:
199,192,56639,1,0,0:0:0:0:
256,192,56732,1,0,0:0:0:0:
312,192,56826,1,0,0:0:0:0:
369,192,56826,1,0,0:0:0:0:
85,192,56920,1,0,0:0:0:0:
142,192,56920,1,0,0:0:0:0:
28,192,56920,1,0,0:0:0:0:
199,192,57014,1,0,0:0:0:0:
483,192,57014,1,0,0:0:0:0:
256,192,57107,1,0,0:0:0:0:
426,192,57107,1,0,0:0:0:0:
312,192,57201,1,0,0:0:0:0:
369,192,57201,1,0,0:0:0:0:
85,192,57295,1,0,0:0:0:0:
312,192,57389,1,0,0:0:0:0:
369,192,57389,1,0,0:0:0:0:
199,192,57389,1,0,0:0:0:0:
142,192,57482,1,0,0:0:0:0:
312,192,57576,1,0,0:0:0:0:
369,192,57576,1,0,0:0:0:0:
199,192,57670,1,0,0:0:0:0:
312,192,57764,1,0,0:0:0:0:
369,192,57764,1,0,0:0:0:0:
28,192,57764,1,0,0:0:0:0:
426,192,57857,1,0,0:0:0:0:
85,192,57857,1,0,0:0:0:0:
312,192,57951,1,0,0:0:0:0:
142,192,57951,1,0,0:0:0:0:
199,192,58045,1,0,0:0:0:0:
426,192,58139,1,0,0:0:0:0:
85,192,58139,1,0,0:0:0:0:
312,192,58232,1,0,0:0:0:0:
142,192,58232,1,0,0:0:0:0:
199,192,58326,1,0,0:0:0:0:
256,192,58420,1,0,0:0:0:0:
85,192,58420,1,0,0:0:0:0:
312,192,58514,1,0,0:0:0:0:
426,192,58514,1,0,0:0:0:0:
28,192,58514,128,0,60014:0:0:0:0:
199,192,58514,1,0,0:0:0:0:
312,192,58701,1,0,0:0:0:0:
426,192,58701,1,0,0:0:0:0:
199,192,58701,1,0,0:0:0:0:
483,192,58889,1,0,0:0:0:0:
256,192,58889,1,0,0:0:0:0:
199,192,58889,1,0,0:0:0:0:
312,192,59076,1,0,0:0:0:0:
426,192,59076,1,0,0:0:0:0:
199,192,59076,1,0,0:0:0:0:
312,192,59264,1,0,0:0:0:0:
426,192,59264,1,0,0:0:0:0:
199,192,59264,1,0,0:0:0:0:
483,192,59357,1,0,0:0:0:0:
426,192,59451,1,0,0:0:0:0:
369,192,59545,1,0,0:0:0:0:
312,192,59639,1,0,0:0:0:0:
256,192,59639,1,0,0:0:0:0:
199,192,59732,1,0,0:0:0:0:
483,192,59826,1,0,0:0:0:0:
312,192,59826,1,0,0:0:0:0:
142,192,59826,1,0,0:0:0:0:
199,192,60014,128,0,61139:0:0:0:0:
483,192,60201,1,0,0:0:0:0:
312,192,60201,1,0,0:0:0:0:
28,192,60201,1,0,0:0:0:0:
483,192,60389,5,0,0:0:0:0:
312,192,60389,1,0,0:0:0:0:
28,192,60389,1,0,0:0:0:0:
483,192,60576,1,0,0:0:0:0:
312,192,60576,1,0,0:0:0:0:
28,192,60576,1,0,0:0:0:0:
483,192,60764,1,0,0:0:0:0:
28,192,60764,1,0,0:0:0:0:
312,192,60764,128,0,61139:0:0:0:0:
142,192,61139,128,0,61514:0:0:0:0:
369,192,61139,128,0,61514:0:0:0:0:
483,192,61514,5,0,0:0:0:0:
28,192,61514,1,0,0:0:0:0:
256,192,61514,1,0,0:0:0:0:
369,192,61701,128,0,61889:0:0:0:0:
28,192,61701,128,0,61889:0:0:0:0:
483,192,61889,1,0,0:0:0:0:
256,192,61889,1,0,0:0:0:0:
369,192,62076,128,0,62264:0:0:0:0:
28,192,62076,1,0,0:0:0:0:
483,192,62264,1,0,0:0:0:0:
28,192,62264,128,0,62639:0:0:0:0:
369,192,62451,128,0,62639:0:0:0:0:
483,192,62639,1,0,0:0:0:0:
256,192,62639,1,0,0:0:0:0:
369,192,62826,128,0,63014:0:0:0:0:
85,192,62826,128,0,63014:0:0:0:0:
28,192,62826,128,0,67139:0:0:0:0:
483,192,63014,5,0,0:0:0:0:
85,192,63201,1,0,0:0:0:0:
369,192,63201,128,0,63389:0:0:0:0:
85,192,63389,1,0,0:0:0:0:
256,192,63389,1,0,0:0:0:0:
483,192,63389,1,0,0:0:0:0:
85,192,63576,1,0,0:0:0:0:
369,192,63576,128,0,63764:0:0:0:0:
85,192,63764,128,0,64139:0:0:0:0:
483,192,63764,1,0,0:0:0:0:
369,192,63951,128,0,64139:0:0:0:0:
256,192,64139,1,0,0:0:0:0:
483,192,64139,1,0,0:0:0:0:
369,192,64326,128,0,64514:0:0:0:0:
142,192,64514,1,0,0:0:0:0:
483,192,64514,1,0,0:0:0:0:
85,192,64514,128,0,67139:0:0:0:0:
142,192,64701,128,0,64889:0:0:0:0:
369,192,64701,128,0,64889:0:0:0:0:
483,192,64889,1,0,0:0:0:0:
256,192,64889,1,0,0:0:0:0:
142,192,65076,1,0,0:0:0:0:
369,192,65076,128,0,65264:0:0:0:0:
142,192,65264,128,0,65639:0:0:0:0:
483,192,65264,1,0,0:0:0:0:
369,192,65451,128,0,65639:0:0:0:0:
483,192,65639,1,0,0:0:0:0:
256,192,65639,1,0,0:0:0:0:
199,192,65826,128,0,66014:0:0:0:0:
369,192,65826,128,0,66014:0:0:0:0:
142,192,65826,128,0,67139:0:0:0:0:
483,192,66014,1,0,0:0:0:0:
199,192,66201,1,0,0:0:0:0:
369,192,66201,128,0,66389:0:0:0:0:
199,192,66389,1,0,0:0:0:0:
483,192,66389,1,0,0:0:0:0:
256,192,66389,1,0,0:0:0:0:
199,192,66576,1,0,0:0:0:0:
369,192,66576,128,0,66764:0:0:0:0:
199,192,66764,128,0,67139:0:0:0:0:
483,192,66764,1,0,0:0:0:0:
369,192,66951,128,0,67139:0:0:0:0:
483,192,67139,128,0,67232:0:0:0:0:
426,192,67139,128,0,67232:0:0:0:0:
199,192,67232,128,0,67326:0:0:0:0:
142,192,67232,128,0,67326:0:0:0:0:
483,192,67326,128,0,67420:0:0:0:0:
426,192,67326,128,0,67420:0:0:0:0:
199,192,67420,128,0,67514:0:0:0:0:
142,192,67420,128,0,67514:0:0:0:0:
483,192,67514,1,0,0:0:0:0:
28,192,67514,1,0,0:0:0:0:
256,192,67514,1,0,0:0:0:0:
142,192,67701,128,0,67889:0:0:0:0:
483,192,67701,128,0,67889:0:0:0:0:
28,192,67889,1,0,0:0:0:0:
256,192,67889,1,0,0:0:0:0:
483,192,68076,1,0,0:0:0:0:
142,192,68076,128,0,68264:0:0:0:0:
483,192,68264,128,0,68639:0:0:0:0:
28,192,68264,1,0,0:0:0:0:
142,192,68451,128,0,68639:0:0:0:0:
28,192,68639,1,0,0:0:0:0:
256,192,68639,1,0,0:0:0:0:
142,192,68826,128,0,69014:0:0:0:0:
426,192,68826,128,0,69014:0:0:0:0:
483,192,68826,128,0,73139:0:0:0:0:
28,192,69014,5,0,0:0:0:0:
426,192,69201,1,0,0:0:0:0:
142,192,69201,128,0,69389:0:0:0:0:
28,192,69389,1,0,0:0:0:0:
426,192,69389,1,0,0:0:0:0:
256,192,69389,1,0,0:0:0:0:
426,192,69576,1,0,0:0:0:0:
142,192,69576,128,0,69764:0:0:0:0:
28,192,69764,1,0,0:0:0:0:
426,192,69764,128,0,70139:0:0:0:0:
142,192,69951,128,0,70139:0:0:0:0:
28,192,70139,1,0,0:0:0:0:
256,192,70139,1,0,0:0:0:0:
142,192,70326,128,0,70514:0:0:0:0:
369,192,70514,1,0,0:0:0:0:
28,192,70514,1,0,0:0:0:0:
426,192,70514,128,0,73139:0:0:0:0:
369,192,70701,128,0,70889:0:0:0:0:
142,192,70701,128,0,70889:0:0:0:0:
28,192,70889,1,0,0:0:0:0:
256,192,70889,1,0,0:0:0:0:
369,192,71076,1,0,0:0:0:0:
142,192,71076,128,0,71264:0:0:0:0:
369,192,71264,128,0,71639:0:0:0:0:
28,192,71264,1,0,0:0:0:0:
142,192,71451,128,0,71639:0:0:0:0:
28,192,71639,1,0,0:0:0:0:
256,192,71639,1,0,0:0:0:0:
142,192,71826,128,0,72014:0:0:0:0:
369,192,71826,128,0,73139:0:0:0:0:
312,192,71826,1,0,0:0:0:0:
28,192,72014,1,0,0:0:0:0:
199,192,72107,1,0,0:0:0:0:
312,192,72201,1,0,0:0:0:0:
28,192,72201,1,0,0:0:0:0:
199,192,72295,1,0,0:0:0:0:
312,192,72389,1,0,0:0:0:0:
28,192,72389,1,0,0:0:0:0:
199,192,72482,1,0,0:0:0:0:
312,192,72576,1,0,0:0:0:0:
28,192,72576,1,0,0:0:0:0:
199,192,72670,1,0,0:0:0:0:
312,192,72764,128,0,73139:0:0:0:0:
28,192,72764,128,0,73139:0:0:0:0:
256,192,72764,128,0,73139:0:0:0:0:
85,192,73139,128,0,73514:0:0:0:0:
199,192,73139,128,0,73514:0:0:0:0:
28,192,73514,1,0,0:0:0:0:
256,192,73514,1,0,0:0:0:0:
483,192,73514,1,0,0:0:0:0:
312,192,73607,1,0,0:0:0:0:
199,192,73701,128,0,73889:0:0:0:0:
369,192,73701,1,0,0:0:0:0:
426,192,73795,1,0,0:0:0:0:
28,192,73889,1,0,0:0:0:0:
256,192,73889,1,0,0:0:0:0:
483,192,73889,1,0,0:0:0:0:
85,192,73982,1,0,0:0:0:0:
312,192,74076,128,0,74264:0:0:0:0:
142,192,74076,1,0,0:0:0:0:
199,192,74170,1,0,0:0:0:0:
256,192,74264,1,0,0:0:0:0:
483,192,74264,1,0,0:0:0:0:
426,192,74357,1,0,0:0:0:0:
142,192,74451,128,0,74639:0:0:0:0:
369,192,74451,1,0,0:0:0:0:
312,192,74545,1,0,0:0:0:0:
28,192,74639,1,0,0:0:0:0:
256,192,74639,1,0,0:0:0:0:
483,192,74639,1,0,0:0:0:0:
199,192,74732,1,0,0:0:0:0:
369,192,74826,128,0,75014:0:0:0:0:
142,192,74826,1,0,0:0:0:0:
85,192,74920,1,0,0:0:0:0:
28,192,75014,1,0,0:0:0:0:
256,192,75014,1,0,0:0:0:0:
312,192,75107,1,0,0:0:0:0:
199,192,75201,128,0,75389:0:0:0:0:
369,192,75201,1,0,0:0:0:0:
426,192,75295,1,0,0:0:0:0:
256,192,75389,1,0,0:0:0:0:
483,192,75389,1,0,0:0:0:0:
28,192,75389,1,0,0:0:0:0:
85,192,75482,1,0,0:0:0:0:
312,192,75576,128,0,75764:0:0:0:0:
142,192,75576,1,0,0:0:0:0:
199,192,75670,1,0,0:0:0:0:
256,192,75764,1,0,0:0:0:0:
483,192,75764,1,0,0:0:0:0:
426,192,75857,1,0,0:0:0:0:
199,192,75951,128,0,76139:0:0:0:0:
369,192,75951,1,0,0:0:0:0:
312,192,76045,1,0,0:0:0:0:
28,192,76139,1,0,0:0:0:0:
256,192,76139,1,0,0:0:0:0:
483,192,76139,1,0,0:0:0:0:
85,192,76232,1,0,0:0:0:0:
369,192,76326,128,0,76514:0:0:0:0:
142,192,76326,1,0,0:0:0:0:
199,192,76420,1,0,0:0:0:0:
256,192,76514,1,0,0:0:0:0:
28,192,76514,1,0,0:0:0:0:
312,192,76607,1,0,0:0:0:0:
199,192,76701,128,0,76889:0:0:0:0:
369,192,76701,1,0,0:0:0:0:
426,192,76795,1,0,0:0:0:0:
256,192,76889,1,0,0:0:0:0:
28,192,76889,1,0,0:0:0:0:
483,192,76889,1,0,0:0:0:0:
85,192,76982,1,0,0:0:0:0:
369,192,77076,128,0,77264:0:0:0:0:
142,192,77076,1,0,0:0:0:0:
199,192,77170,1,0,0:0:0:0:
483,192,77264,1,0,0:0:0:0:
256,192,77264,1,0,0:0:0:0:
312,192,77357,1,0,0:0:0:0:
142,192,77451,128,0,77639:0:0:0:0:
369,192,77451,1,0,0:0:0:0:
426,192,77545,1,0,0:0:0:0:
256,192,77639,1,0,0:0:0:0:
28,192,77639,1,0,0:0:0:0:
483,192,77639,1,0,0:0:0:0:
199,192,77732,1,0,0:0:0:0:
312,192,77826,128,0,78014:0:0:0:0:
142,192,77826,1,0,0:0:0:0:
85,192,77920,1,0,0:0:0:0:
28,192,78014,128,0,78764:0:0:0:0:
142,192,78014,128,0,78389:0:0:0:0:
256,192,78014,1,0,0:0:0:0:
312,192,78201,1,0,0:0:0:0:
199,192,78389,128,0,79139:0:0:0:0:
369,192,78389,1,0,0:0:0:0:
426,192,78576,1,0,0:0:0:0:
85,192,78764,128,0,79514:0:0:0:0:
483,192,78764,128,0,79139:0:0:0:0:
142,192,79139,128,0,79514:0:0:0:0:
426,192,79139,128,0,79514:0:0:0:0:
199,192,79514,1,0,0:0:0:0:
312,192,79514,1,0,0:0:0:0:
199,192,79701,128,0,79889:0:0:0:0:
312,192,79701,128,0,79889:0:0:0:0:
199,192,80076,1,0,0:0:0:0:
312,192,80076,1,0,0:0:0:0:
199,192,80264,128,0,80639:0:0:0:0:
312,192,80264,128,0,80639:0:0:0:0:
142,192,80826,128,0,81014:0:0:0:0:
369,192,80826,128,0,81014:0:0:0:0:
256,192,80826,128,0,82139:0:0:0:0:
142,192,81201,1,0,0:0:0:0:
369,192,81201,1,0,0:0:0:0:
142,192,81389,1,0,0:0:0:0:
369,192,81389,1,0,0:0:0:0:
142,192,81576,1,0,0:0:0:0:
369,192,81576,1,0,0:0:0:0:
142,192,81764,128,0,82139:0:0:0:0:
369,192,81764,128,0,82139:0:0:0:0:
85,192,82514,1,0,0:0:0:0:
426,192,82514,1,0,0:0:0:0:
199,192,82514,128,0,83639:0:0:0:0:
312,192,82514,128,0,83639:0:0:0:0:
85,192,82701,128,0,82889:0:0:0:0:
426,192,82701,128,0,82889:0:0:0:0:
85,192,83076,1,0,0:0:0:0:
426,192,83076,1,0,0:0:0:0:
426,192,83264,128,0,83639:0:0:0:0:
85,192,83264,128,0,83639:0:0:0:0:
483,192,83826,128,0,84014:0:0:0:0:
28,192,83826,128,0,84014:0:0:0:0:
142,192,83826,128,0,84951:0:0:0:0:
369,192,83826,128,0,84951:0:0:0:0:
256,192,83826,128,0,84764:0:0:0:0:
28,192,84201,1,0,0:0:0:0:
483,192,84201,1,0,0:0:0:0:
483,192,84389,5,0,0:0:0:0:
28,192,84389,1,0,0:0:0:0:
28,192,84576,1,0,0:0:0:0:
483,192,84576,1,0,0:0:0:0:
28,192,84764,128,0,85139:0:0:0:0:
483,192,84764,128,0,85139:0:0:0:0:
28,192,85514,128,0,86264:0:0:0:0:
199,192,85514,1,0,0:0:0:0:
256,192,85514,1,0,0:0:0:0:
483,192,85607,1,0,0:0:0:0:
199,192,85701,1,0,0:0:0:0:
256,192,85701,1,0,0:0:0:0:
483,192,85795,1,0,0:0:0:0:
369,192,85889,1,0,0:0:0:0:
312,192,85889,1,0,0:0:0:0:
426,192,85889,1,0,0:0:0:0:
199,192,86076,1,0,0:0:0:0:
256,192,86076,1,0,0:0:0:0:
312,192,86170,1,0,0:0:0:0:
426,192,86170,1,0,0:0:0:0:
483,192,86264,128,0,87014:0:0:0:0:
199,192,86264,1,0,0:0:0:0:
256,192,86264,1,0,0:0:0:0:
426,192,86357,1,0,0:0:0:0:
142,192,86357,1,0,0:0:0:0:
85,192,86357,1,0,0:0:0:0:
312,192,86451,1,0,0:0:0:0:
369,192,86451,1,0,0:0:0:0:
199,192,86545,1,0,0:0:0:0:
256,192,86545,1,0,0:0:0:0:
85,192,86639,1,0,0:0:0:0:
426,192,86639,1,0,0:0:0:0:
142,192,86639,1,0,0:0:0:0:
369,192,86732,1,0,0:0:0:0:
312,192,86732,1,0,0:0:0:0:
256,192,86826,1,0,0:0:0:0:
199,192,86826,1,0,0:0:0:0:
142,192,86920,1,0,0:0:0:0:
85,192,86920,1,0,0:0:0:0:
426,192,86920,1,0,0:0:0:0:
28,192,87014,128,0,87764:0:0:0:0:
256,192,87014,1,0,0:0:0:0:
369,192,87014,1,0,0:0:0:0:
199,192,87107,1,0,0:0:0:0:
256,192,87201,1,0,0:0:0:0:
369,192,87201,1,0,0:0:0:0:
199,192,87295,1,0,0:0:0:0:
369,192,87389,1,0,0:0:0:0:
256,192,87389,1,0,0:0:0:0:
142,192,87389,1,0,0:0:0:0:
199,192,87576,1,0,0:0:0:0:
142,192,87576,1,0,0:0:0:0:
369,192,87670,1,0,0:0:0:0:
312,192,87670,1,0,0:0:0:0:
256,192,87764,128,0,88514:0:0:0:0:
199,192,87764,1,0,0:0:0:0:
142,192,87764,1,0,0:0:0:0:
312,192,87857,1,0,0:0:0:0:
426,192,87857,1,0,0:0:0:0:
142,192,87951,1,0,0:0:0:0:
199,192,87951,1,0,0:0:0:0:
312,192,88045,1,0,0:0:0:0:
369,192,88045,1,0,0:0:0:0:
199,192,88139,1,0,0:0:0:0:
85,192,88139,1,0,0:0:0:0:
426,192,88232,1,0,0:0:0:0:
312,192,88232,1,0,0:0:0:0:
85,192,88326,1,0,0:0:0:0:
199,192,88420,1,0,0:0:0:0:
483,192,88514,128,0,89264:0:0:0:0:
312,192,88514,1,0,0:0:0:0:
426,192,88514,1,0,0:0:0:0:
28,192,88607,1,0,0:0:0:0:
312,192,88701,1,0,0:0:0:0:
426,192,88701,1,0,0:0:0:0:
28,192,88795,1,0,0:0:0:0:
369,192,88889,1,0,0:0:0:0:
142,192,88889,1,0,0:0:0:0:
199,192,88889,1,0,0:0:0:0:
142,192,89076,1,0,0:0:0:0:
199,192,89076,1,0,0:0:0:0:
312,192,89170,1,0,0:0:0:0:
369,192,89170,1,0,0:0:0:0:
142,192,89264,1,0,0:0:0:0:
199,192,89264,1,0,0:0:0:0:
28,192,89264,128,0,90014:0:0:0:0:
312,192,89357,1,0,0:0:0:0:
426,192,89357,1,0,0:0:0:0:
85,192,89451,1,0,0:0:0:0:
199,192,89451,1,0,0:0:0:0:
312,192,89545,1,0,0:0:0:0:
369,192,89545,1,0,0:0:0:0:
199,192,89639,1,0,0:0:0:0:
142,192,89639,1,0,0:0:0:0:
312,192,89732,1,0,0:0:0:0:
426,192,89732,1,0,0:0:0:0:
199,192,89826,1,0,0:0:0:0:
85,192,89826,1,0,0:0:0:0:
312,192,89920,1,0,0:0:0:0:
369,192,89920,1,0,0:0:0:0:
483,192,90014,128,0,90764:0:0:0:0:
199,192,90014,1,0,0:0:0:0:
142,192,90014,1,0,0:0:0:0:
369,192,90107,1,0,0:0:0:0:
312,192,90107,1,0,0:0:0:0:
142,192,90201,1,0,0:0:0:0:
199,192,90201,1,0,0:0:0:0:
312,192,90295,1,0,0:0:0:0:
369,192,90295,1,0,0:0:0:0:
199,192,90389,1,0,0:0:0:0:
142,192,90389,1,0,0:0:0:0:
256,192,90389,1,0,0:0:0:0:
312,192,90482,1,0,0:0:0:0:
369,192,90482,1,0,0:0:0:0:
199,192,90576,1,0,0:0:0:0:
142,192,90576,1,0,0:0:0:0:
312,192,90670,1,0,0:0:0:0:
142,192,90764,128,0,91514:0:0:0:0:
369,192,90764,128,0,91514:0:0:0:0:
199,192,90764,1,0,0:0:0:0:
256,192,91514,128,0,92264:0:0:0:0:
28,192,91514,1,0,0:0:0:0:
312,192,91514,1,0,0:0:0:0:
199,192,91607,1,0,0:0:0:0:
28,192,91701,1,0,0:0:0:0:
312,192,91701,1,0,0:0:0:0:
199,192,91795,1,0,0:0:0:0:
28,192,91889,1,0,0:0:0:0:
312,192,91889,1,0,0:0:0:0:
483,192,91889,1,0,0:0:0:0:
199,192,91982,1,0,0:0:0:0:
312,192,92076,1,0,0:0:0:0:
28,192,92076,1,0,0:0:0:0:
483,192,92170,1,0,0:0:0:0:
312,192,92264,128,0,93014:0:0:0:0:
199,192,92264,1,0,0:0:0:0:
142,192,92264,1,0,0:0:0:0:
85,192,92357,1,0,0:0:0:0:
28,192,92357,1,0,0:0:0:0:
256,192,92451,1,0,0:0:0:0:
199,192,92451,1,0,0:0:0:0:
369,192,92545,1,0,0:0:0:0:
426,192,92545,1,0,0:0:0:0:
85,192,92639,1,0,0:0:0:0:
28,192,92639,1,0,0:0:0:0:
256,192,92732,1,0,0:0:0:0:
199,192,92732,1,0,0:0:0:0:
369,192,92826,1,0,0:0:0:0:
426,192,92826,1,0,0:0:0:0:
85,192,92920,1,0,0:0:0:0:
28,192,92920,1,0,0:0:0:0:
199,192,93014,128,0,93764:0:0:0:0:
483,192,93014,1,0,0:0:0:0:
256,192,93014,1,0,0:0:0:0:
142,192,93107,1,0,0:0:0:0:
256,192,93201,1,0,0:0:0:0:
483,192,93201,1,0,0:0:0:0:
142,192,93295,1,0,0:0:0:0:
312,192,93389,1,0,0:0:0:0:
369,192,93389,1,0,0:0:0:0:
426,192,93389,1,0,0:0:0:0:
142,192,93482,1,0,0:0:0:0:
426,192,93576,1,0,0:0:0:0:
312,192,93576,1,0,0:0:0:0:
483,192,93670,1,0,0:0:0:0:
256,192,93670,1,0,0:0:0:0:
28,192,93764,128,0,94514:0:0:0:0:
142,192,93764,1,0,0:0:0:0:
85,192,93764,1,0,0:0:0:0:
369,192,93857,1,0,0:0:0:0:
199,192,93857,1,0,0:0:0:0:
256,192,93951,1,0,0:0:0:0:
312,192,94045,1,0,0:0:0:0:
142,192,94139,1,0,0:0:0:0:
369,192,94139,1,0,0:0:0:0:
256,192,94232,1,0,0:0:0:0:
483,192,94232,1,0,0:0:0:0:
142,192,94326,1,0,0:0:0:0:
312,192,94420,1,0,0:0:0:0:
426,192,94420,1,0,0:0:0:0:
483,192,94514,128,0,95264:0:0:0:0:
142,192,94514,1,0,0:0:0:0:
256,192,94514,1,0,0:0:0:0:
369,192,94607,1,0,0:0:0:0:
142,192,94701,1,0,0:0:0:0:
256,192,94701,1,0,0:0:0:0:
369,192,94795,1,0,0:0:0:0:
199,192,94889,1,0,0:0:0:0:
312,192,94889,1,0,0:0:0:0:
28,192,94889,1,0,0:0:0:0:
142,192,94982,1,0,0:0:0:0:
256,192,95076,1,0,0:0:0:0:
369,192,95170,1,0,0:0:0:0:
256,192,95264,128,0,96014:0:0:0:0:
85,192,95264,1,0,0:0:0:0:
199,192,95264,1,0,0:0:0:0:
369,192,95357,1,0,0:0:0:0:
199,192,95451,1,0,0:0:0:0:
85,192,95451,1,0,0:0:0:0:
369,192,95545,1,0,0:0:0:0:
28,192,95639,1,0,0:0:0:0:
483,192,95639,1,0,0:0:0:0:
199,192,95639,1,0,0:0:0:0:
85,192,95732,1,0,0:0:0:0:
426,192,95732,1,0,0:0:0:0:
142,192,95826,1,0,0:0:0:0:
369,192,95826,1,0,0:0:0:0:
199,192,95920,1,0,0:0:0:0:
312,192,95920,1,0,0:0:0:0:
483,192,96014,128,0,96764:0:0:0:0:
28,192,96014,128,0,96764:0:0:0:0:
256,192,96764,128,0,97139:0:0:0:0:
85,192,96764,1,0,0:0:0:0:
199,192,96764,1,0,0:0:0:0:
312,192,96857,1,0,0:0:0:0:
426,192,96857,1,0,0:0:0:0:
199,192,96951,1,0,0:0:0:0:
85,192,96951,1,0,0:0:0:0:
312,192,97045,1,0,0:0:0:0:
426,192,97045,1,0,0:0:0:0:
142,192,97139,128,0,97514:0:0:0:0:
369,192,97139,128,0,97514:0:0:0:0:
256,192,97514,128,0,98264:0:0:0:0:
199,192,97514,1,0,0:0:0:0:
85,192,97514,1,0,0:0:0:0:
312,192,97701,1,0,0:0:0:0:
426,192,97701,1,0,0:0:0:0:
483,192,97889,1,0,0:0:0:0:
142,192,97889,1,0,0:0:0:0:
28,192,97889,1,0,0:0:0:0:
369,192,97889,1,0,0:0:0:0:
199,192,98076,1,0,0:0:0:0:
85,192,98076,1,0,0:0:0:0:
312,192,98264,1,0,0:0:0:0:
426,192,98264,1,0,0:0:0:0:
142,192,98264,128,0,98639:0:0:0:0:
199,192,98451,1,0,0:0:0:0:
28,192,98639,1,0,0:0:0:0:
369,192,98639,1,0,0:0:0:0:
483,192,98639,1,0,0:0:0:0:
256,192,98639,1,0,0:0:0:0:
85,192,98826,1,0,0:0:0:0:
426,192,98826,1,0,0:0:0:0:
256,192,98826,128,0,99764:0:0:0:0:
426,192,99201,1,0,0:0:0:0:
85,192,99201,1,0,0:0:0:0:
28,192,99389,1,0,0:0:0:0:
483,192,99389,1,0,0:0:0:0:
199,192,99389,1,0,0:0:0:0:
312,192,99389,1,0,0:0:0:0:
85,192,99576,1,0,0:0:0:0:
426,192,99576,1,0,0:0:0:0:
369,192,99764,128,0,100514:0:0:0:0:
142,192,99764,1,0,0:0:0:0:
199,192,99951,1,0,0:0:0:0:
28,192,100139,1,0,0:0:0:0:
256,192,100139,1,0,0:0:0:0:
483,192,100139,1,0,0:0:0:0:
142,192,100139,1,0,0:0:0:0:
312,192,100326,1,0,0:0:0:0:
85,192,100514,1,0,0:0:0:0:
199,192,100514,1,0,0:0:0:0:
142,192,100514,128,0,101264:0:0:0:0:
312,192,100701,1,0,0:0:0:0:
426,192,100701,1,0,0:0:0:0:
28,192,100889,1,0,0:0:0:0:
483,192,100889,1,0,0:0:0:0:
199,192,100889,1,0,0:0:0:0:
256,192,100889,1,0,0:0:0:0:
312,192,101076,1,0,0:0:0:0:
426,192,101076,1,0,0:0:0:0:
85,192,101264,1,0,0:0:0:0:
199,192,101264,1,0,0:0:0:0:
369,192,101264,128,0,101639:0:0:0:0:
256,192,101451,1,0,0:0:0:0:
28,192,101639,1,0,0:0:0:0:
142,192,101639,1,0,0:0:0:0:
483,192,101639,1,0,0:0:0:0:
312,192,101639,1,0,0:0:0:0:
256,192,101826,128,0,103139:0:0:0:0:
85,192,101826,1,0,0:0:0:0:
426,192,101826,1,0,0:0:0:0:
426,192,102014,1,0,0:0:0:0:
85,192,102014,1,0,0:0:0:0:
199,192,102139,1,0,0:0:0:0:
312,192,102139,1,0,0:0:0:0:
426,192,102264,1,0,0:0:0:0:
85,192,102264,1,0,0:0:0:0:
312,192,102389,1,0,0:0:0:0:
199,192,102389,1,0,0:0:0:0:
426,192,102514,1,0,0:0:0:0:
85,192,102514,1,0,0:0:0:0:
312,192,102639,1,0,0:0:0:0:
199,192,102639,1,0,0:0:0:0:
426,192,102764,1,0,0:0:0:0:
85,192,102764,1,0,0:0:0:0:
312,192,102889,1,0,0:0:0:0:
199,192,102889,1,0,0:0:0:0:
426,192,103014,1,0,0:0:0:0:
85,192,103014,1,0,0:0:0:0:
312,192,103139,128,0,103514:0:0:0:0:
199,192,103139,128,0,103514:0:0:0:0:
256,192,103514,128,0,104264:0:0:0:0:
85,192,103514,1,0,0:0:0:0:
426,192,103514,1,0,0:0:0:0:
142,192,103701,1,0,0:0:0:0:
369,192,103701,1,0,0:0:0:0:
28,192,103889,1,0,0:0:0:0:
483,192,103889,1,0,0:0:0:0:
199,192,103889,1,0,0:0:0:0:
312,192,103889,1,0,0:0:0:0:
85,192,104076,1,0,0:0:0:0:
426,192,104076,1,0,0:0:0:0:
369,192,104264,1,0,0:0:0:0:
142,192,104264,128,0,104639:0:0:0:0:
312,192,104451,1,0,0:0:0:0:
199,192,104451,1,0,0:0:0:0:
28,192,104639,1,0,0:0:0:0:
256,192,104639,1,0,0:0:0:0:
369,192,104639,1,0,0:0:0:0:
483,192,104639,1,0,0:0:0:0:
426,192,104826,1,0,0:0:0:0:
199,192,104826,1,0,0:0:0:0:
312,192,104826,128,0,105764:0:0:0:0:
28,192,105014,1,0,0:0:0:0:
483,192,105014,1,0,0:0:0:0:
199,192,105201,1,0,0:0:0:0:
256,192,105201,1,0,0:0:0:0:
142,192,105389,1,0,0:0:0:0:
483,192,105389,1,0,0:0:0:0:
28,192,105389,1,0,0:0:0:0:
369,192,105389,1,0,0:0:0:0:
85,192,105576,1,0,0:0:0:0:
199,192,105576,1,0,0:0:0:0:
483,192,105764,128,0,106514:0:0:0:0:
256,192,105764,1,0,0:0:0:0:
142,192,105764,1,0,0:0:0:0:
312,192,105951,1,0,0:0:0:0:
199,192,105951,1,0,0:0:0:0:
369,192,106139,1,0,0:0:0:0:
256,192,106139,1,0,0:0:0:0:
142,192,106139,1,0,0:0:0:0:
28,192,106139,1,0,0:0:0:0:
312,192,106326,1,0,0:0:0:0:
426,192,106326,1,0,0:0:0:0:
142,192,106514,128,0,107264:0:0:0:0:
199,192,106514,1,0,0:0:0:0:
85,192,106514,1,0,0:0:0:0:
312,192,106701,1,0,0:0:0:0:
426,192,106701,1,0,0:0:0:0:
483,192,106889,1,0,0:0:0:0:
369,192,106889,1,0,0:0:0:0:
256,192,106889,1,0,0:0:0:0:
28,192,106889,1,0,0:0:0:0:
199,192,107076,1,0,0:0:0:0:
85,192,107076,1,0,0:0:0:0:
256,192,107264,1,0,0:0:0:0:
483,192,107264,1,0,0:0:0:0:
369,192,107264,128,0,107826:0:0:0:0:
85,192,107451,1,0,0:0:0:0:
199,192,107451,1,0,0:0:0:0:
28,192,107639,1,0,0:0:0:0:
142,192,107639,1,0,0:0:0:0:
256,192,107639,1,0,0:0:0:0:
483,192,107639,1,0,0:0:0:0:
312,192,107826,1,0,0:0:0:0:
199,192,107826,1,0,0:0:0:0:
256,192,107826,128,0,108014:0:0:0:0:
28,192,108014,128,0,109139:0:0:0:0:
483,192,108014,128,0,109139:0:0:0:0:
256,192,108201,1,0,0:0:0:0:
256,192,108389,1,0,0:0:0:0:
256,192,108576,1,0,0:0:0:0:
256,192,108764,128,0,109514:0:0:0:0:
85,192,109139,128,0,109514:0:0:0:0:
426,192,109139,128,0,109514:0:0:0:0:
312,192,109139,128,0,109514:0:0:0:0:
199,192,109139,128,0,109514:0:0:0:0:
142,192,109514,128,0,111014:0:0:0:0:
369,192,109514,128,0,110264:0:0:0:0:
28,192,109514,1,0,0:0:0:0:
483,192,109514,1,0,0:0:0:0:
199,192,109701,1,0,0:0:0:0:
312,192,109701,1,0,0:0:0:0:
28,192,109889,1,0,0:0:0:0:
483,192,109889,1,0,0:0:0:0:
256,192,109889,1,0,0:0:0:0:
199,192,110076,1,0,0:0:0:0:
312,192,110076,1,0,0:0:0:0:
483,192,110264,128,0,111764:0:0:0:0:
85,192,110264,1,0,0:0:0:0:
426,192,110264,1,0,0:0:0:0:
199,192,110451,1,0,0:0:0:0:
312,192,110451,1,0,0:0:0:0:
28,192,110639,1,0,0:0:0:0:
256,192,110639,1,0,0:0:0:0:
369,192,110639,1,0,0:0:0:0:
199,192,110826,1,0,0:0:0:0:
312,192,110826,1,0,0:0:0:0:
28,192,111014,128,0,112514:0:0:0:0:
85,192,111014,1,0,0:0:0:0:
426,192,111014,1,0,0:0:0:0:
199,192,111201,1,0,0:0:0:0:
312,192,111201,1,0,0:0:0:0:
142,192,111389,1,0,0:0:0:0:
256,192,111389,1,0,0:0:0:0:
369,192,111389,1,0,0:0:0:0:
312,192,111576,1,0,0:0:0:0:
199,192,111576,1,0,0:0:0:0:
312,192,111764,128,0,113264:0:0:0:0:
85,192,111764,1,0,0:0:0:0:
426,192,111764,1,0,0:0:0:0:
199,192,111951,1,0,0:0:0:0:
369,192,111951,1,0,0:0:0:0:
142,192,112139,1,0,0:0:0:0:
256,192,112139,1,0,0:0:0:0:
483,192,112139,1,0,0:0:0:0:
199,192,112326,1,0,0:0:0:0:
369,192,112326,1,0,0:0:0:0:
199,192,112514,128,0,113826:0:0:0:0:
85,192,112514,1,0,0:0:0:0:
426,192,112514,1,0,0:0:0:0:
142,192,112701,1,0,0:0:0:0:
369,192,112701,1,0,0:0:0:0:
28,192,112889,1,0,0:0:0:0:
483,192,112889,1,0,0:0:0:0:
256,192,112889,1,0,0:0:0:0:
142,192,113076,1,0,0:0:0:0:
369,192,113076,1,0,0:0:0:0:
483,192,113264,128,0,114764:0:0:0:0:
426,192,113264,1,0,0:0:0:0:
85,192,113264,1,0,0:0:0:0:
142,192,113451,1,0,0:0:0:0:
312,192,113451,1,0,0:0:0:0:
426,192,113639,1,0,0:0:0:0:
256,192,113639,1,0,0:0:0:0:
28,192,113639,1,0,0:0:0:0:
142,192,113826,1,0,0:0:0:0:
28,192,113826,128,0,114014:0:0:0:0:
312,192,113826,128,0,114014:0:0:0:0:
28,192,114201,128,0,115139:0:0:0:0:
312,192,114201,1,0,0:0:0:0:
312,192,114389,1,0,0:0:0:0:
312,192,114576,1,0,0:0:0:0:
312,192,114764,128,0,115514:0:0:0:0:
199,192,115139,128,0,115514:0:0:0:0:
28,192,115514,128,0,117014:0:0:0:0:
369,192,115514,1,0,0:0:0:0:
256,192,115514,128,0,116264:0:0:0:0:
483,192,115701,1,0,0:0:0:0:
426,192,115795,1,0,0:0:0:0:
199,192,115889,1,0,0:0:0:0:
369,192,115889,1,0,0:0:0:0:
142,192,116076,1,0,0:0:0:0:
369,192,116170,1,0,0:0:0:0:
483,192,116264,128,0,117764:0:0:0:0:
85,192,116264,1,0,0:0:0:0:
426,192,116357,1,0,0:0:0:0:
142,192,116451,1,0,0:0:0:0:
369,192,116545,1,0,0:0:0:0:
199,192,116639,1,0,0:0:0:0:
312,192,116639,1,0,0:0:0:0:
369,192,116732,1,0,0:0:0:0:
256,192,116826,1,0,0:0:0:0:
199,192,116920,1,0,0:0:0:0:
142,192,117014,128,0,118326:0:0:0:0:
312,192,117014,1,0,0:0:0:0:
199,192,117201,1,0,0:0:0:0:
256,192,117295,1,0,0:0:0:0:
312,192,117389,1,0,0:0:0:0:
28,192,117389,1,0,0:0:0:0:
426,192,117482,1,0,0:0:0:0:
312,192,117576,1,0,0:0:0:0:
256,192,117670,1,0,0:0:0:0:
199,192,117764,1,0,0:0:0:0:
369,192,117764,128,0,118326:0:0:0:0:
312,192,117857,1,0,0:0:0:0:
256,192,117951,1,0,0:0:0:0:
199,192,118045,1,0,0:0:0:0:
483,192,118139,1,0,0:0:0:0:
85,192,118139,1,0,0:0:0:0:
312,192,118232,1,0,0:0:0:0:
28,192,118326,1,0,0:0:0:0:
256,192,118420,1,0,0:0:0:0:
483,192,118514,128,0,120014:0:0:0:0:
85,192,118514,1,0,0:0:0:0:
142,192,118514,128,0,119264:0:0:0:0:
199,192,118607,1,0,0:0:0:0:
256,192,118701,1,0,0:0:0:0:
312,192,118795,1,0,0:0:0:0:
369,192,118889,1,0,0:0:0:0:
28,192,118889,1,0,0:0:0:0:
256,192,119076,1,0,0:0:0:0:
312,192,119170,1,0,0:0:0:0:
28,192,119264,128,0,120014:0:0:0:0:
369,192,119264,1,0,0:0:0:0:
199,192,119357,1,0,0:0:0:0:
256,192,119451,1,0,0:0:0:0:
312,192,119545,1,0,0:0:0:0:
142,192,119639,1,0,0:0:0:0:
369,192,119639,1,0,0:0:0:0:
199,192,119732,1,0,0:0:0:0:
256,192,119826,1,0,0:0:0:0:
312,192,119920,1,0,0:0:0:0:
142,192,120014,1,0,0:0:0:0:
369,192,120014,1,0,0:0:0:0:
199,192,120139,1,0,0:0:0:0:
312,192,120139,1,0,0:0:0:0:
85,192,120264,1,0,0:0:0:0:
426,192,120264,1,0,0:0:0:0:
142,192,120389,5,0,0:0:0:0:
369,192,120389,1,0,0:0:0:0:
28,192,120514,1,0,0:0:0:0:
483,192,120514,1,0,0:0:0:0:
142,192,120639,1,0,0:0:0:0:
369,192,120639,1,0,0:0:0:0:
199,192,120764,1,0,0:0:0:0:
312,192,120764,1,0,0:0:0:0:
483,192,120889,1,0,0:0:0:0:
28,192,120889,1,0,0:0:0:0:
199,192,121014,1,0,0:0:0:0:
312,192,121014,1,0,0:0:0:0:
142,192,121139,128,0,121514:0:0:0:0:
369,192,121139,128,0,121514:0:0:0:0:
28,192,121139,128,0,121514:0:0:0:0:
483,192,121139,128,0,121514:0:0:0:0:
256,192,121139,128,0,121514:0:0:0:0:
