osu file format v14

[General]
AudioFilename: Absurd_Gaff.mp3
AudioLeadIn: 0
PreviewTime: 49352
Countdown: 0
SampleSet: Soft
StackLeniency: 0.7
Mode: 3
LetterboxInBreaks: 0
SpecialStyle: 1
WidescreenStoryboard: 1

[Editor]
DistanceSpacing: 1.2
BeatDivisor: 1
GridSize: 8
TimelineZoom: 1.4

[Metadata]
Title:Absurd Gaff
TitleUnicode:Absurd Gaff
Artist:siromaru
ArtistUnicode:siromaru
Creator:-Kamikaze-
Version:8K Easy
Source:BMS
Tags:the of fighters 2008 resurrection bof2008 schranz _underjoy theziemniax ziemniak gekido- shxfted skalim tristan97 tornspirit frenzyli spoonguy paulmrm megative BillumMoto Janko MrDorian _Gezo_ Gezoda Nwolf zetera
BeatmapID:911178
BeatmapSetID:365073

[Difficulty]
HPDrainRate:7
CircleSize:8
OverallDifficulty:7
ApproachRate:5
SliderMultiplier:1.4
SliderTickRate:1

[Events]
//Background and Video events
0,0,"ms_title.jpg",0,0
Video,-592,"mentalstock_movie.avi"
//Break Periods
//Storyboard Layer 0 (Background)
//Storyboard Layer 1 (Fail)
//Storyboard Layer 2 (Pass)
//Storyboard Layer 3 (Foreground)
//Storyboard Sound Samples
Sample,10514,0,"8bit.wav",70

[TimingPoints]
14,375,4,1,1,60,1,0
13514,-100,4,2,1,60,0,0
37514,-100,4,1,1,60,0,0
49514,-100,4,1,1,60,0,1
61139,-100,4,2,1,60,0,0
61514,-100,4,3,1,60,0,1
85139,-100,4,2,1,60,0,0
85514,-100,4,1,1,60,0,0
97514,-100,4,3,1,60,0,1
115514,-100,4,1,1,60,0,0

[HitObjects]
160,192,1514,5,8,0:0:0:0:
416,192,1889,1,4,0:0:0:0:
224,192,2639,1,4,0:0:0:0:
96,192,3014,1,8,0:0:0:0:
352,192,3389,1,4,0:0:0:0:
32,192,4139,1,4,0:0:0:0:
288,192,4514,1,8,0:0:0:0:
480,192,4889,1,4,0:0:0:0:
160,192,5639,1,4,0:0:0:0:
32,192,6014,1,2,0:0:0:0:
32,192,6389,1,2,0:0:0:0:
352,192,6389,1,0,0:0:0:0:
288,192,6764,1,0,0:0:0:0:
224,192,7139,1,0,0:0:0:0:
160,192,7514,1,8,0:0:0:0:
416,192,7889,1,4,0:0:0:0:
288,192,8264,1,0,0:0:0:0:
96,192,8639,1,4,0:0:0:0:
224,192,9014,1,8,0:0:0:0:
480,192,9389,1,4,0:0:0:0:
352,192,9764,1,0,0:0:0:0:
32,192,10139,1,4,0:0:0:0:
32,192,10514,1,8,0:0:0:0:
288,192,10889,1,4,0:0:0:0:
352,192,11264,1,0,0:0:0:0:
224,192,11639,1,4,0:0:0:0:
32,192,12014,1,0,0:0:0:70:
32,192,12764,1,0,0:0:0:70:
32,192,13139,1,0,0:0:0:70:
32,192,13514,1,0,0:0:0:0:
352,192,13889,1,0,0:0:0:0:
480,192,14264,1,0,0:0:0:0:
96,192,14639,1,0,0:0:0:0:
224,192,15014,1,0,0:0:0:0:
416,192,15389,1,0,0:0:0:0:
288,192,15764,1,0,0:0:0:0:
160,192,16139,1,0,0:0:0:0:
352,192,16514,1,0,0:0:0:0:
224,192,16889,1,0,0:0:0:0:
416,192,17264,1,0,0:0:0:0:
288,192,17639,1,0,0:0:0:0:
96,192,18014,1,0,0:0:0:0:
480,192,18389,1,0,0:0:0:0:
288,192,18764,1,0,0:0:0:0:
32,192,19139,1,0,0:0:0:0:
480,192,19514,1,0,0:0:0:0:
224,192,19889,1,0,0:0:0:0:
352,192,20264,1,0,0:0:0:0:
96,192,20639,1,0,0:0:0:0:
288,192,21014,1,0,0:0:0:0:
160,192,21389,1,0,0:0:0:0:
416,192,21764,1,0,0:0:0:0:
224,192,22139,1,0,0:0:0:0:
480,192,22514,1,0,0:0:0:0:
288,192,22889,1,0,0:0:0:0:
96,192,23264,1,0,0:0:0:0:
352,192,23639,1,0,0:0:0:0:
32,192,24014,1,0,0:0:0:0:
32,192,25514,1,0,0:0:0:0:
352,192,25889,1,0,0:0:0:0:
96,192,26264,1,4,0:0:0:0:
224,192,26639,1,0,0:0:0:0:
32,192,27014,1,4,0:0:0:0:
352,192,27389,1,0,0:0:0:0:
288,192,27764,1,4,0:0:0:0:
224,192,28139,1,0,0:0:0:0:
32,192,28514,1,4,0:0:0:0:
160,192,28889,1,0,0:0:0:0:
288,192,29264,1,4,0:0:0:0:
416,192,29639,1,0,0:0:0:0:
32,192,30014,1,0,0:0:0:0:
32,192,30389,1,0,0:0:0:0:
32,192,30764,1,0,0:0:0:0:
32,192,31514,1,0,0:0:0:0:
160,192,31889,1,0,0:0:0:0:
352,192,32264,1,4,0:0:0:0:
416,192,32639,1,0,0:0:0:0:
32,192,33014,1,4,0:0:0:0:
288,192,33389,1,0,0:0:0:0:
96,192,33764,1,4,0:0:0:0:
480,192,34139,1,0,0:0:0:0:
32,192,34514,1,4,0:0:0:0:
352,192,34889,1,0,0:0:0:0:
160,192,35264,1,4,0:0:0:0:
288,192,35639,1,0,0:0:0:0:
480,192,36014,1,0,0:0:0:0:
32,192,36389,1,0,0:0:0:70:fx_synth04.wav
96,192,36764,1,0,0:0:0:0:
32,192,37139,1,0,0:0:0:0:
32,192,37514,1,8,0:0:0:0:
352,192,37514,1,0,0:0:0:0:
224,192,37889,1,4,0:0:0:0:
288,192,38264,1,0,0:0:0:0:
96,192,39014,1,8,0:0:0:0:
352,192,39389,1,4,0:0:0:0:
224,192,39764,1,0,0:0:0:0:
32,192,40139,1,4,0:0:0:0:
288,192,40514,1,8,0:0:0:0:
416,192,40889,1,4,0:0:0:0:
160,192,41264,1,0,0:0:0:0:
32,192,42014,1,0,0:0:0:0:
288,192,42389,1,0,0:0:0:0:
32,192,42764,1,0,0:0:0:0:
416,192,43514,1,8,0:0:0:0:
160,192,43889,1,4,0:0:0:0:
288,192,44264,1,0,0:0:0:0:
224,192,45014,1,8,0:0:0:0:
480,192,45389,1,4,0:0:0:0:
96,192,45764,1,0,0:0:0:0:
32,192,46139,1,4,0:0:0:0:
352,192,46514,1,8,0:0:0:0:
288,192,46889,1,4,0:0:0:0:
160,192,47264,1,0,0:0:0:0:
32,192,48014,1,0,0:0:0:0:
32,192,48764,1,0,0:0:0:0:
96,192,49514,1,8,0:0:0:0:
352,192,50076,1,0,0:0:0:0:
160,192,50826,1,0,0:0:0:0:
416,192,51201,1,8,0:0:0:0:
480,192,52514,1,8,0:0:0:0:
224,192,53076,1,0,0:0:0:0:
352,192,53826,1,0,0:0:0:0:
160,192,54201,1,8,0:0:0:0:
32,192,55139,1,0,0:0:0:0:
224,192,55514,1,8,0:0:0:0:
96,192,56076,1,0,0:0:0:0:
288,192,56826,1,0,0:0:0:0:
352,192,57201,1,8,0:0:0:0:
32,192,58514,1,8,0:0:0:0:
352,192,58514,1,0,0:0:0:0:
416,192,59076,1,0,0:0:0:0:
288,192,59826,1,0,0:0:0:0:
96,192,60014,1,2,0:0:0:0:
480,192,60389,1,0,0:0:0:0:
288,192,60764,128,0,61139:0:0:0:70:
32,192,61139,1,0,0:0:0:70:
32,192,61514,1,8,0:0:0:0:
416,192,61514,1,0,0:0:0:0:
224,192,61889,1,8,0:0:0:0:
288,192,62076,1,2,0:0:0:70:
352,192,62264,1,8,0:0:0:0:
96,192,62639,1,8,0:0:0:0:
224,192,62826,1,2,0:0:0:70:
416,192,63014,1,8,0:0:0:0:
352,192,63201,1,2,0:0:0:70:
160,192,63389,1,8,0:0:0:0:
288,192,63764,1,8,0:0:0:0:
480,192,64139,1,8,0:0:0:0:
352,192,64514,1,8,0:0:0:0:
96,192,64889,1,8,0:0:0:0:
288,192,65076,1,2,0:0:0:70:
224,192,65264,1,8,0:0:0:0:
416,192,65639,1,8,0:0:0:0:
288,192,65826,1,2,0:0:0:70:
352,192,66014,1,8,0:0:0:0:
224,192,66201,1,2,0:0:0:70:
160,192,66389,1,8,0:0:0:0:
480,192,66764,1,8,0:0:0:0:
32,192,67139,1,0,0:0:0:0:
416,192,67514,1,8,0:0:0:0:
96,192,67889,1,8,0:0:0:0:
160,192,68076,1,2,0:0:0:70:
288,192,68264,1,8,0:0:0:0:
224,192,68639,1,8,0:0:0:0:
416,192,68826,1,2,0:0:0:70:
352,192,69014,1,8,0:0:0:0:
96,192,69201,1,2,0:0:0:70:
160,192,69389,1,8,0:0:0:0:
480,192,69764,1,8,0:0:0:0:
416,192,70139,1,8,0:0:0:0:
96,192,70514,1,8,0:0:0:0:
224,192,70889,1,8,0:0:0:0:
352,192,71076,1,2,0:0:0:70:
416,192,71264,1,8,0:0:0:0:
288,192,71639,1,8,0:0:0:0:
224,192,71826,1,2,0:0:0:70:
32,192,72014,1,8,0:0:0:0:
32,192,72389,1,8,0:0:0:0:
32,192,72764,1,0,0:0:0:70:
160,192,73514,1,8,0:0:0:0:
352,192,73889,1,8,0:0:0:0:
288,192,74076,1,2,0:0:0:0:
224,192,74264,1,8,0:0:0:0:
480,192,74639,1,8,0:0:0:0:
352,192,74826,1,2,0:0:0:0:
160,192,75014,1,8,0:0:0:0:
224,192,75201,1,2,0:0:0:70:
416,192,75389,1,8,0:0:0:0:
288,192,75764,1,8,0:0:0:0:
96,192,76139,1,8,0:0:0:0:
224,192,76514,1,8,0:0:0:0:
480,192,76889,1,8,0:0:0:0:
288,192,77076,1,0,0:0:0:70:
352,192,77264,1,8,0:0:0:0:
160,192,77639,1,8,0:0:0:0:
288,192,77826,1,0,0:0:0:70:
32,192,78014,1,0,0:0:0:0:
32,192,78389,1,0,0:0:0:0:
32,192,78764,1,0,0:0:0:0:
160,192,79514,1,8,0:0:0:0:
480,192,79889,1,8,0:0:0:0:
416,192,80076,1,2,0:0:0:70:
288,192,80264,1,8,0:0:0:0:
352,192,80639,1,8,0:0:0:0:
160,192,80826,1,0,0:0:0:70:
224,192,81014,1,8,0:0:0:0:
480,192,81201,1,2,0:0:0:70:
416,192,81389,1,8,0:0:0:0:
96,192,81764,1,8,0:0:0:0:
160,192,82139,1,8,0:0:0:0:
480,192,82514,1,8,0:0:0:0:
352,192,82889,1,8,0:0:0:0:
224,192,83076,1,2,0:0:0:0:
160,192,83264,1,8,0:0:0:0:
288,192,83639,1,8,0:0:0:0:
352,192,83826,1,0,0:0:0:70:
96,192,84014,1,0,0:0:0:0:
224,192,84389,1,0,0:0:0:0:
352,192,84764,1,0,0:0:0:0:
416,192,85514,128,8,86264:0:0:0:0:
224,192,86264,128,0,87014:0:0:0:0:
160,192,87014,128,8,87764:0:0:0:0:
352,192,87764,128,0,88514:0:0:0:0:
480,192,88514,128,8,89264:0:0:0:0:
224,192,89264,128,0,90014:0:0:0:0:
352,192,90014,128,8,90764:0:0:0:0:
32,192,90764,128,4,91514:0:0:0:0:
288,192,91514,128,8,92264:0:0:0:0:
160,192,92264,128,0,93014:0:0:0:0:
96,192,93014,128,8,93764:0:0:0:0:
416,192,93764,128,0,94514:0:0:0:0:
480,192,94514,128,8,95264:0:0:0:0:
224,192,95264,128,0,96014:0:0:0:0:
32,192,96014,1,0,0:0:0:70:8bit2.wav
32,192,96764,1,0,0:0:0:70:
32,192,97139,1,0,0:0:0:70:
224,192,97514,1,8,0:0:0:0:
32,192,97514,1,0,0:0:0:0:
352,192,97889,1,8,0:0:0:0:
416,192,97889,1,4,0:0:0:0:
288,192,98264,1,8,0:0:0:0:
160,192,98639,1,4,0:0:0:0:
224,192,98639,1,8,0:0:0:0:
352,192,99014,1,8,0:0:0:0:
96,192,99389,1,4,0:0:0:0:
160,192,99389,1,8,0:0:0:0:
288,192,99764,1,8,0:0:0:0:
416,192,100139,1,4,0:0:0:0:
480,192,100139,1,8,0:0:0:0:
160,192,100514,1,8,0:0:0:0:
288,192,100889,1,8,0:0:0:0:
224,192,100889,1,4,0:0:0:0:
352,192,101264,1,8,0:0:0:0:
160,192,101639,1,8,0:0:0:0:
96,192,101639,1,4,0:0:0:0:
224,192,102014,1,0,0:0:0:0:
352,192,102389,1,0,0:0:0:0:
224,192,102764,1,0,0:0:0:0:
32,192,103139,128,0,103514:0:0:0:0:
288,192,103514,1,8,0:0:0:0:
480,192,103889,1,4,0:0:0:0:
352,192,103889,1,8,0:0:0:0:
224,192,104264,1,8,0:0:0:0:
160,192,104639,1,4,0:0:0:0:
288,192,104639,1,8,0:0:0:0:
352,192,105014,1,8,0:0:0:0:
416,192,105389,1,4,0:0:0:0:
96,192,105389,1,8,0:0:0:0:
160,192,105764,1,8,0:0:0:0:
224,192,106139,1,4,0:0:0:0:
352,192,106139,1,8,0:0:0:0:
480,192,106514,1,8,0:0:0:0:
416,192,106889,1,8,0:0:0:0:
160,192,106889,1,4,0:0:0:0:
288,192,107264,1,8,0:0:0:0:
352,192,107639,1,8,0:0:0:0:
96,192,107639,1,4,0:0:0:0:
32,192,108014,1,8,0:0:0:0:
32,192,108764,1,0,0:0:0:0:
32,192,109139,128,0,109514:0:0:0:0:
416,192,109514,1,8,0:0:0:0:
224,192,109889,1,4,0:0:0:0:
288,192,110076,1,0,0:0:0:70:
352,192,110264,1,8,0:0:0:0:
96,192,110639,1,8,0:0:0:0:
224,192,110826,1,0,0:0:0:70:
416,192,111014,1,8,0:0:0:0:
352,192,111201,1,0,0:0:0:70:
160,192,111389,1,8,0:0:0:0:
288,192,111764,1,8,0:0:0:0:
480,192,112139,1,8,0:0:0:0:
352,192,112514,1,8,0:0:0:0:
96,192,112889,1,4,0:0:0:0:
288,192,113076,1,0,0:0:0:70:
224,192,113264,1,8,0:0:0:0:
416,192,113639,1,4,0:0:0:0:
288,192,113826,1,0,0:0:0:70:
32,192,114014,1,8,0:0:0:0:
32,192,114389,1,0,0:0:0:0:
32,192,114764,1,0,0:0:0:0:
32,192,115139,1,0,0:0:0:0:
288,192,115514,1,8,0:0:0:0:
352,192,115889,1,4,0:0:0:0:
160,192,116264,1,0,0:0:0:0:
96,192,116639,1,4,0:0:0:0:
288,192,117014,1,8,0:0:0:0:
416,192,117389,1,4,0:0:0:0:
224,192,117764,1,0,0:0:0:0:
32,192,118139,1,4,0:0:0:0:
352,192,118514,1,8,0:0:0:0:
288,192,118889,1,4,0:0:0:0:
224,192,119264,1,8,0:0:0:0:
288,192,119639,1,4,0:0:0:0:
224,192,120014,128,8,120389:0:0:0:0:
352,192,120014,128,0,120389:0:0:0:0:
96,192,120389,128,8,120764:0:0:0:0:
480,192,120389,128,0,120764:0:0:0:0:
416,192,120764,128,8,121139:0:0:0:0:
160,192,120764,128,0,121139:0:0:0:0:
288,192,121139,128,8,121514:0:0:0:0:
32,192,121514,1,4,0:0:0:0:
