osu file format v14

[General]
AudioFilename: Absurd_Gaff.mp3
AudioLeadIn: 0
PreviewTime: 49352
Countdown: 0
SampleSet: Soft
StackLeniency: 0.7
Mode: 3
LetterboxInBreaks: 0
SpecialStyle: 0
WidescreenStoryboard: 1

[Editor]
DistanceSpacing: 1.2
BeatDivisor: 4
GridSize: 8
TimelineZoom: 1.499999

[Metadata]
Title:Absurd Gaff
TitleUnicode:Absurd Gaff
Artist:siromaru
ArtistUnicode:siromaru
Creator:-Kamikaze-
Version:9K Normal
Source:BMS
Tags:the of fighters 2008 resurrection bof2008 schranz _underjoy theziemniax ziemniak gekido- shxfted skalim tristan97 tornspirit frenzyli spoonguy paulmrm megative BillumMoto Janko MrDorian _Gezo_ Gezoda Nwolf zetera
BeatmapID:819573
BeatmapSetID:365073

[Difficulty]
HPDrainRate:8
CircleSize:9
OverallDifficulty:8
ApproachRate:5
SliderMultiplier:1.4
SliderTickRate:1

[Events]
//Background and Video events
0,0,"ms_title.jpg",0,0
Video,-592,"mentalstock_movie.avi"
//Break Periods
//Storyboard Layer 0 (Background)
//Storyboard Layer 1 (Fail)
//Storyboard Layer 2 (Pass)
//Storyboard Layer 3 (Foreground)
//Storyboard Sound Samples
Sample,10514,0,"8bit.wav",70

[TimingPoints]
14,375,4,1,1,60,1,0
13514,-100,4,2,1,60,0,0
37514,-100,4,1,1,60,0,0
49514,-100,4,1,1,60,0,1
61139,-100,4,2,1,60,0,0
61514,-100,4,3,1,60,0,1
85139,-100,4,2,1,60,0,0
85514,-100,4,1,1,60,0,0
97514,-100,4,3,1,60,0,1
115514,-100,4,1,1,60,0,0

[HitObjects]
256,192,1514,5,8,0:0:0:0:
199,192,1701,1,8,0:0:0:0:
142,192,1889,1,4,0:0:0:0:
369,192,1889,1,0,0:0:0:0:
199,192,2264,1,0,0:0:0:0:
256,192,2639,1,4,0:0:0:0:
85,192,2639,1,0,0:0:0:0:
312,192,3014,1,8,0:0:0:0:
369,192,3201,1,8,0:0:0:0:
426,192,3389,1,4,0:0:0:0:
142,192,3389,1,0,0:0:0:0:
256,192,3764,1,0,0:0:0:0:
483,192,4139,1,4,0:0:0:0:
426,192,4232,1,0,0:0:0:0:
28,192,4420,1,0,0:0:0:0:
85,192,4514,1,8,0:0:0:0:
369,192,4701,1,8,0:0:0:0:
199,192,4889,1,4,0:0:0:0:
312,192,4889,1,0,0:0:0:0:
483,192,5264,1,0,0:0:0:0:
256,192,5639,1,4,0:0:0:0:
142,192,5639,1,0,0:0:0:0:
28,192,6014,1,2,0:0:0:0:
483,192,6139,1,2,0:0:0:0:
142,192,6264,1,2,0:0:0:0:
312,192,6389,1,2,0:0:0:0:
256,192,6514,1,2,0:0:0:0:
199,192,6639,1,2,0:0:0:0:
369,192,6764,1,0,0:0:0:0:
426,192,7139,1,0,0:0:0:0:
28,192,7514,1,8,0:0:0:0:
483,192,7514,1,0,0:0:0:0:
142,192,7701,1,8,0:0:0:0:
256,192,7889,1,4,0:0:0:0:
312,192,7889,1,0,0:0:0:0:
85,192,8264,1,0,0:0:0:0:
199,192,8639,1,4,0:0:0:0:
369,192,8639,1,0,0:0:0:0:
312,192,9014,1,8,0:0:0:0:
142,192,9201,1,8,0:0:0:0:
256,192,9389,1,4,0:0:0:0:
426,192,9389,1,0,0:0:0:0:
483,192,9764,1,0,0:0:0:0:
369,192,10139,1,4,0:0:0:0:
312,192,10232,1,0,0:0:0:0:
142,192,10420,1,0,0:0:0:0:
256,192,10514,128,8,12014:0:0:0:0:
369,192,10701,1,8,0:0:0:0:
369,192,10889,1,4,0:0:0:0:
142,192,10889,1,0,0:0:0:0:
199,192,11264,1,0,0:0:0:0:
142,192,11639,1,4,0:0:0:0:
369,192,11639,1,0,0:0:0:0:
369,192,12014,128,0,12764:0:0:0:70:
142,192,12764,1,0,0:0:0:70:
142,192,13139,1,0,0:0:0:70:
142,192,13514,1,0,0:0:0:0:
312,192,13514,1,0,0:0:0:0:
199,192,13514,1,0,0:0:0:0:
256,192,13701,1,0,0:0:0:0:
369,192,13889,1,0,0:0:0:0:
483,192,13889,1,0,0:0:0:0:
312,192,14076,1,0,0:0:0:0:
85,192,14264,1,0,0:0:0:0:
142,192,14264,1,0,0:0:0:0:
199,192,14451,1,0,0:0:0:0:
312,192,14639,1,0,0:0:0:0:
426,192,14639,1,0,0:0:0:0:
256,192,14826,1,0,0:0:0:0:
142,192,15014,1,0,0:0:0:0:
199,192,15014,1,0,0:0:0:0:
28,192,15201,1,0,0:0:0:0:
369,192,15389,1,0,0:0:0:0:
483,192,15389,1,0,0:0:0:0:
256,192,15576,1,0,0:0:0:0:
28,192,15764,1,0,0:0:0:0:
85,192,15764,1,0,0:0:0:0:
199,192,15951,1,0,0:0:0:0:
483,192,16139,1,0,0:0:0:0:
312,192,16139,1,0,0:0:0:0:
256,192,16326,1,0,0:0:0:0:
85,192,16514,1,0,0:0:0:0:
142,192,16514,1,0,0:0:0:0:
199,192,16701,1,0,0:0:0:0:
312,192,16889,1,0,0:0:0:0:
426,192,16889,1,0,0:0:0:0:
256,192,17076,1,0,0:0:0:0:
199,192,17264,1,0,0:0:0:0:
142,192,17264,1,0,0:0:0:0:
85,192,17451,1,0,0:0:0:0:
483,192,17639,1,0,0:0:0:0:
369,192,17639,1,0,0:0:0:0:
312,192,17826,1,0,0:0:0:0:
28,192,18014,1,0,0:0:0:0:
85,192,18014,1,0,0:0:0:0:
142,192,18201,1,0,0:0:0:0:
483,192,18389,1,0,0:0:0:0:
312,192,18389,1,0,0:0:0:0:
256,192,18576,1,0,0:0:0:0:
199,192,18764,1,0,0:0:0:0:
142,192,18764,1,0,0:0:0:0:
369,192,18951,1,0,0:0:0:0:
256,192,19139,128,0,19514:0:0:0:0:
369,192,19514,1,0,0:0:0:0:
426,192,19514,1,0,0:0:0:0:
312,192,19701,1,0,0:0:0:0:
28,192,19889,1,0,0:0:0:0:
142,192,19889,1,0,0:0:0:0:
199,192,20076,1,0,0:0:0:0:
483,192,20264,1,0,0:0:0:0:
426,192,20264,1,0,0:0:0:0:
369,192,20451,1,0,0:0:0:0:
199,192,20639,1,0,0:0:0:0:
85,192,20639,1,0,0:0:0:0:
256,192,20826,1,0,0:0:0:0:
369,192,21014,1,0,0:0:0:0:
312,192,21014,1,0,0:0:0:0:
483,192,21201,1,0,0:0:0:0:
142,192,21389,1,0,0:0:0:0:
28,192,21389,1,0,0:0:0:0:
199,192,21576,1,0,0:0:0:0:
426,192,21764,1,0,0:0:0:0:
483,192,21764,1,0,0:0:0:0:
312,192,21951,1,0,0:0:0:0:
85,192,22139,1,0,0:0:0:0:
199,192,22139,1,0,0:0:0:0:
256,192,22326,1,0,0:0:0:0:
426,192,22514,1,0,0:0:0:0:
369,192,22514,1,0,0:0:0:0:
312,192,22701,1,0,0:0:0:0:
28,192,22889,1,0,0:0:0:0:
199,192,22889,1,0,0:0:0:0:
85,192,23076,1,0,0:0:0:0:
312,192,23264,1,0,0:0:0:0:
369,192,23264,1,0,0:0:0:0:
256,192,23451,1,0,0:0:0:0:
142,192,23639,1,0,0:0:0:0:
28,192,23639,1,0,0:0:0:0:
85,192,24014,128,0,24389:0:0:0:0:
199,192,24389,128,0,24764:0:0:0:0:
312,192,24764,128,0,25139:0:0:0:0:
426,192,25139,128,0,25514:0:0:0:0:
199,192,25514,1,0,0:0:0:0:
256,192,25514,1,0,0:0:0:0:
312,192,25514,1,0,0:0:0:0:
85,192,25701,1,0,0:0:0:0:
142,192,25889,1,0,0:0:0:0:
369,192,25889,1,0,0:0:0:0:
426,192,26076,1,0,0:0:0:0:
28,192,26264,1,4,0:0:0:0:
483,192,26264,1,0,0:0:0:0:
85,192,26451,1,0,0:0:0:0:
199,192,26639,1,0,0:0:0:0:
312,192,26639,1,0,0:0:0:0:
369,192,26826,1,0,0:0:0:0:
85,192,27014,1,4,0:0:0:0:
426,192,27014,1,0,0:0:0:0:
199,192,27201,1,0,0:0:0:0:
142,192,27389,1,0,0:0:0:0:
369,192,27389,1,0,0:0:0:0:
312,192,27576,1,0,0:0:0:0:
199,192,27764,1,4,0:0:0:0:
483,192,27764,1,0,0:0:0:0:
426,192,27951,1,0,0:0:0:0:
369,192,28139,1,0,0:0:0:0:
256,192,28139,1,0,0:0:0:0:
142,192,28326,1,0,0:0:0:0:
28,192,28514,1,4,0:0:0:0:
312,192,28514,1,0,0:0:0:0:
199,192,28701,1,0,0:0:0:0:
426,192,28889,1,0,0:0:0:0:
369,192,28889,1,0,0:0:0:0:
256,192,29076,1,0,0:0:0:0:
85,192,29264,1,4,0:0:0:0:
312,192,29264,1,0,0:0:0:0:
369,192,29451,1,0,0:0:0:0:
142,192,29639,1,0,0:0:0:0:
199,192,29639,1,0,0:0:0:0:
256,192,29826,1,0,0:0:0:0:
28,192,30014,1,0,0:0:0:0:
483,192,30014,1,0,0:0:0:0:
28,192,30389,1,0,0:0:0:0:
483,192,30389,1,0,0:0:0:0:
256,192,30764,1,0,0:0:0:0:
256,192,31139,1,0,0:0:0:0:
142,192,31514,1,0,0:0:0:0:
369,192,31514,1,0,0:0:0:0:
256,192,31701,1,0,0:0:0:0:
199,192,31889,1,0,0:0:0:0:
312,192,31889,1,0,0:0:0:0:
369,192,32076,1,0,0:0:0:0:
28,192,32264,1,4,0:0:0:0:
142,192,32264,1,0,0:0:0:0:
256,192,32451,1,0,0:0:0:0:
369,192,32639,1,0,0:0:0:0:
483,192,32639,1,0,0:0:0:0:
199,192,32826,1,0,0:0:0:0:
426,192,33014,1,4,0:0:0:0:
85,192,33014,1,0,0:0:0:0:
312,192,33201,1,0,0:0:0:0:
199,192,33389,1,0,0:0:0:0:
256,192,33389,1,0,0:0:0:0:
142,192,33576,1,0,0:0:0:0:
312,192,33764,1,4,0:0:0:0:
369,192,33764,1,0,0:0:0:0:
426,192,33951,1,0,0:0:0:0:
142,192,34139,1,0,0:0:0:0:
28,192,34139,1,0,0:0:0:0:
256,192,34326,1,0,0:0:0:0:
426,192,34514,1,4,0:0:0:0:
483,192,34514,1,0,0:0:0:0:
369,192,34701,1,0,0:0:0:0:
199,192,34889,1,0,0:0:0:0:
312,192,34889,1,0,0:0:0:0:
142,192,35076,1,0,0:0:0:0:
28,192,35264,1,4,0:0:0:0:
85,192,35264,1,0,0:0:0:0:
426,192,35451,1,0,0:0:0:0:
142,192,35639,1,0,0:0:0:0:
369,192,35639,1,0,0:0:0:0:
199,192,35826,1,0,0:0:0:0:
256,192,36014,1,0,0:0:0:0:
199,192,36389,128,0,36764:0:0:0:70:fx_synth04.wav
369,192,36764,1,0,0:0:0:0:
312,192,37139,1,0,0:0:0:0:
256,192,37514,5,8,0:0:0:0:
199,192,37701,1,8,0:0:0:0:
142,192,37889,1,4,0:0:0:0:
369,192,37889,1,0,0:0:0:0:
312,192,38264,1,0,0:0:0:0:
256,192,38639,1,4,0:0:0:0:
426,192,38639,1,0,0:0:0:0:
199,192,39014,1,8,0:0:0:0:
142,192,39201,1,8,0:0:0:0:
85,192,39389,1,4,0:0:0:0:
369,192,39389,1,0,0:0:0:0:
256,192,39764,1,0,0:0:0:0:
28,192,40139,1,4,0:0:0:0:
85,192,40232,1,0,0:0:0:0:
483,192,40420,1,0,0:0:0:0:
426,192,40514,1,8,0:0:0:0:
142,192,40701,1,8,0:0:0:0:
199,192,40889,1,4,0:0:0:0:
312,192,40889,1,0,0:0:0:0:
256,192,41264,1,0,0:0:0:0:
142,192,41639,1,4,0:0:0:0:
369,192,41639,1,0,0:0:0:0:
199,192,42014,128,0,42389:0:0:0:0:
369,192,42389,128,0,42764:0:0:0:0:
256,192,42764,128,0,43139:0:0:0:0:
142,192,43139,128,0,43514:0:0:0:0:
312,192,43514,5,8,0:0:0:0:
369,192,43701,1,8,0:0:0:0:
426,192,43889,1,4,0:0:0:0:
85,192,43889,1,0,0:0:0:0:
199,192,44264,1,0,0:0:0:0:
483,192,44639,1,4,0:0:0:0:
256,192,44639,1,0,0:0:0:0:
142,192,45014,1,8,0:0:0:0:
85,192,45201,1,8,0:0:0:0:
312,192,45389,1,4,0:0:0:0:
28,192,45389,1,0,0:0:0:0:
256,192,45764,1,0,0:0:0:0:
369,192,46139,1,4,0:0:0:0:
312,192,46232,1,0,0:0:0:0:
142,192,46420,1,0,0:0:0:0:
199,192,46514,1,8,0:0:0:0:
426,192,46701,1,8,0:0:0:0:
85,192,46889,1,4,0:0:0:0:
369,192,46889,1,0,0:0:0:0:
483,192,47264,1,0,0:0:0:0:
256,192,47639,1,4,0:0:0:0:
142,192,47639,1,0,0:0:0:0:
28,192,48014,1,0,0:0:0:0:
199,192,48764,128,0,49514:0:0:0:0:
312,192,49139,128,0,49514:0:0:0:0:
256,192,49514,128,8,49889:0:0:0:0:
369,192,50076,128,0,50451:0:0:0:0:
199,192,50826,1,0,0:0:0:0:
142,192,51201,1,8,0:0:0:0:
28,192,51389,128,4,52139:0:0:0:0:
199,192,52514,128,8,52889:0:0:0:0:
312,192,53076,128,0,53451:0:0:0:0:
256,192,53826,1,0,0:0:0:0:
369,192,54201,1,8,0:0:0:0:
483,192,54389,128,4,54951:0:0:0:0:
85,192,55139,1,0,0:0:0:0:
426,192,55514,128,8,55889:0:0:0:0:
142,192,56076,128,0,56451:0:0:0:0:
312,192,56826,1,0,0:0:0:0:
199,192,57201,1,8,0:0:0:0:
85,192,57389,128,4,57951:0:0:0:0:
256,192,58514,128,8,60014:0:0:0:0:
369,192,58514,128,0,58889:0:0:0:0:
28,192,59076,128,0,59451:0:0:0:0:
369,192,59826,1,0,0:0:0:0:
85,192,60014,1,2,0:0:0:0:
142,192,60139,1,2,0:0:0:0:
199,192,60264,1,2,0:0:0:0:
426,192,60389,1,0,0:0:0:0:
369,192,60514,1,0,0:0:0:0:
312,192,60639,1,0,0:0:0:0:
256,192,60764,128,0,61139:0:0:0:70:
142,192,61514,1,8,0:0:0:0:
369,192,61514,1,0,0:0:0:0:
312,192,61701,1,2,0:0:0:70:
199,192,61889,1,8,0:0:0:0:
483,192,61889,1,0,0:0:0:0:
256,192,62076,1,2,0:0:0:70:
312,192,62264,1,8,0:0:0:0:
85,192,62264,1,0,0:0:0:0:
142,192,62451,1,2,0:0:0:70:
199,192,62639,1,8,0:0:0:0:
483,192,62639,1,0,0:0:0:0:
426,192,62826,1,2,0:0:0:70:
369,192,63014,1,8,0:0:0:0:
28,192,63014,1,0,0:0:0:0:
85,192,63201,1,2,0:0:0:70:
142,192,63389,1,8,0:0:0:0:
312,192,63389,1,0,0:0:0:0:
256,192,63576,1,2,0:0:0:70:
369,192,63764,1,8,0:0:0:0:
483,192,63764,1,0,0:0:0:0:
199,192,63951,1,2,0:0:0:70:
312,192,64139,1,8,0:0:0:0:
426,192,64139,1,0,0:0:0:0:
142,192,64326,1,2,0:0:0:70:
369,192,64514,1,8,0:0:0:0:
256,192,64514,1,0,0:0:0:0:
85,192,64701,1,2,0:0:0:70:
483,192,64889,1,8,0:0:0:0:
142,192,64889,1,0,0:0:0:0:
28,192,65076,1,2,0:0:0:70:
312,192,65264,1,8,0:0:0:0:
199,192,65264,1,0,0:0:0:0:
483,192,65451,1,2,0:0:0:70:
256,192,65639,1,8,0:0:0:0:
142,192,65639,1,0,0:0:0:0:
426,192,65826,1,2,0:0:0:70:
369,192,66014,1,8,0:0:0:0:
85,192,66014,1,0,0:0:0:0:
199,192,66201,1,2,0:0:0:70:
312,192,66389,1,8,0:0:0:0:
28,192,66389,1,0,0:0:0:0:
426,192,66576,1,2,0:0:0:70:
256,192,66764,1,8,0:0:0:0:
142,192,66764,1,0,0:0:0:0:
369,192,66951,1,2,0:0:0:0:
85,192,67139,1,0,0:0:0:0:
199,192,67232,1,0,0:0:0:0:
312,192,67326,1,0,0:0:0:0:
426,192,67420,1,0,0:0:0:0:
28,192,67514,1,8,0:0:0:0:
142,192,67514,1,0,0:0:0:0:
256,192,67701,1,2,0:0:0:70:
483,192,67889,1,8,0:0:0:0:
369,192,67889,1,0,0:0:0:0:
312,192,68076,1,2,0:0:0:70:
199,192,68264,1,8,0:0:0:0:
85,192,68264,1,0,0:0:0:0:
426,192,68451,1,2,0:0:0:70:
256,192,68639,1,8,0:0:0:0:
369,192,68639,1,0,0:0:0:0:
28,192,68826,1,2,0:0:0:70:
142,192,69014,1,8,0:0:0:0:
199,192,69014,1,0,0:0:0:0:
312,192,69201,1,2,0:0:0:70:
483,192,69389,1,8,0:0:0:0:
426,192,69389,1,0,0:0:0:0:
85,192,69576,1,2,0:0:0:70:
256,192,69764,1,8,0:0:0:0:
369,192,69764,1,0,0:0:0:0:
199,192,69951,1,2,0:0:0:70:
28,192,70139,1,8,0:0:0:0:
142,192,70139,1,0,0:0:0:0:
312,192,70326,1,2,0:0:0:70:
483,192,70514,1,8,0:0:0:0:
256,192,70514,1,0,0:0:0:0:
426,192,70701,1,2,0:0:0:70:
369,192,70889,1,8,0:0:0:0:
85,192,70889,1,0,0:0:0:0:
142,192,71076,1,2,0:0:0:70:
199,192,71264,1,8,0:0:0:0:
312,192,71264,1,0,0:0:0:0:
28,192,71451,1,2,0:0:0:70:
142,192,71639,1,8,0:0:0:0:
256,192,71639,1,0,0:0:0:0:
369,192,71826,1,2,0:0:0:70:
483,192,72014,1,8,0:0:0:0:
483,192,72389,1,8,0:0:0:0:
142,192,72764,128,0,73326:0:0:0:70:
256,192,73514,1,8,0:0:0:0:
369,192,73514,1,0,0:0:0:0:
28,192,73889,1,8,0:0:0:0:
199,192,73889,1,0,0:0:0:0:
312,192,73889,1,0,0:0:0:0:
142,192,74264,1,8,0:0:0:0:
369,192,74264,1,0,0:0:0:0:
483,192,74639,1,8,0:0:0:0:
426,192,74639,1,0,0:0:0:0:
85,192,74639,1,0,0:0:0:0:
199,192,75014,1,8,0:0:0:0:
312,192,75014,1,0,0:0:0:0:
142,192,75389,1,8,0:0:0:0:
256,192,75389,1,0,0:0:0:0:
369,192,75389,1,0,0:0:0:0:
199,192,75764,1,8,0:0:0:0:
312,192,75764,1,0,0:0:0:0:
28,192,76139,1,8,0:0:0:0:
369,192,76139,1,0,0:0:0:0:
85,192,76232,1,0,0:0:0:0:
483,192,76420,1,0,0:0:0:0:
426,192,76514,1,8,0:0:0:0:
199,192,76514,1,0,0:0:0:0:
142,192,76889,1,8,0:0:0:0:
256,192,76889,1,0,0:0:0:0:
369,192,76889,1,0,0:0:0:0:
28,192,77264,1,8,0:0:0:0:
85,192,77264,1,0,0:0:0:0:
483,192,77639,1,8,0:0:0:0:
426,192,77639,1,0,0:0:0:0:
369,192,77639,1,0,0:0:0:0:
142,192,78014,128,0,78389:0:0:0:0:
256,192,78389,128,0,78764:0:0:0:0:
369,192,78764,128,0,79326:0:0:0:0:
28,192,79514,1,8,0:0:0:0:
142,192,79514,1,0,0:0:0:0:
199,192,79701,1,2,0:0:0:70:
256,192,79889,1,8,0:0:0:0:
426,192,79889,1,0,0:0:0:0:
369,192,80076,1,2,0:0:0:70:
312,192,80264,1,8,0:0:0:0:
142,192,80264,1,0,0:0:0:0:
85,192,80451,1,0,0:0:0:70:
28,192,80639,1,8,0:0:0:0:
256,192,80639,1,0,0:0:0:0:
312,192,80826,1,0,0:0:0:70:
369,192,81014,1,8,0:0:0:0:
199,192,81014,1,0,0:0:0:0:
256,192,81201,1,2,0:0:0:70:
312,192,81389,1,8,0:0:0:0:
483,192,81389,1,0,0:0:0:0:
426,192,81576,1,2,0:0:0:70:
369,192,81764,1,8,0:0:0:0:
85,192,81764,1,0,0:0:0:0:
142,192,81951,1,2,0:0:0:0:
199,192,82139,1,8,0:0:0:0:
312,192,82139,1,0,0:0:0:0:
369,192,82326,1,2,0:0:0:0:
426,192,82514,1,8,0:0:0:0:
28,192,82514,1,0,0:0:0:0:
85,192,82701,1,2,0:0:0:70:
142,192,82889,1,8,0:0:0:0:
312,192,82889,1,0,0:0:0:0:
256,192,83076,1,2,0:0:0:0:
199,192,83264,1,8,0:0:0:0:
369,192,83264,1,0,0:0:0:0:
426,192,83451,1,2,0:0:0:70:
483,192,83639,1,8,0:0:0:0:
256,192,83639,1,0,0:0:0:0:
142,192,83826,1,0,0:0:0:70:
28,192,84014,128,0,84389:0:0:0:0:
369,192,84389,128,0,84764:0:0:0:0:
256,192,84764,128,0,85139:0:0:0:0:
369,192,85514,1,8,0:0:0:0:
85,192,85514,1,0,0:0:0:0:
312,192,85701,1,8,0:0:0:0:
256,192,85889,1,4,0:0:0:0:
142,192,85889,1,0,0:0:0:0:
369,192,86264,1,0,0:0:0:0:
483,192,86264,1,0,0:0:0:0:
312,192,86639,1,4,0:0:0:0:
199,192,86826,1,0,0:0:0:0:
199,192,87014,1,8,0:0:0:0:
85,192,87014,1,0,0:0:0:0:
256,192,87201,1,8,0:0:0:0:
312,192,87389,1,4,0:0:0:0:
426,192,87389,1,0,0:0:0:0:
28,192,87764,1,0,0:0:0:0:
142,192,87764,1,0,0:0:0:0:
199,192,88139,1,4,0:0:0:0:
369,192,88232,1,0,0:0:0:0:
256,192,88420,1,0,0:0:0:0:
426,192,88514,1,8,0:0:0:0:
483,192,88514,1,0,0:0:0:0:
85,192,88514,1,0,0:0:0:0:
142,192,88701,1,8,0:0:0:0:
199,192,88889,1,4,0:0:0:0:
312,192,88889,1,0,0:0:0:0:
483,192,89264,1,0,0:0:0:0:
28,192,89264,1,0,0:0:0:0:
369,192,89451,1,0,0:0:0:0:
256,192,89639,1,4,0:0:0:0:
142,192,89639,1,0,0:0:0:0:
85,192,89826,1,0,0:0:0:0:
199,192,90014,1,8,0:0:0:0:
312,192,90201,1,8,0:0:0:0:
426,192,90389,1,0,0:0:0:0:
483,192,90389,1,0,0:0:0:0:
256,192,90576,1,0,0:0:0:0:
28,192,90764,128,4,91326:0:0:0:0:
312,192,91514,1,8,0:0:0:0:
199,192,91514,1,0,0:0:0:0:
369,192,91701,1,8,0:0:0:0:
426,192,91889,1,4,0:0:0:0:
483,192,91889,1,0,0:0:0:0:
142,192,92264,1,0,0:0:0:0:
256,192,92264,1,0,0:0:0:0:
85,192,92639,1,4,0:0:0:0:
199,192,92639,1,0,0:0:0:0:
369,192,92826,1,0,0:0:0:0:
369,192,93014,1,8,0:0:0:0:
28,192,93014,1,0,0:0:0:0:
312,192,93201,1,8,0:0:0:0:
256,192,93389,1,4,0:0:0:0:
483,192,93389,1,0,0:0:0:0:
426,192,93764,1,0,0:0:0:0:
369,192,93764,1,0,0:0:0:0:
28,192,94139,1,4,0:0:0:0:
142,192,94232,1,0,0:0:0:0:
483,192,94420,1,0,0:0:0:0:
369,192,94514,1,8,0:0:0:0:
256,192,94514,1,0,0:0:0:0:
199,192,94701,1,8,0:0:0:0:
426,192,94889,1,4,0:0:0:0:
312,192,94889,1,0,0:0:0:0:
28,192,95076,1,0,0:0:0:0:
85,192,95170,1,0,0:0:0:0:
142,192,95264,1,0,0:0:0:0:
483,192,95264,1,0,0:0:0:0:
426,192,95357,1,0,0:0:0:0:
369,192,95451,1,0,0:0:0:0:
312,192,95545,1,0,0:0:0:0:
256,192,95639,1,4,0:0:0:0:
28,192,95639,1,0,0:0:0:0:
142,192,95826,1,0,0:0:0:0:
199,192,95920,1,0,0:0:0:0:
256,192,96014,128,0,96764:0:0:0:70:8bit2.wav
142,192,96764,1,0,0:0:0:70:
369,192,96764,1,0,0:0:0:0:
199,192,97139,1,0,0:0:0:70:
312,192,97139,1,0,0:0:0:0:
142,192,97514,1,8,0:0:0:0:
369,192,97514,1,0,0:0:0:0:
256,192,97701,1,0,0:0:0:70:
199,192,97889,1,8,0:0:0:0:
483,192,97889,1,4,0:0:0:0:
85,192,97889,1,0,0:0:0:0:
369,192,98076,1,2,0:0:0:70:
256,192,98264,1,8,0:0:0:0:
142,192,98451,1,2,0:0:0:0:
28,192,98639,1,4,0:0:0:0:
199,192,98639,1,8,0:0:0:0:
426,192,98639,1,0,0:0:0:0:
483,192,98826,1,2,0:0:0:70:
312,192,99014,1,8,0:0:0:0:
85,192,99201,1,0,0:0:0:70:
142,192,99389,1,4,0:0:0:0:
256,192,99389,1,8,0:0:0:0:
369,192,99389,1,0,0:0:0:0:
312,192,99576,1,2,0:0:0:70:
28,192,99764,1,8,0:0:0:0:
199,192,99951,1,2,0:0:0:70:
312,192,100139,1,4,0:0:0:0:
483,192,100139,1,8,0:0:0:0:
426,192,100139,1,0,0:0:0:0:
85,192,100326,1,2,0:0:0:70:
142,192,100514,1,8,0:0:0:0:
256,192,100514,1,0,0:0:0:0:
369,192,100701,1,2,0:0:0:70:
312,192,100889,1,8,0:0:0:0:
199,192,100889,1,4,0:0:0:0:
28,192,100889,1,0,0:0:0:0:
426,192,101076,1,2,0:0:0:70:
256,192,101264,1,8,0:0:0:0:
483,192,101451,1,2,0:0:0:0:
85,192,101639,1,8,0:0:0:0:
142,192,101639,1,4,0:0:0:0:
199,192,101639,1,0,0:0:0:0:
256,192,101826,1,2,0:0:0:0:
483,192,102014,1,0,0:0:0:0:
426,192,102139,1,0,0:0:0:0:
369,192,102264,1,0,0:0:0:0:
28,192,102389,1,0,0:0:0:0:
85,192,102514,1,0,0:0:0:0:
142,192,102639,1,0,0:0:0:0:
312,192,102764,1,0,0:0:0:0:
199,192,102889,1,0,0:0:0:0:
256,192,103014,1,0,0:0:0:0:
142,192,103139,128,0,103514:0:0:0:0:
369,192,103139,128,0,103514:0:0:0:0:
256,192,103514,1,8,0:0:0:0:
426,192,103701,1,0,0:0:0:70:
312,192,103889,1,4,0:0:0:0:
28,192,103889,1,8,0:0:0:0:
85,192,103889,1,0,0:0:0:0:
199,192,104076,1,2,0:0:0:70:
312,192,104264,1,8,0:0:0:0:
426,192,104451,1,2,0:0:0:70:
483,192,104639,1,4,0:0:0:0:
85,192,104639,1,8,0:0:0:0:
256,192,104639,1,0,0:0:0:0:
369,192,104826,1,0,0:0:0:70:
199,192,105014,1,8,0:0:0:0:
369,192,105201,1,0,0:0:0:70:
28,192,105389,1,4,0:0:0:0:
256,192,105389,1,8,0:0:0:0:
142,192,105389,1,0,0:0:0:0:
483,192,105576,1,0,0:0:0:70:
312,192,105764,1,8,0:0:0:0:
28,192,105951,1,2,0:0:0:0:
142,192,106139,1,4,0:0:0:0:
369,192,106139,1,8,0:0:0:0:
199,192,106139,1,0,0:0:0:0:
256,192,106326,1,2,0:0:0:0:
85,192,106514,1,8,0:0:0:0:
312,192,106514,1,0,0:0:0:0:
483,192,106701,1,2,0:0:0:70:
426,192,106889,1,8,0:0:0:0:
256,192,106889,1,4,0:0:0:0:
369,192,106889,1,0,0:0:0:0:
28,192,107076,1,2,0:0:0:70:
142,192,107076,1,0,0:0:0:0:
199,192,107264,1,8,0:0:0:0:
312,192,107451,1,0,0:0:0:70:
85,192,107639,1,8,0:0:0:0:
256,192,107639,1,4,0:0:0:0:
369,192,107639,1,0,0:0:0:0:
483,192,107826,1,0,0:0:0:70:
142,192,108014,1,8,0:0:0:0:
28,192,108201,128,0,108764:0:0:0:0:
483,192,108389,128,0,108764:0:0:0:0:
256,192,108764,128,0,109139:0:0:0:0:
199,192,109139,128,0,109514:0:0:0:0:
312,192,109139,128,0,109514:0:0:0:0:
483,192,109514,1,8,0:0:0:0:
142,192,109889,1,4,0:0:0:0:
369,192,109889,1,8,0:0:0:0:
28,192,109889,1,0,0:0:0:0:
312,192,110076,1,0,0:0:0:70:
199,192,110264,1,8,0:0:0:0:
85,192,110264,1,0,0:0:0:0:
369,192,110639,1,8,0:0:0:0:
256,192,110639,1,4,0:0:0:0:
142,192,110639,1,0,0:0:0:0:
199,192,110826,1,0,0:0:0:70:
312,192,111014,1,8,0:0:0:0:
483,192,111014,1,0,0:0:0:0:
85,192,111201,1,0,0:0:0:70:
142,192,111389,1,8,0:0:0:0:
256,192,111389,1,4,0:0:0:0:
426,192,111389,1,0,0:0:0:0:
199,192,111764,1,8,0:0:0:0:
28,192,112139,1,8,0:0:0:0:
312,192,112139,1,4,0:0:0:0:
369,192,112139,1,0,0:0:0:0:
85,192,112514,1,8,0:0:0:0:
199,192,112514,1,0,0:0:0:0:
256,192,112889,1,4,0:0:0:0:
426,192,112889,1,8,0:0:0:0:
483,192,112889,1,0,0:0:0:0:
199,192,113076,1,0,0:0:0:70:
142,192,113264,1,8,0:0:0:0:
256,192,113639,1,4,0:0:0:0:
85,192,113639,1,8,0:0:0:0:
28,192,113639,1,0,0:0:0:0:
483,192,113826,1,0,0:0:0:70:
369,192,114201,1,0,0:0:0:0:
483,192,114389,1,0,0:0:0:0:
142,192,114389,128,0,114764:0:0:0:0:
256,192,114764,128,0,115139:0:0:0:0:
369,192,115139,128,0,115514:0:0:0:0:
199,192,115514,5,8,0:0:0:0:
142,192,115701,1,8,0:0:0:70:
85,192,115889,1,4,0:0:0:0:
426,192,115889,1,0,0:0:0:0:
312,192,116264,1,0,0:0:0:0:
483,192,116639,1,4,0:0:0:0:
199,192,116639,1,0,0:0:0:0:
28,192,117014,1,8,0:0:0:0:
85,192,117201,1,8,0:0:0:0:
142,192,117389,1,4,0:0:0:0:
369,192,117389,1,0,0:0:0:0:
256,192,117764,1,0,0:0:0:0:
28,192,118139,1,4,0:0:0:0:
312,192,118139,1,0,0:0:0:0:
85,192,118232,1,0,0:0:0:0:
483,192,118420,1,0,0:0:0:0:
426,192,118514,1,8,0:0:0:0:
256,192,118514,1,0,0:0:0:0:
142,192,118701,1,0,0:0:0:70:
199,192,118889,1,4,0:0:0:0:
312,192,118889,1,0,0:0:0:0:
483,192,119076,1,0,0:0:0:70:
426,192,119170,1,0,0:0:0:0:
369,192,119264,1,8,0:0:0:0:
28,192,119451,1,8,0:0:0:70:
85,192,119545,1,0,0:0:0:0:
142,192,119639,1,4,0:0:0:0:
483,192,119639,1,0,0:0:0:0:
369,192,119826,1,0,0:0:0:70:
312,192,119920,1,0,0:0:0:0:
256,192,120014,1,8,0:0:0:0:
483,192,120139,1,8,0:0:0:0:
142,192,120264,1,8,0:0:0:0:
369,192,120389,1,8,0:0:0:0:
199,192,120514,1,8,0:0:0:0:
312,192,120639,1,8,0:0:0:0:
142,192,120764,1,8,0:0:0:0:
369,192,120889,1,8,0:0:0:0:
256,192,121014,1,8,0:0:0:0:
199,192,121139,128,8,121514:0:0:0:0:
312,192,121139,128,0,121514:0:0:0:0:
85,192,121514,1,4,0:0:0:0:
426,192,121514,1,0,0:0:0:0:
