osu file format v14

[General]
AudioFilename: Absurd_Gaff.mp3
AudioLeadIn: 0
PreviewTime: 49352
Countdown: 0
SampleSet: Normal
StackLeniency: 0.7
Mode: 3
LetterboxInBreaks: 0
SpecialStyle: 1
WidescreenStoryboard: 1

[Editor]
DistanceSpacing: 1.2
BeatDivisor: 4
GridSize: 8
TimelineZoom: 1.3

[Metadata]
Title:Absurd Gaff
TitleUnicode:Absurd Gaff
Artist:siromaru
ArtistUnicode:siromaru
Creator:-Kamikaze-
Version:8K Normal
Source:BMS
Tags:the of fighters 2008 resurrection bof2008 schranz _underjoy theziemniax ziemniak gekido- shxfted skalim tristan97 tornspirit frenzyli spoonguy paulmrm megative BillumMoto Janko MrDorian _Gezo_ Gezoda Nwolf zetera
BeatmapID:801431
BeatmapSetID:365073

[Difficulty]
HPDrainRate:8
CircleSize:8
OverallDifficulty:8
ApproachRate:5
SliderMultiplier:1.4
SliderTickRate:1

[Events]
//Background and Video events
0,0,"ms_title.jpg",0,0
Video,-592,"mentalstock_movie.avi"
//Break Periods
//Storyboard Layer 0 (Background)
//Storyboard Layer 1 (Fail)
//Storyboard Layer 2 (Pass)
//Storyboard Layer 3 (Foreground)
//Storyboard Sound Samples

[TimingPoints]
14,375,4,1,1,60,1,0
13514,-100,4,2,1,60,0,0
37514,-100,4,1,1,60,0,0
49514,-100,4,1,1,60,0,1
61139,-100,4,2,1,60,0,0
61514,-100,4,3,1,60,0,1
85139,-100,4,2,1,60,0,0
85514,-100,4,1,1,60,0,0
97514,-100,4,3,1,60,0,1
115514,-100,4,1,1,60,0,0

[HitObjects]
96,192,1514,5,8,0:0:0:0:
160,192,1701,1,8,0:0:0:0:
352,192,1889,1,4,0:0:0:0:
224,192,1889,1,0,0:0:0:0:
416,192,2264,1,0,0:0:0:0:
288,192,2639,1,4,0:0:0:0:
160,192,2639,1,0,0:0:0:0:
480,192,3014,1,8,0:0:0:0:
416,192,3201,1,8,0:0:0:0:
352,192,3389,1,4,0:0:0:0:
224,192,3389,1,0,0:0:0:0:
96,192,3764,1,0,0:0:0:0:
416,192,4139,1,4,0:0:0:0:
352,192,4232,1,0,0:0:0:0:
160,192,4420,1,0,0:0:0:0:
224,192,4514,1,8,0:0:0:0:
352,192,4701,1,8,0:0:0:0:
288,192,4889,1,4,0:0:0:0:
96,192,4889,1,0,0:0:0:0:
416,192,5264,1,0,0:0:0:0:
480,192,5639,1,4,0:0:0:0:
352,192,5639,1,0,0:0:0:0:
96,192,6014,1,2,0:0:0:0:
224,192,6139,1,2,0:0:0:0:
352,192,6264,1,2,0:0:0:0:
480,192,6389,1,2,0:0:0:0:
160,192,6514,1,2,0:0:0:0:
288,192,6639,1,2,0:0:0:0:
416,192,6764,1,0,0:0:0:0:
224,192,7139,1,0,0:0:0:0:
32,192,7514,1,8,0:0:0:0:
96,192,7514,1,0,0:0:0:0:
352,192,7514,1,0,0:0:0:0:
416,192,7701,1,8,0:0:0:0:
480,192,7889,1,4,0:0:0:0:
160,192,7889,1,0,0:0:0:0:
288,192,8264,1,0,0:0:0:0:
224,192,8639,1,4,0:0:0:0:
352,192,8639,1,0,0:0:0:0:
160,192,9014,1,8,0:0:0:0:
288,192,9201,1,8,0:0:0:0:
416,192,9389,1,4,0:0:0:0:
480,192,9389,1,0,0:0:0:0:
96,192,9764,1,0,0:0:0:0:
160,192,10139,1,4,0:0:0:0:
416,192,10232,1,0,0:0:0:0:
224,192,10420,1,0,0:0:0:0:
352,192,10514,1,8,0:0:0:0:
32,192,10514,1,0,0:0:0:70:8bit.wav
480,192,10701,1,8,0:0:0:0:
288,192,10889,1,4,0:0:0:0:
96,192,10889,1,0,0:0:0:0:
224,192,11264,1,0,0:0:0:0:
160,192,11639,1,4,0:0:0:0:
416,192,11639,1,0,0:0:0:0:
32,192,12014,1,0,0:0:0:70:
32,192,12764,1,0,0:0:0:70:
32,192,13139,1,0,0:0:0:70:
32,192,13514,1,0,0:0:0:0:
96,192,13514,1,0,0:0:0:0:
480,192,13514,1,0,0:0:0:0:
224,192,13889,1,0,0:0:0:0:
352,192,13889,1,0,0:0:0:0:
160,192,14264,1,0,0:0:0:0:
416,192,14264,1,0,0:0:0:0:
288,192,14639,1,0,0:0:0:0:
96,192,14639,1,0,0:0:0:0:
224,192,15014,1,0,0:0:0:0:
480,192,15014,1,0,0:0:0:0:
416,192,15389,1,0,0:0:0:0:
160,192,15389,1,0,0:0:0:0:
224,192,15764,1,0,0:0:0:0:
352,192,15764,1,0,0:0:0:0:
96,192,16139,1,0,0:0:0:0:
416,192,16139,1,0,0:0:0:0:
160,192,16514,1,0,0:0:0:0:
480,192,16514,1,0,0:0:0:0:
352,192,16889,1,0,0:0:0:0:
288,192,16889,1,0,0:0:0:0:
96,192,17264,1,0,0:0:0:0:
160,192,17264,1,0,0:0:0:0:
416,192,17639,1,0,0:0:0:0:
480,192,17639,1,0,0:0:0:0:
224,192,18014,1,0,0:0:0:0:
352,192,18014,1,0,0:0:0:0:
96,192,18389,1,0,0:0:0:0:
288,192,18389,1,0,0:0:0:0:
160,192,18764,1,0,0:0:0:0:
416,192,18764,1,0,0:0:0:0:
32,192,19139,1,0,0:0:0:0:
288,192,19514,1,0,0:0:0:0:
224,192,19514,1,0,0:0:0:0:
480,192,19889,1,0,0:0:0:0:
416,192,19889,1,0,0:0:0:0:
96,192,20264,1,0,0:0:0:0:
160,192,20264,1,0,0:0:0:0:
352,192,20639,1,0,0:0:0:0:
224,192,20639,1,0,0:0:0:0:
480,192,21014,1,0,0:0:0:0:
416,192,21014,1,0,0:0:0:0:
96,192,21389,1,0,0:0:0:0:
288,192,21389,1,0,0:0:0:0:
160,192,21764,1,0,0:0:0:0:
416,192,21764,1,0,0:0:0:0:
224,192,22139,1,0,0:0:0:0:
352,192,22139,1,0,0:0:0:0:
96,192,22514,1,0,0:0:0:0:
480,192,22514,1,0,0:0:0:0:
160,192,22889,1,0,0:0:0:0:
416,192,22889,1,0,0:0:0:0:
288,192,23264,1,0,0:0:0:0:
352,192,23264,1,0,0:0:0:0:
96,192,23639,1,0,0:0:0:0:
224,192,23639,1,0,0:0:0:0:
32,192,24014,1,0,0:0:0:0:
480,192,24764,1,0,0:0:0:0:
288,192,25139,1,0,0:0:0:0:
32,192,25514,1,0,0:0:0:0:
96,192,25514,1,0,0:0:0:0:
480,192,25514,1,0,0:0:0:0:
224,192,25889,1,0,0:0:0:0:
352,192,25889,1,0,0:0:0:0:
416,192,26264,1,4,0:0:0:0:
32,192,26264,1,0,0:0:0:0:
288,192,26639,1,0,0:0:0:0:
160,192,26639,1,0,0:0:0:0:
480,192,27014,1,4,0:0:0:0:
32,192,27014,1,0,0:0:0:0:
224,192,27389,1,0,0:0:0:0:
352,192,27389,1,0,0:0:0:0:
32,192,27764,1,4,0:0:0:0:
416,192,27764,1,0,0:0:0:0:
288,192,28139,1,0,0:0:0:0:
96,192,28139,1,0,0:0:0:0:
32,192,28514,1,4,0:0:0:0:
224,192,28514,1,0,0:0:0:0:
160,192,28889,1,0,0:0:0:0:
480,192,28889,1,0,0:0:0:0:
32,192,29264,1,4,0:0:0:0:
352,192,29264,1,0,0:0:0:0:
224,192,29639,1,0,0:0:0:0:
416,192,29639,1,0,0:0:0:0:
32,192,30014,1,0,0:0:0:0:
96,192,30014,1,0,0:0:0:0:
32,192,30389,1,0,0:0:0:0:
96,192,30389,1,0,0:0:0:0:
32,192,30764,1,0,0:0:0:0:
160,192,31514,1,0,0:0:0:0:
352,192,31514,1,0,0:0:0:0:
224,192,31889,1,0,0:0:0:0:
288,192,31889,1,0,0:0:0:0:
32,192,32264,1,4,0:0:0:0:
416,192,32264,1,0,0:0:0:0:
352,192,32639,1,0,0:0:0:0:
160,192,32639,1,0,0:0:0:0:
32,192,33014,1,4,0:0:0:0:
288,192,33014,1,0,0:0:0:0:
160,192,33389,1,0,0:0:0:0:
480,192,33389,1,0,0:0:0:0:
352,192,33764,1,4,0:0:0:0:
32,192,33764,1,0,0:0:0:0:
96,192,34139,1,0,0:0:0:0:
288,192,34139,1,0,0:0:0:0:
416,192,34514,1,4,0:0:0:0:
32,192,34514,1,0,0:0:0:0:
160,192,34889,1,0,0:0:0:0:
352,192,34889,1,0,0:0:0:0:
224,192,35264,1,4,0:0:0:0:
32,192,35264,1,0,0:0:0:0:
96,192,35639,1,0,0:0:0:0:
480,192,35639,1,0,0:0:0:0:
288,192,36014,1,0,0:0:0:0:
32,192,36389,128,0,36764:0:0:0:70:fx_synth04.wav
32,192,37139,1,0,0:0:0:0:
160,192,37514,1,8,0:0:0:0:
224,192,37701,1,8,0:0:0:0:
288,192,37889,1,4,0:0:0:0:
352,192,37889,1,0,0:0:0:0:
416,192,38264,1,0,0:0:0:0:
352,192,38639,1,4,0:0:0:0:
96,192,39014,1,8,0:0:0:0:
160,192,39201,1,8,0:0:0:0:
224,192,39389,1,4,0:0:0:0:
288,192,39389,1,0,0:0:0:0:
352,192,39764,1,0,0:0:0:0:
480,192,40139,1,4,0:0:0:0:
416,192,40232,1,0,0:0:0:0:
96,192,40420,1,0,0:0:0:0:
160,192,40514,1,8,0:0:0:0:
224,192,40889,1,4,0:0:0:0:
352,192,40889,1,0,0:0:0:0:
288,192,41264,1,0,0:0:0:0:
416,192,41264,1,0,0:0:0:0:
352,192,41639,1,4,0:0:0:0:
480,192,41639,1,0,0:0:0:0:
32,192,42014,1,0,0:0:0:0:
32,192,42389,1,0,0:0:0:0:
32,192,42764,1,0,0:0:0:0:
32,192,43139,1,0,0:0:0:0:
288,192,43514,1,8,0:0:0:0:
160,192,43701,1,8,0:0:0:0:
416,192,43889,1,4,0:0:0:0:
480,192,43889,1,0,0:0:0:0:
224,192,44264,1,0,0:0:0:0:
352,192,44639,1,4,0:0:0:0:
480,192,45014,1,8,0:0:0:0:
288,192,45201,1,8,0:0:0:0:
96,192,45389,1,4,0:0:0:0:
160,192,45389,1,0,0:0:0:0:
352,192,45764,1,0,0:0:0:0:
288,192,46139,1,4,0:0:0:0:
416,192,46232,1,0,0:0:0:0:
160,192,46420,1,0,0:0:0:0:
288,192,46514,1,8,0:0:0:0:
352,192,46701,1,8,0:0:0:0:
224,192,46889,1,4,0:0:0:0:
96,192,46889,1,0,0:0:0:0:
160,192,47264,1,0,0:0:0:0:
480,192,47639,1,4,0:0:0:0:
288,192,47639,1,0,0:0:0:0:
32,192,48014,1,0,0:0:0:0:
160,192,48764,1,0,0:0:0:0:
224,192,48857,1,0,0:0:0:0:
288,192,48951,1,0,0:0:0:0:
352,192,49045,1,0,0:0:0:0:
416,192,49139,1,0,0:0:0:0:
96,192,49514,128,8,49889:0:0:0:0:
352,192,50076,128,0,50451:0:0:0:0:
160,192,50826,1,0,0:0:0:0:
416,192,51201,1,8,0:0:0:0:
288,192,51389,128,4,52139:0:0:0:0:
480,192,52514,128,8,52889:0:0:0:0:
224,192,53076,128,0,53451:0:0:0:0:
352,192,53826,1,0,0:0:0:0:
160,192,54201,1,8,0:0:0:0:
288,192,54389,128,4,54951:0:0:0:0:
32,192,55139,1,0,0:0:0:0:
224,192,55514,128,8,55889:0:0:0:0:
96,192,56076,128,0,56451:0:0:0:0:
288,192,56826,1,0,0:0:0:0:
352,192,57201,1,8,0:0:0:0:
480,192,57389,128,4,57951:0:0:0:0:
32,192,58514,1,8,0:0:0:0:
96,192,58514,128,0,58889:0:0:0:0:
352,192,58514,128,0,58889:0:0:0:0:
160,192,59076,128,0,59451:0:0:0:0:
416,192,59076,128,0,59451:0:0:0:0:
352,192,59826,1,0,0:0:0:0:
96,192,60014,1,2,0:0:0:0:
160,192,60139,1,2,0:0:0:0:
224,192,60264,1,2,0:0:0:0:
480,192,60389,1,0,0:0:0:0:
416,192,60514,1,0,0:0:0:0:
352,192,60639,1,0,0:0:0:0:
288,192,60764,128,0,61139:0:0:0:70:
32,192,61139,1,0,0:0:0:70:
160,192,61514,1,8,0:0:0:0:
416,192,61514,1,0,0:0:0:0:
352,192,61701,1,2,0:0:0:70:
224,192,61889,1,8,0:0:0:0:
480,192,61889,1,0,0:0:0:0:
288,192,62076,1,2,0:0:0:70:
96,192,62264,1,8,0:0:0:0:
352,192,62264,1,0,0:0:0:0:
160,192,62451,1,2,0:0:0:70:
480,192,62639,1,8,0:0:0:0:
224,192,62639,1,0,0:0:0:0:
416,192,62826,1,2,0:0:0:70:
160,192,63014,1,8,0:0:0:0:
352,192,63014,1,0,0:0:0:0:
224,192,63201,1,2,0:0:0:70:
288,192,63389,1,8,0:0:0:0:
96,192,63389,1,0,0:0:0:0:
480,192,63576,1,2,0:0:0:70:
352,192,63764,1,8,0:0:0:0:
224,192,63764,1,0,0:0:0:0:
96,192,63951,1,2,0:0:0:70:
288,192,64139,1,8,0:0:0:0:
416,192,64139,1,0,0:0:0:0:
160,192,64326,1,2,0:0:0:70:
352,192,64514,1,8,0:0:0:0:
480,192,64514,1,0,0:0:0:0:
288,192,64701,1,2,0:0:0:70:
224,192,64889,1,8,0:0:0:0:
96,192,64889,1,0,0:0:0:0:
288,192,65076,1,2,0:0:0:70:
352,192,65264,1,8,0:0:0:0:
480,192,65264,1,0,0:0:0:0:
96,192,65451,1,2,0:0:0:70:
160,192,65639,1,8,0:0:0:0:
224,192,65639,1,0,0:0:0:0:
480,192,65826,1,2,0:0:0:70:
416,192,66014,1,8,0:0:0:0:
352,192,66014,1,0,0:0:0:0:
160,192,66201,1,2,0:0:0:70:
288,192,66389,1,8,0:0:0:0:
480,192,66389,1,0,0:0:0:0:
224,192,66576,1,2,0:0:0:70:
96,192,66764,1,8,0:0:0:0:
352,192,66764,1,0,0:0:0:0:
416,192,66951,1,2,0:0:0:0:
32,192,67139,128,0,67514:0:0:0:0:
224,192,67514,1,8,0:0:0:0:
480,192,67514,1,0,0:0:0:0:
352,192,67701,1,2,0:0:0:70:
96,192,67889,1,8,0:0:0:0:
288,192,67889,1,0,0:0:0:0:
416,192,68076,1,2,0:0:0:70:
224,192,68264,1,8,0:0:0:0:
160,192,68264,1,0,0:0:0:0:
96,192,68451,1,2,0:0:0:70:
352,192,68639,1,8,0:0:0:0:
416,192,68639,1,0,0:0:0:0:
480,192,68826,1,2,0:0:0:70:
96,192,69014,1,8,0:0:0:0:
224,192,69014,1,0,0:0:0:0:
288,192,69201,1,2,0:0:0:70:
480,192,69389,1,8,0:0:0:0:
352,192,69389,1,0,0:0:0:0:
288,192,69576,1,2,0:0:0:70:
96,192,69764,1,8,0:0:0:0:
224,192,69764,1,0,0:0:0:0:
416,192,69951,1,2,0:0:0:70:
160,192,70139,1,8,0:0:0:0:
288,192,70139,1,0,0:0:0:0:
480,192,70326,1,2,0:0:0:70:
224,192,70514,1,8,0:0:0:0:
352,192,70514,1,0,0:0:0:0:
96,192,70701,1,2,0:0:0:70:
480,192,70889,1,8,0:0:0:0:
288,192,70889,1,0,0:0:0:0:
352,192,71076,1,2,0:0:0:70:
416,192,71264,1,8,0:0:0:0:
224,192,71264,1,0,0:0:0:0:
160,192,71451,1,2,0:0:0:70:
96,192,71639,1,8,0:0:0:0:
352,192,71639,1,0,0:0:0:0:
416,192,71826,1,2,0:0:0:70:
480,192,72014,128,8,72764:0:0:0:0:
96,192,72389,128,8,72764:0:0:0:0:
288,192,72764,128,0,73326:0:0:0:70:
32,192,73514,1,8,0:0:0:0:
224,192,73514,1,0,0:0:0:0:
160,192,73889,1,8,0:0:0:0:
352,192,73889,1,0,0:0:0:0:
416,192,73889,1,0,0:0:0:0:
96,192,74264,1,8,0:0:0:0:
288,192,74264,1,0,0:0:0:0:
224,192,74639,1,8,0:0:0:0:
480,192,74639,1,0,0:0:0:0:
352,192,74639,1,0,0:0:0:0:
160,192,75014,1,8,0:0:0:0:
288,192,75014,1,0,0:0:0:0:
96,192,75389,1,8,0:0:0:0:
352,192,75389,1,0,0:0:0:0:
416,192,75389,1,0,0:0:0:0:
224,192,75764,1,8,0:0:0:0:
160,192,75764,1,0,0:0:0:0:
480,192,76139,1,8,0:0:0:0:
160,192,76139,1,0,0:0:0:0:
352,192,76232,1,0,0:0:0:0:
224,192,76420,1,0,0:0:0:0:
32,192,76514,1,8,0:0:0:0:
96,192,76514,1,0,0:0:0:0:
416,192,76514,1,0,0:0:0:0:
160,192,76889,1,8,0:0:0:0:
480,192,76889,1,0,0:0:0:0:
224,192,76889,1,0,0:0:0:0:
416,192,77264,1,8,0:0:0:0:
352,192,77264,1,0,0:0:0:0:
96,192,77639,1,8,0:0:0:0:
288,192,77639,1,0,0:0:0:0:
480,192,77639,1,0,0:0:0:0:
160,192,78014,128,0,78389:0:0:0:0:
352,192,78389,128,0,79326:0:0:0:0:
224,192,78764,128,0,79326:0:0:0:0:
96,192,79514,1,8,0:0:0:0:
480,192,79514,1,0,0:0:0:0:
32,192,79514,1,0,0:0:0:0:
416,192,79701,1,2,0:0:0:70:
352,192,79889,1,8,0:0:0:0:
160,192,79889,1,0,0:0:0:0:
224,192,80076,1,2,0:0:0:70:
288,192,80264,1,8,0:0:0:0:
480,192,80264,1,0,0:0:0:0:
416,192,80451,1,0,0:0:0:70:
352,192,80639,1,8,0:0:0:0:
96,192,80639,1,0,0:0:0:0:
160,192,80826,1,0,0:0:0:70:
224,192,81014,1,8,0:0:0:0:
416,192,81014,1,0,0:0:0:0:
352,192,81201,1,2,0:0:0:70:
288,192,81389,1,8,0:0:0:0:
96,192,81389,1,0,0:0:0:0:
160,192,81576,1,2,0:0:0:70:
224,192,81764,1,8,0:0:0:0:
352,192,81764,1,0,0:0:0:0:
416,192,81951,1,2,0:0:0:0:
480,192,82139,1,8,0:0:0:0:
288,192,82139,1,0,0:0:0:0:
224,192,82326,1,2,0:0:0:0:
160,192,82514,1,8,0:0:0:0:
352,192,82514,1,0,0:0:0:0:
416,192,82701,1,2,0:0:0:70:
352,192,82889,1,8,0:0:0:0:
96,192,82889,1,0,0:0:0:0:
224,192,83076,1,2,0:0:0:0:
96,192,83264,1,8,0:0:0:0:
416,192,83264,1,0,0:0:0:0:
288,192,83451,1,2,0:0:0:70:
416,192,83639,1,8,0:0:0:0:
480,192,83639,1,0,0:0:0:0:
160,192,83826,1,0,0:0:0:70:
32,192,84014,1,0,0:0:0:0:
480,192,84389,128,0,84764:0:0:0:0:
224,192,84764,128,0,85139:0:0:0:0:
416,192,85514,1,8,0:0:0:0:
160,192,85701,1,8,0:0:0:0:
352,192,85889,1,4,0:0:0:0:
96,192,86076,1,0,0:0:0:0:
224,192,86170,1,0,0:0:0:0:
288,192,86264,1,0,0:0:0:0:
480,192,86357,1,0,0:0:0:0:
352,192,86451,1,0,0:0:0:0:
160,192,86639,1,4,0:0:0:0:
288,192,87014,1,8,0:0:0:0:
416,192,87201,1,8,0:0:0:0:
224,192,87389,1,4,0:0:0:0:
96,192,87576,1,0,0:0:0:0:
352,192,87670,1,0,0:0:0:0:
224,192,87764,1,0,0:0:0:0:
416,192,87857,1,0,0:0:0:0:
160,192,87951,1,0,0:0:0:0:
480,192,88139,1,4,0:0:0:0:
352,192,88232,1,0,0:0:0:0:
96,192,88420,1,0,0:0:0:0:
224,192,88514,1,8,0:0:0:0:
288,192,88701,1,8,0:0:0:0:
352,192,88889,1,4,0:0:0:0:
96,192,89076,1,0,0:0:0:0:
288,192,89170,1,0,0:0:0:0:
480,192,89264,1,0,0:0:0:0:
160,192,89357,1,0,0:0:0:0:
224,192,89451,1,0,0:0:0:0:
352,192,89545,1,0,0:0:0:0:
416,192,89639,1,4,0:0:0:0:
160,192,90014,1,8,0:0:0:0:
288,192,90201,1,8,0:0:0:0:
416,192,90389,1,0,0:0:0:0:
352,192,90576,1,0,0:0:0:0:
224,192,90670,1,0,0:0:0:0:
32,192,90764,128,4,91326:0:0:0:0:
160,192,91514,1,8,0:0:0:0:
416,192,91701,1,8,0:0:0:0:
224,192,91889,1,4,0:0:0:0:
480,192,92076,1,0,0:0:0:0:
352,192,92170,1,0,0:0:0:0:
96,192,92264,1,0,0:0:0:0:
160,192,92357,1,0,0:0:0:0:
224,192,92451,1,0,0:0:0:0:
416,192,92639,1,4,0:0:0:0:
288,192,93014,1,8,0:0:0:0:
160,192,93201,1,8,0:0:0:0:
352,192,93389,1,4,0:0:0:0:
480,192,93576,1,0,0:0:0:0:
224,192,93670,1,0,0:0:0:0:
352,192,93764,1,0,0:0:0:0:
160,192,93857,1,0,0:0:0:0:
416,192,93951,1,0,0:0:0:0:
96,192,94139,1,4,0:0:0:0:
224,192,94232,1,0,0:0:0:0:
480,192,94420,1,0,0:0:0:0:
352,192,94514,1,8,0:0:0:0:
160,192,94701,1,8,0:0:0:0:
288,192,94889,1,4,0:0:0:0:
96,192,95076,1,0,0:0:0:0:
416,192,95264,1,0,0:0:0:0:
352,192,95357,1,0,0:0:0:0:
288,192,95451,1,0,0:0:0:0:
224,192,95545,1,0,0:0:0:0:
160,192,95639,1,4,0:0:0:0:
32,192,96014,128,0,96764:0:0:0:70:8bit2.wav
288,192,96764,1,0,0:0:0:70:
32,192,97139,1,0,0:0:0:70:
160,192,97514,1,8,0:0:0:0:
416,192,97514,1,0,0:0:0:0:
224,192,97701,1,0,0:0:0:70:
32,192,97889,1,8,0:0:0:0:
352,192,97889,1,4,0:0:0:0:
96,192,97889,1,0,0:0:0:0:
288,192,98076,1,2,0:0:0:70:
224,192,98264,1,8,0:0:0:0:
480,192,98264,1,0,0:0:0:0:
416,192,98451,1,2,0:0:0:0:
96,192,98639,1,4,0:0:0:0:
352,192,98639,1,8,0:0:0:0:
160,192,98826,1,2,0:0:0:70:
224,192,99014,1,8,0:0:0:0:
416,192,99014,1,0,0:0:0:0:
352,192,99201,1,0,0:0:0:70:
288,192,99389,1,4,0:0:0:0:
480,192,99389,1,8,0:0:0:0:
32,192,99389,1,0,0:0:0:0:
416,192,99576,1,2,0:0:0:70:
352,192,99764,1,8,0:0:0:0:
224,192,99764,1,0,0:0:0:0:
160,192,99951,1,2,0:0:0:70:
480,192,100139,1,4,0:0:0:0:
96,192,100139,1,8,0:0:0:0:
352,192,100326,1,2,0:0:0:70:
224,192,100514,1,8,0:0:0:0:
96,192,100514,1,0,0:0:0:0:
288,192,100701,1,2,0:0:0:70:
480,192,100889,1,8,0:0:0:0:
352,192,100889,1,4,0:0:0:0:
32,192,100889,1,0,0:0:0:0:
288,192,101076,1,2,0:0:0:70:
224,192,101264,1,8,0:0:0:0:
96,192,101264,1,0,0:0:0:0:
352,192,101451,1,2,0:0:0:0:
480,192,101639,1,8,0:0:0:0:
416,192,101639,1,4,0:0:0:0:
288,192,101826,1,2,0:0:0:0:
96,192,102014,1,0,0:0:0:0:
224,192,102139,1,0,0:0:0:0:
352,192,102264,1,0,0:0:0:0:
160,192,102389,1,0,0:0:0:0:
288,192,102514,1,0,0:0:0:0:
416,192,102639,1,0,0:0:0:0:
224,192,102764,1,0,0:0:0:0:
352,192,102889,1,0,0:0:0:0:
480,192,103014,1,0,0:0:0:0:
32,192,103139,128,0,103420:0:0:0:0:
224,192,103514,1,8,0:0:0:0:
352,192,103514,1,0,0:0:0:0:
288,192,103701,1,0,0:0:0:70:
416,192,103889,1,4,0:0:0:0:
160,192,103889,1,8,0:0:0:0:
32,192,103889,1,0,0:0:0:0:
224,192,104076,1,2,0:0:0:70:
480,192,104264,1,8,0:0:0:0:
288,192,104264,1,0,0:0:0:0:
224,192,104451,1,2,0:0:0:70:
160,192,104639,1,4,0:0:0:0:
416,192,104639,1,8,0:0:0:0:
352,192,104826,1,0,0:0:0:70:
288,192,105014,1,8,0:0:0:0:
96,192,105014,1,0,0:0:0:0:
160,192,105201,1,0,0:0:0:70:
224,192,105389,1,4,0:0:0:0:
480,192,105389,1,8,0:0:0:0:
32,192,105389,1,0,0:0:0:0:
96,192,105576,1,0,0:0:0:70:
160,192,105764,1,8,0:0:0:0:
288,192,105764,1,0,0:0:0:0:
352,192,105951,1,2,0:0:0:0:
416,192,106139,1,4,0:0:0:0:
480,192,106139,1,8,0:0:0:0:
160,192,106326,1,2,0:0:0:0:
416,192,106514,1,8,0:0:0:0:
288,192,106514,1,0,0:0:0:0:
224,192,106701,1,2,0:0:0:70:
32,192,106889,1,8,0:0:0:0:
160,192,106889,1,4,0:0:0:0:
480,192,106889,1,0,0:0:0:0:
352,192,107076,1,2,0:0:0:70:
416,192,107264,1,8,0:0:0:0:
224,192,107264,1,0,0:0:0:0:
160,192,107451,1,0,0:0:0:70:
96,192,107639,1,8,0:0:0:0:
480,192,107639,1,4,0:0:0:0:
352,192,107826,1,0,0:0:0:70:
32,192,108014,1,8,0:0:0:0:
288,192,108201,128,0,108764:0:0:0:0:
160,192,108764,128,0,109514:0:0:0:0:
416,192,109139,128,0,109514:0:0:0:0:
352,192,109514,1,8,0:0:0:0:
224,192,109514,1,0,0:0:0:0:
288,192,109701,1,0,0:0:0:70:
32,192,109889,1,4,0:0:0:0:
160,192,109889,1,8,0:0:0:0:
416,192,109889,1,0,0:0:0:0:
224,192,110076,1,0,0:0:0:70:
288,192,110264,1,8,0:0:0:0:
480,192,110264,1,0,0:0:0:0:
224,192,110451,1,0,0:0:0:70:
160,192,110639,1,8,0:0:0:0:
416,192,110639,1,4,0:0:0:0:
352,192,110826,1,0,0:0:0:70:
288,192,111014,1,8,0:0:0:0:
96,192,111014,1,0,0:0:0:0:
160,192,111201,1,0,0:0:0:70:
32,192,111389,1,8,0:0:0:0:
224,192,111389,1,4,0:0:0:0:
480,192,111389,1,0,0:0:0:0:
96,192,111576,1,0,0:0:0:70:
160,192,111764,1,8,0:0:0:0:
288,192,111764,1,0,0:0:0:0:
352,192,111951,1,0,0:0:0:70:
416,192,112139,1,8,0:0:0:0:
480,192,112139,1,4,0:0:0:0:
160,192,112326,1,0,0:0:0:70:
288,192,112514,1,8,0:0:0:0:
416,192,112514,1,0,0:0:0:0:
224,192,112701,1,0,0:0:0:70:
32,192,112889,1,4,0:0:0:0:
480,192,112889,1,8,0:0:0:0:
160,192,112889,1,0,0:0:0:0:
352,192,113076,1,0,0:0:0:70:
224,192,113264,1,8,0:0:0:0:
416,192,113264,1,0,0:0:0:0:
160,192,113451,1,0,0:0:0:70:
96,192,113639,1,4,0:0:0:0:
480,192,113639,1,8,0:0:0:0:
352,192,113826,1,0,0:0:0:70:
32,192,114014,1,8,0:0:0:0:
224,192,114201,128,0,114764:0:0:0:0:
352,192,114764,128,0,115139:0:0:0:0:
96,192,115139,128,0,115514:0:0:0:0:
224,192,115514,1,8,0:0:0:0:
416,192,115701,1,8,0:0:0:70:
160,192,115889,1,4,0:0:0:0:
352,192,116076,1,0,0:0:0:70:
224,192,116170,1,0,0:0:0:0:
416,192,116264,1,0,0:0:0:0:
160,192,116357,1,0,0:0:0:0:
288,192,116451,1,0,0:0:0:70:
480,192,116639,1,4,0:0:0:0:
96,192,117014,1,8,0:0:0:0:
224,192,117201,1,8,0:0:0:0:
352,192,117389,1,4,0:0:0:0:
160,192,117576,1,0,0:0:0:70:
352,192,117670,1,0,0:0:0:0:
224,192,117764,1,0,0:0:0:0:
416,192,117857,1,0,0:0:0:0:
288,192,117951,1,0,0:0:0:70:
96,192,118139,1,4,0:0:0:0:
224,192,118232,1,0,0:0:0:0:
480,192,118420,1,0,0:0:0:0:
352,192,118514,1,8,0:0:0:0:
32,192,118514,1,0,0:0:0:0:
288,192,118889,1,4,0:0:0:0:
32,192,119264,1,8,0:0:0:0:
224,192,119264,1,0,0:0:0:0:
288,192,119639,1,4,0:0:0:0:
96,192,120014,1,8,0:0:0:0:
480,192,120139,1,8,0:0:0:0:
160,192,120264,1,8,0:0:0:0:
416,192,120389,1,8,0:0:0:0:
224,192,120514,1,8,0:0:0:0:
352,192,120639,1,8,0:0:0:0:
160,192,120764,1,8,0:0:0:0:
416,192,120889,1,8,0:0:0:0:
288,192,121014,1,8,0:0:0:0:
224,192,121139,128,8,121514:0:0:0:0:
352,192,121139,128,0,121514:0:0:0:0:
32,192,121514,1,4,0:0:0:0:
