osu file format v14

[General]
AudioFilename: Absurd_Gaff.mp3
AudioLeadIn: 0
PreviewTime: 49352
Countdown: 0
SampleSet: Normal
StackLeniency: 0.7
Mode: 3
LetterboxInBreaks: 0
SpecialStyle: 1
WidescreenStoryboard: 1

[Editor]
DistanceSpacing: 1.2
BeatDivisor: 4
GridSize: 8
TimelineZoom: 1.6

[Metadata]
Title:Absurd Gaff
TitleUnicode:Absurd Gaff
Artist:siromaru
ArtistUnicode:siromaru
Creator:-Kamikaze-
Version:8K Hyper
Source:BMS
Tags:the of fighters 2008 resurrection bof2008 schranz _underjoy theziemniax ziemniak gekido- shxfted skalim tristan97 tornspirit frenzyli spoonguy paulmrm megative BillumMoto Janko MrDorian _Gezo_ Gezoda Nwolf zetera
BeatmapID:803157
BeatmapSetID:365073

[Difficulty]
HPDrainRate:8
CircleSize:8
OverallDifficulty:8
ApproachRate:5
SliderMultiplier:1.4
SliderTickRate:1

[Events]
//Background and Video events
0,0,"ms_title.jpg",0,0
Video,-592,"mentalstock_movie.avi"
//Break Periods
//Storyboard Layer 0 (Background)
//Storyboard Layer 1 (Fail)
//Storyboard Layer 2 (Pass)
//Storyboard Layer 3 (Foreground)
//Storyboard Sound Samples

[TimingPoints]
14,375,4,1,1,60,1,0
13514,-100,4,2,1,60,0,0
37514,-100,4,1,1,60,0,0
49514,-100,4,1,1,60,0,1
61139,-100,4,2,1,60,0,0
61514,-100,4,3,1,60,0,1
85139,-100,4,2,1,60,0,0
85514,-100,4,1,1,60,0,0
97514,-100,4,3,1,60,0,1
115514,-100,4,1,1,60,0,0

[HitObjects]
96,192,1514,5,8,0:0:0:0:
96,192,1701,1,8,0:0:0:0:
224,192,1889,1,4,0:0:0:0:
352,192,1889,1,0,0:0:0:0:
416,192,2076,1,0,0:0:0:0:
288,192,2170,1,0,0:0:0:0:
160,192,2264,1,0,0:0:0:0:
96,192,2264,1,0,0:0:0:0:
352,192,2357,1,0,0:0:0:0:
224,192,2451,1,0,0:0:0:0:
480,192,2639,1,4,0:0:0:0:
416,192,2639,1,0,0:0:0:0:
160,192,2826,1,0,0:0:0:0:
224,192,2920,1,0,0:0:0:0:
352,192,3014,1,8,0:0:0:0:
352,192,3201,1,8,0:0:0:0:
96,192,3389,1,4,0:0:0:0:
288,192,3389,1,0,0:0:0:0:
416,192,3576,1,0,0:0:0:0:
224,192,3670,1,0,0:0:0:0:
352,192,3764,1,0,0:0:0:0:
480,192,3764,1,0,0:0:0:0:
160,192,3857,1,0,0:0:0:0:
288,192,3951,1,0,0:0:0:0:
416,192,4139,1,4,0:0:0:0:
352,192,4232,1,0,0:0:0:0:
96,192,4420,1,0,0:0:0:0:
160,192,4514,1,8,0:0:0:0:
288,192,4514,1,0,0:0:0:0:
288,192,4701,1,8,0:0:0:0:
416,192,4889,1,4,0:0:0:0:
480,192,4889,1,0,0:0:0:0:
352,192,5076,1,0,0:0:0:0:
224,192,5170,1,0,0:0:0:0:
96,192,5264,1,0,0:0:0:0:
480,192,5264,1,0,0:0:0:0:
224,192,5357,1,0,0:0:0:0:
352,192,5451,1,0,0:0:0:0:
224,192,5545,1,0,0:0:0:0:
96,192,5639,1,4,0:0:0:0:
480,192,5639,1,0,0:0:0:0:
416,192,5826,1,0,0:0:0:0:
288,192,5920,1,0,0:0:0:0:
160,192,6014,1,2,0:0:0:0:
160,192,6139,1,2,0:0:0:0:
160,192,6264,1,2,0:0:0:0:
352,192,6389,1,2,0:0:0:0:
480,192,6389,1,0,0:0:0:0:
352,192,6514,1,2,0:0:0:0:
352,192,6639,1,2,0:0:0:0:
96,192,6764,1,0,0:0:0:0:
288,192,6764,1,0,0:0:0:0:
224,192,6857,1,2,0:0:0:0:
416,192,6951,1,2,0:0:0:0:
480,192,6951,1,0,0:0:0:0:
288,192,7045,1,0,0:0:0:0:
160,192,7139,1,0,0:0:0:0:
96,192,7139,1,0,0:0:0:0:
224,192,7326,1,0,0:0:0:0:
352,192,7420,1,0,0:0:0:0:
32,192,7514,1,8,0:0:0:0:
480,192,7514,1,0,0:0:0:0:
480,192,7701,1,8,0:0:0:0:
160,192,7889,1,4,0:0:0:0:
288,192,7889,1,0,0:0:0:0:
416,192,8076,1,0,0:0:0:0:
352,192,8170,1,0,0:0:0:0:
96,192,8264,1,0,0:0:0:0:
288,192,8264,1,0,0:0:0:0:
160,192,8357,1,0,0:0:0:0:
224,192,8451,1,0,0:0:0:0:
288,192,8545,1,0,0:0:0:0:
352,192,8639,1,4,0:0:0:0:
480,192,8639,1,0,0:0:0:0:
160,192,8826,1,0,0:0:0:0:
224,192,8920,1,0,0:0:0:0:
288,192,9014,1,8,0:0:0:0:
288,192,9201,1,8,0:0:0:0:
416,192,9389,1,4,0:0:0:0:
352,192,9389,1,0,0:0:0:0:
224,192,9576,1,0,0:0:0:0:
160,192,9670,1,0,0:0:0:0:
96,192,9764,1,0,0:0:0:0:
352,192,9764,1,0,0:0:0:0:
416,192,9857,1,0,0:0:0:0:
480,192,9951,1,0,0:0:0:0:
160,192,10139,1,4,0:0:0:0:
416,192,10232,1,0,0:0:0:0:
352,192,10420,1,0,0:0:0:0:
32,192,10514,1,8,0:0:0:0:
224,192,10514,1,0,0:0:0:70:8bit.wav
96,192,10514,1,0,0:0:0:0:
96,192,10701,1,8,0:0:0:0:
288,192,10889,1,4,0:0:0:0:
416,192,10889,1,0,0:0:0:0:
160,192,11076,1,0,0:0:0:0:
224,192,11170,1,0,0:0:0:0:
352,192,11264,1,0,0:0:0:0:
96,192,11264,1,0,0:0:0:0:
416,192,11357,1,0,0:0:0:0:
224,192,11451,1,0,0:0:0:0:
288,192,11545,1,0,0:0:0:0:
352,192,11639,1,4,0:0:0:0:
480,192,11639,1,0,0:0:0:0:
160,192,11826,1,0,0:0:0:0:
96,192,11920,1,0,0:0:0:0:
32,192,12014,128,0,12764:0:0:0:70:
224,192,12764,1,0,0:0:0:70:
352,192,12764,1,0,0:0:0:0:
416,192,12857,1,0,0:0:0:0:
352,192,12951,1,0,0:0:0:0:
416,192,13045,1,0,0:0:0:0:
160,192,13139,1,0,0:0:0:70:
352,192,13139,1,0,0:0:0:0:
224,192,13232,1,0,0:0:0:0:
160,192,13326,1,0,0:0:0:0:
224,192,13420,1,0,0:0:0:0:
288,192,13514,1,0,0:0:0:0:
32,192,13514,1,0,0:0:0:0:
96,192,13514,1,0,0:0:0:0:
480,192,13514,1,0,0:0:0:0:
416,192,13701,1,8,0:0:0:0:
352,192,13795,1,0,0:0:0:0:
96,192,13889,1,0,0:0:0:0:
288,192,13889,1,0,0:0:0:0:
224,192,13982,1,0,0:0:0:0:
160,192,14076,1,8,0:0:0:0:
224,192,14170,1,0,0:0:0:0:
288,192,14264,1,0,0:0:0:0:
480,192,14264,1,0,0:0:0:0:
416,192,14357,1,0,0:0:0:0:
352,192,14451,1,8,0:0:0:0:
224,192,14545,1,0,0:0:0:0:
96,192,14639,1,0,0:0:0:0:
480,192,14639,1,0,0:0:0:0:
160,192,14732,1,0,0:0:0:0:
224,192,14826,1,8,0:0:0:0:
352,192,14920,1,0,0:0:0:0:
480,192,15014,1,0,0:0:0:0:
96,192,15014,1,0,0:0:0:0:
288,192,15107,1,0,0:0:0:0:
224,192,15201,1,8,0:0:0:0:
352,192,15295,1,0,0:0:0:0:
160,192,15389,1,0,0:0:0:0:
416,192,15389,1,0,0:0:0:0:
288,192,15482,1,0,0:0:0:0:
352,192,15576,1,8,0:0:0:0:
224,192,15670,1,0,0:0:0:0:
96,192,15764,1,0,0:0:0:0:
480,192,15764,1,0,0:0:0:0:
416,192,15857,1,0,0:0:0:0:
288,192,15951,1,8,0:0:0:0:
160,192,16045,1,0,0:0:0:0:
96,192,16139,1,0,0:0:0:0:
352,192,16139,1,0,0:0:0:0:
480,192,16232,1,0,0:0:0:0:
352,192,16326,1,8,0:0:0:0:
224,192,16420,1,0,0:0:0:0:
96,192,16514,1,0,0:0:0:0:
416,192,16514,1,0,0:0:0:0:
288,192,16607,1,0,0:0:0:0:
352,192,16701,1,8,0:0:0:0:
416,192,16795,1,0,0:0:0:0:
480,192,16889,1,0,0:0:0:0:
224,192,16889,1,0,0:0:0:0:
288,192,16982,1,0,0:0:0:0:
352,192,17076,1,8,0:0:0:0:
160,192,17170,1,0,0:0:0:0:
96,192,17264,1,0,0:0:0:0:
416,192,17264,1,0,0:0:0:0:
352,192,17357,1,0,0:0:0:0:
288,192,17451,1,8,0:0:0:0:
96,192,17545,1,0,0:0:0:0:
160,192,17639,1,0,0:0:0:0:
480,192,17639,1,0,0:0:0:0:
224,192,17732,1,0,0:0:0:0:
288,192,17826,1,8,0:0:0:0:
416,192,17920,1,0,0:0:0:0:
352,192,18014,1,0,0:0:0:0:
96,192,18014,1,0,0:0:0:0:
288,192,18107,1,0,0:0:0:0:
224,192,18201,1,8,0:0:0:0:
160,192,18295,1,0,0:0:0:0:
288,192,18389,1,0,0:0:0:0:
480,192,18389,1,0,0:0:0:0:
416,192,18482,1,0,0:0:0:0:
352,192,18576,1,8,0:0:0:0:
416,192,18670,1,0,0:0:0:0:
96,192,18764,1,0,0:0:0:0:
480,192,18764,1,0,0:0:0:0:
224,192,18857,1,0,0:0:0:0:
352,192,18951,1,8,0:0:0:0:
224,192,19045,1,0,0:0:0:0:
32,192,19139,128,0,19420:0:0:0:0:
480,192,19514,1,0,0:0:0:0:
288,192,19514,1,0,0:0:0:0:
160,192,19607,1,0,0:0:0:0:
96,192,19701,1,8,0:0:0:0:
160,192,19795,1,0,0:0:0:0:
480,192,19889,1,0,0:0:0:0:
288,192,19889,1,0,0:0:0:0:
416,192,19982,1,0,0:0:0:0:
352,192,20076,1,8,0:0:0:0:
224,192,20170,1,0,0:0:0:0:
96,192,20264,1,0,0:0:0:0:
288,192,20264,1,0,0:0:0:0:
224,192,20357,1,0,0:0:0:0:
352,192,20451,1,8,0:0:0:0:
416,192,20545,1,0,0:0:0:0:
480,192,20639,1,0,0:0:0:0:
96,192,20639,1,0,0:0:0:0:
416,192,20732,1,0,0:0:0:0:
352,192,20826,1,8,0:0:0:0:
224,192,20920,1,0,0:0:0:0:
480,192,21014,1,0,0:0:0:0:
96,192,21014,1,0,0:0:0:0:
288,192,21107,1,0,0:0:0:0:
352,192,21201,1,8,0:0:0:0:
224,192,21295,1,0,0:0:0:0:
160,192,21389,1,0,0:0:0:0:
416,192,21389,1,0,0:0:0:0:
288,192,21482,1,0,0:0:0:0:
224,192,21576,1,8,0:0:0:0:
352,192,21670,1,0,0:0:0:0:
480,192,21764,1,0,0:0:0:0:
96,192,21764,1,0,0:0:0:0:
160,192,21857,1,0,0:0:0:0:
288,192,21951,1,8,0:0:0:0:
416,192,22045,1,0,0:0:0:0:
480,192,22139,1,0,0:0:0:0:
224,192,22139,1,0,0:0:0:0:
96,192,22232,1,0,0:0:0:0:
224,192,22326,1,8,0:0:0:0:
352,192,22420,1,0,0:0:0:0:
480,192,22514,1,0,0:0:0:0:
160,192,22514,1,0,0:0:0:0:
288,192,22607,1,0,0:0:0:0:
224,192,22701,1,8,0:0:0:0:
160,192,22795,1,0,0:0:0:0:
352,192,22889,1,0,0:0:0:0:
96,192,22889,1,0,0:0:0:0:
288,192,22982,1,0,0:0:0:0:
224,192,23076,1,8,0:0:0:0:
416,192,23170,1,0,0:0:0:0:
480,192,23264,1,0,0:0:0:0:
160,192,23264,1,0,0:0:0:0:
224,192,23357,1,0,0:0:0:0:
288,192,23451,1,8,0:0:0:0:
480,192,23545,1,0,0:0:0:0:
96,192,23639,1,0,0:0:0:0:
416,192,23639,1,0,0:0:0:0:
352,192,23732,1,0,0:0:0:0:
288,192,23826,1,8,0:0:0:0:
160,192,23920,1,0,0:0:0:0:
480,192,24014,128,0,25514:0:0:0:0:
352,192,24389,128,0,25514:0:0:0:0:
224,192,24764,128,0,25514:0:0:0:0:
96,192,25139,128,0,25514:0:0:0:0:
32,192,25514,1,0,0:0:0:0:
416,192,25701,1,8,0:0:0:0:
288,192,25795,1,0,0:0:0:0:
96,192,25889,1,0,0:0:0:0:
224,192,25889,1,0,0:0:0:0:
352,192,25982,1,0,0:0:0:0:
480,192,26076,1,8,0:0:0:0:
224,192,26170,1,0,0:0:0:0:
416,192,26264,1,4,0:0:0:0:
32,192,26264,1,0,0:0:0:0:
352,192,26357,1,0,0:0:0:0:
288,192,26451,1,8,0:0:0:0:
96,192,26545,1,0,0:0:0:0:
224,192,26639,1,0,0:0:0:0:
480,192,26639,1,0,0:0:0:0:
416,192,26732,1,0,0:0:0:0:
288,192,26826,1,8,0:0:0:0:
160,192,26920,1,0,0:0:0:0:
352,192,27014,1,4,0:0:0:0:
32,192,27014,1,0,0:0:0:0:
416,192,27107,1,0,0:0:0:0:
224,192,27201,1,8,0:0:0:0:
160,192,27295,1,0,0:0:0:0:
352,192,27389,1,0,0:0:0:0:
480,192,27389,1,0,0:0:0:0:
96,192,27482,1,0,0:0:0:0:
288,192,27576,1,8,0:0:0:0:
160,192,27670,1,0,0:0:0:0:
352,192,27764,1,4,0:0:0:0:
32,192,27764,1,0,0:0:0:0:
416,192,27857,1,0,0:0:0:0:
480,192,27951,1,8,0:0:0:0:
224,192,28045,1,0,0:0:0:0:
160,192,28139,1,0,0:0:0:0:
352,192,28139,1,0,0:0:0:0:
96,192,28232,1,0,0:0:0:0:
288,192,28326,1,8,0:0:0:0:
416,192,28420,1,0,0:0:0:0:
224,192,28514,1,4,0:0:0:0:
32,192,28514,1,0,0:0:0:0:
352,192,28607,1,0,0:0:0:0:
480,192,28701,1,8,0:0:0:0:
288,192,28795,1,0,0:0:0:0:
96,192,28889,1,0,0:0:0:0:
160,192,28889,1,0,0:0:0:0:
352,192,28982,1,0,0:0:0:0:
480,192,29076,1,8,0:0:0:0:
224,192,29170,1,0,0:0:0:0:
416,192,29264,1,4,0:0:0:0:
32,192,29264,1,0,0:0:0:0:
288,192,29357,1,0,0:0:0:0:
160,192,29451,1,8,0:0:0:0:
352,192,29545,1,0,0:0:0:0:
224,192,29639,1,0,0:0:0:0:
96,192,29639,1,0,0:0:0:0:
480,192,29732,1,0,0:0:0:0:
416,192,29826,1,8,0:0:0:0:
288,192,29920,1,0,0:0:0:0:
32,192,30014,1,0,0:0:0:0:
96,192,30014,1,0,0:0:0:0:
480,192,30014,1,0,0:0:0:0:
352,192,30107,1,0,0:0:0:0:
224,192,30201,1,8,0:0:0:0:
288,192,30295,1,0,0:0:0:0:
32,192,30389,1,0,0:0:0:0:
96,192,30389,1,0,0:0:0:0:
480,192,30389,1,0,0:0:0:0:
352,192,30482,1,0,0:0:0:0:
224,192,30576,1,8,0:0:0:0:
96,192,30670,1,0,0:0:0:0:
416,192,30764,128,0,31514:0:0:0:0:
352,192,31139,128,0,31514:0:0:0:0:
96,192,31514,1,0,0:0:0:0:
160,192,31514,1,0,0:0:0:0:
224,192,31607,1,0,0:0:0:0:
416,192,31701,1,8,0:0:0:0:
288,192,31795,1,0,0:0:0:0:
224,192,31889,1,0,0:0:0:0:
96,192,31889,1,0,0:0:0:0:
352,192,31982,1,0,0:0:0:0:
480,192,32076,1,8,0:0:0:0:
352,192,32170,1,0,0:0:0:0:
32,192,32264,1,4,0:0:0:0:
224,192,32264,1,0,0:0:0:0:
160,192,32357,1,0,0:0:0:0:
288,192,32451,1,8,0:0:0:0:
480,192,32545,1,0,0:0:0:0:
96,192,32639,1,0,0:0:0:0:
352,192,32639,1,0,0:0:0:0:
160,192,32732,1,0,0:0:0:0:
288,192,32826,1,8,0:0:0:0:
416,192,32920,1,0,0:0:0:0:
224,192,33014,1,4,0:0:0:0:
32,192,33014,1,0,0:0:0:0:
160,192,33107,1,0,0:0:0:0:
352,192,33201,1,8,0:0:0:0:
416,192,33295,1,0,0:0:0:0:
224,192,33389,1,0,0:0:0:0:
96,192,33389,1,0,0:0:0:0:
480,192,33482,1,0,0:0:0:0:
288,192,33576,1,8,0:0:0:0:
416,192,33670,1,0,0:0:0:0:
32,192,33764,1,4,0:0:0:0:
224,192,33764,1,0,0:0:0:0:
160,192,33857,1,0,0:0:0:0:
96,192,33951,1,8,0:0:0:0:
352,192,34045,1,0,0:0:0:0:
224,192,34139,1,0,0:0:0:0:
416,192,34139,1,0,0:0:0:0:
480,192,34232,1,0,0:0:0:0:
288,192,34326,1,8,0:0:0:0:
160,192,34420,1,0,0:0:0:0:
352,192,34514,1,4,0:0:0:0:
32,192,34514,1,0,0:0:0:0:
224,192,34607,1,0,0:0:0:0:
96,192,34701,1,8,0:0:0:0:
288,192,34795,1,0,0:0:0:0:
480,192,34889,5,0,0:0:0:0:
416,192,34889,1,0,0:0:0:0:
224,192,34982,1,0,0:0:0:0:
96,192,35076,1,8,0:0:0:0:
352,192,35170,1,0,0:0:0:0:
32,192,35264,1,4,0:0:0:0:
160,192,35264,1,0,0:0:0:0:
288,192,35357,1,0,0:0:0:0:
416,192,35451,1,8,0:0:0:0:
224,192,35545,1,0,0:0:0:0:
480,192,35639,1,0,0:0:0:0:
352,192,35639,1,0,0:0:0:0:
96,192,35732,1,0,0:0:0:0:
160,192,35826,1,8,0:0:0:0:
288,192,35920,1,0,0:0:0:0:
32,192,36014,5,0,0:0:0:0:
480,192,36014,1,0,0:0:0:0:
352,192,36107,1,0,0:0:0:0:
224,192,36201,1,0,0:0:0:0:
96,192,36295,1,0,0:0:0:0:
32,192,36389,128,0,36764:0:0:0:70:fx_synth04.wav
96,192,36764,1,0,0:0:0:0:
224,192,36857,1,0,0:0:0:0:
352,192,36951,1,0,0:0:0:0:
480,192,37045,1,0,0:0:0:0:
32,192,37139,1,0,0:0:0:0:
480,192,37514,5,8,0:0:0:0:
32,192,37514,1,0,0:0:0:0:
96,192,37514,1,0,0:0:0:0:
480,192,37701,1,8,0:0:0:0:
224,192,37889,1,4,0:0:0:0:
352,192,37889,1,0,0:0:0:0:
160,192,38076,1,0,0:0:0:0:
288,192,38170,1,0,0:0:0:0:
480,192,38264,1,0,0:0:0:0:
416,192,38264,1,0,0:0:0:0:
224,192,38357,1,0,0:0:0:0:
352,192,38451,1,0,0:0:0:0:
288,192,38545,1,0,0:0:0:0:
160,192,38639,1,4,0:0:0:0:
96,192,38639,1,0,0:0:0:0:
416,192,38826,1,0,0:0:0:0:
352,192,38920,1,0,0:0:0:0:
224,192,39014,1,8,0:0:0:0:
224,192,39201,1,8,0:0:0:0:
288,192,39389,1,4,0:0:0:0:
480,192,39389,1,0,0:0:0:0:
160,192,39576,1,0,0:0:0:0:
352,192,39670,1,0,0:0:0:0:
96,192,39764,1,0,0:0:0:0:
224,192,39764,1,0,0:0:0:0:
416,192,39857,1,0,0:0:0:0:
288,192,39951,1,0,0:0:0:0:
480,192,40045,1,0,0:0:0:0:
160,192,40139,1,4,0:0:0:0:
224,192,40232,1,0,0:0:0:0:
480,192,40420,1,0,0:0:0:0:
416,192,40514,1,8,0:0:0:0:
288,192,40514,1,0,0:0:0:0:
288,192,40701,1,8,0:0:0:0:
160,192,40889,1,4,0:0:0:0:
96,192,40889,1,0,0:0:0:0:
416,192,40889,1,0,0:0:0:0:
224,192,41076,1,0,0:0:0:0:
352,192,41170,1,0,0:0:0:0:
480,192,41264,1,0,0:0:0:0:
96,192,41264,1,0,0:0:0:0:
352,192,41357,1,0,0:0:0:0:
160,192,41357,1,0,0:0:0:0:
224,192,41451,1,0,0:0:0:0:
352,192,41545,1,0,0:0:0:0:
288,192,41545,1,0,0:0:0:0:
480,192,41639,1,4,0:0:0:0:
224,192,41639,1,0,0:0:0:0:
96,192,41732,1,0,0:0:0:0:
416,192,41732,1,0,0:0:0:0:
352,192,41826,1,0,0:0:0:0:
160,192,41826,1,0,0:0:0:0:
288,192,41920,1,0,0:0:0:0:
224,192,41920,1,0,0:0:0:0:
32,192,42014,1,0,0:0:0:0:
32,192,42389,1,0,0:0:0:0:
96,192,42389,1,0,0:0:0:0:
32,192,42764,1,0,0:0:0:0:
32,192,43139,1,0,0:0:0:0:
96,192,43514,1,8,0:0:0:0:
96,192,43701,1,8,0:0:0:0:
416,192,43889,1,4,0:0:0:0:
288,192,43889,1,0,0:0:0:0:
160,192,44076,1,0,0:0:0:0:
224,192,44170,1,0,0:0:0:0:
288,192,44264,1,0,0:0:0:0:
480,192,44264,1,0,0:0:0:0:
416,192,44357,1,0,0:0:0:0:
352,192,44451,1,0,0:0:0:0:
288,192,44545,1,0,0:0:0:0:
96,192,44639,1,4,0:0:0:0:
224,192,44639,1,0,0:0:0:0:
416,192,44826,1,0,0:0:0:0:
352,192,44920,1,0,0:0:0:0:
288,192,45014,1,8,0:0:0:0:
288,192,45201,1,8,0:0:0:0:
224,192,45389,1,4,0:0:0:0:
160,192,45389,1,0,0:0:0:0:
352,192,45576,1,0,0:0:0:0:
416,192,45670,1,0,0:0:0:0:
480,192,45764,1,0,0:0:0:0:
224,192,45764,1,0,0:0:0:0:
160,192,45857,1,0,0:0:0:0:
96,192,45951,1,0,0:0:0:0:
288,192,46045,1,0,0:0:0:0:
416,192,46139,1,4,0:0:0:0:
160,192,46232,1,0,0:0:0:0:
224,192,46420,1,0,0:0:0:0:
352,192,46514,1,8,0:0:0:0:
480,192,46514,1,0,0:0:0:0:
480,192,46701,1,8,0:0:0:0:
288,192,46889,1,4,0:0:0:0:
160,192,46889,1,0,0:0:0:0:
416,192,46889,1,0,0:0:0:0:
96,192,47076,1,0,0:0:0:0:
160,192,47170,1,0,0:0:0:0:
224,192,47264,1,0,0:0:0:0:
288,192,47264,1,0,0:0:0:0:
480,192,47357,1,0,0:0:0:0:
416,192,47357,1,0,0:0:0:0:
96,192,47451,1,0,0:0:0:0:
160,192,47451,1,0,0:0:0:0:
288,192,47545,1,0,0:0:0:0:
352,192,47545,1,0,0:0:0:0:
160,192,47639,1,4,0:0:0:0:
224,192,47639,1,0,0:0:0:0:
480,192,47732,1,0,0:0:0:0:
96,192,47732,1,0,0:0:0:0:
416,192,47826,1,0,0:0:0:0:
160,192,47826,1,0,0:0:0:0:
352,192,47920,1,0,0:0:0:0:
224,192,47920,1,0,0:0:0:0:
288,192,48014,1,0,0:0:0:0:
32,192,48014,1,0,0:0:0:0:
32,192,48764,1,0,0:0:0:0:
32,192,48857,1,0,0:0:0:0:
32,192,48951,1,0,0:0:0:0:
32,192,49045,1,0,0:0:0:0:
32,192,49139,128,0,49514:0:0:0:0:
224,192,49514,1,8,0:0:0:0:
288,192,49514,1,0,0:0:0:0:
416,192,49514,1,0,0:0:0:0:
224,192,50076,1,0,0:0:0:0:
288,192,50076,1,0,0:0:0:0:
416,192,50076,1,0,0:0:0:0:
96,192,50826,1,0,0:0:0:0:
160,192,50826,1,0,0:0:0:0:
224,192,50826,1,0,0:0:0:0:
96,192,51201,1,8,0:0:0:0:
160,192,51201,1,0,0:0:0:0:
224,192,51201,1,0,0:0:0:0:
96,192,51389,1,4,0:0:0:0:
160,192,51389,1,0,0:0:0:0:
224,192,51389,1,0,0:0:0:0:
224,192,52514,1,8,0:0:0:0:
352,192,52514,1,0,0:0:0:0:
416,192,52514,1,0,0:0:0:0:
224,192,53076,1,0,0:0:0:0:
352,192,53076,1,0,0:0:0:0:
416,192,53076,1,0,0:0:0:0:
288,192,53826,1,0,0:0:0:0:
352,192,53826,1,0,0:0:0:0:
480,192,53826,1,0,0:0:0:0:
288,192,54201,1,8,0:0:0:0:
352,192,54201,1,0,0:0:0:0:
480,192,54201,1,0,0:0:0:0:
288,192,54389,1,4,0:0:0:0:
352,192,54389,1,0,0:0:0:0:
480,192,54389,1,0,0:0:0:0:
32,192,55139,1,0,0:0:0:0:
32,192,55232,1,0,0:0:0:0:
32,192,55326,1,0,0:0:0:0:
32,192,55420,1,0,0:0:0:0:
224,192,55514,1,8,0:0:0:0:
288,192,55514,1,0,0:0:0:0:
416,192,55514,1,0,0:0:0:0:
416,192,56076,1,0,0:0:0:0:
288,192,56076,1,0,0:0:0:0:
224,192,56076,1,0,0:0:0:0:
224,192,56826,1,0,0:0:0:0:
160,192,56826,1,0,0:0:0:0:
96,192,56826,1,0,0:0:0:0:
224,192,57201,1,8,0:0:0:0:
160,192,57201,1,0,0:0:0:0:
96,192,57201,1,0,0:0:0:0:
96,192,57389,1,4,0:0:0:0:
224,192,57389,1,0,0:0:0:0:
160,192,57389,1,0,0:0:0:0:
32,192,58514,1,8,0:0:0:0:
224,192,58514,1,0,0:0:0:0:
352,192,58514,1,0,0:0:0:0:
416,192,58514,1,0,0:0:0:0:
416,192,59076,1,0,0:0:0:0:
352,192,59076,1,0,0:0:0:0:
224,192,59076,1,0,0:0:0:0:
480,192,59826,1,0,0:0:0:0:
352,192,59826,1,0,0:0:0:0:
288,192,59826,1,0,0:0:0:0:
96,192,60014,1,2,0:0:0:0:
160,192,60139,1,2,0:0:0:0:
416,192,60201,1,0,0:0:0:0:
288,192,60264,1,2,0:0:0:0:
416,192,60389,1,0,0:0:0:0:
160,192,60389,1,0,0:0:0:0:
224,192,60514,1,0,0:0:0:0:
352,192,60639,1,0,0:0:0:0:
96,192,60764,128,0,61139:0:0:0:70:
480,192,60764,128,0,61139:0:0:0:0:
32,192,61139,1,0,0:0:0:70:
32,192,61514,1,8,0:0:0:0:
224,192,61514,1,0,0:0:0:0:
352,192,61514,1,0,0:0:0:0:
416,192,61607,1,0,0:0:0:0:
480,192,61701,1,2,0:0:0:70:
96,192,61795,1,0,0:0:0:0:
160,192,61889,1,8,0:0:0:0:
288,192,61889,1,0,0:0:0:0:
416,192,61982,1,0,0:0:0:0:
32,192,62076,1,2,0:0:0:70:
352,192,62076,1,0,0:0:0:0:
224,192,62170,1,0,0:0:0:0:
160,192,62264,1,8,0:0:0:0:
96,192,62264,1,0,0:0:0:0:
288,192,62357,1,0,0:0:0:0:
416,192,62451,1,2,0:0:0:70:
352,192,62545,1,0,0:0:0:0:
224,192,62639,1,8,0:0:0:0:
160,192,62639,1,0,0:0:0:0:
288,192,62732,1,0,0:0:0:0:
32,192,62826,1,2,0:0:0:70:
480,192,62826,1,0,0:0:0:0:
416,192,62920,1,0,0:0:0:0:
352,192,63014,1,8,0:0:0:0:
96,192,63014,1,0,0:0:0:0:
224,192,63107,1,0,0:0:0:0:
32,192,63201,1,2,0:0:0:70:
288,192,63201,1,0,0:0:0:0:
352,192,63295,1,0,0:0:0:0:
32,192,63389,1,8,0:0:0:0:
416,192,63389,1,0,0:0:0:0:
480,192,63389,1,0,0:0:0:0:
160,192,63482,1,0,0:0:0:0:
288,192,63576,1,2,0:0:0:70:
96,192,63670,1,0,0:0:0:0:
224,192,63764,1,8,0:0:0:0:
352,192,63764,1,0,0:0:0:0:
480,192,63857,1,0,0:0:0:0:
416,192,63951,1,2,0:0:0:70:
96,192,64045,1,0,0:0:0:0:
160,192,64139,1,8,0:0:0:0:
224,192,64139,1,0,0:0:0:0:
288,192,64232,1,0,0:0:0:0:
480,192,64326,1,2,0:0:0:70:
416,192,64420,1,0,0:0:0:0:
32,192,64514,1,8,0:0:0:0:
96,192,64514,1,0,0:0:0:0:
352,192,64514,1,0,0:0:0:0:
288,192,64607,1,0,0:0:0:0:
160,192,64701,1,2,0:0:0:70:
96,192,64795,1,0,0:0:0:0:
352,192,64889,1,8,0:0:0:0:
480,192,64889,1,0,0:0:0:0:
224,192,64982,1,0,0:0:0:0:
32,192,65076,1,2,0:0:0:70:
96,192,65076,1,0,0:0:0:0:
352,192,65170,1,0,0:0:0:0:
480,192,65264,1,8,0:0:0:0:
416,192,65264,1,0,0:0:0:0:
288,192,65357,1,0,0:0:0:0:
160,192,65451,1,2,0:0:0:70:
224,192,65545,1,0,0:0:0:0:
416,192,65639,1,8,0:0:0:0:
352,192,65639,1,0,0:0:0:0:
288,192,65732,1,0,0:0:0:0:
32,192,65826,1,2,0:0:0:70:
96,192,65826,1,0,0:0:0:0:
160,192,65920,1,0,0:0:0:0:
480,192,66014,1,8,0:0:0:0:
224,192,66014,1,0,0:0:0:0:
352,192,66107,1,0,0:0:0:0:
32,192,66201,1,2,0:0:0:70:
480,192,66201,1,0,0:0:0:0:
352,192,66295,1,0,0:0:0:0:
32,192,66389,1,8,0:0:0:0:
96,192,66389,1,0,0:0:0:0:
224,192,66389,1,0,0:0:0:0:
416,192,66482,1,0,0:0:0:0:
288,192,66576,1,2,0:0:0:70:
160,192,66670,1,0,0:0:0:0:
480,192,66764,1,8,0:0:0:0:
96,192,66764,1,0,0:0:0:0:
288,192,66857,1,0,0:0:0:0:
416,192,66951,1,2,0:0:0:0:
352,192,67045,1,0,0:0:0:0:
32,192,67139,1,0,0:0:0:0:
32,192,67232,1,0,0:0:0:0:
32,192,67326,1,0,0:0:0:0:
32,192,67420,1,0,0:0:0:0:
224,192,67514,1,8,0:0:0:0:
352,192,67514,1,0,0:0:0:0:
288,192,67514,1,0,0:0:0:0:
160,192,67607,1,0,0:0:0:0:
96,192,67701,1,2,0:0:0:70:
480,192,67795,1,0,0:0:0:0:
416,192,67889,1,8,0:0:0:0:
288,192,67889,1,0,0:0:0:0:
160,192,67982,1,0,0:0:0:0:
224,192,68076,1,2,0:0:0:70:
32,192,68076,1,0,0:0:0:0:
352,192,68170,1,0,0:0:0:0:
416,192,68264,1,8,0:0:0:0:
480,192,68264,1,0,0:0:0:0:
288,192,68357,1,0,0:0:0:0:
160,192,68451,1,2,0:0:0:70:
224,192,68545,1,0,0:0:0:0:
352,192,68639,1,8,0:0:0:0:
416,192,68639,1,0,0:0:0:0:
288,192,68732,1,0,0:0:0:0:
96,192,68826,1,2,0:0:0:70:
32,192,68826,1,0,0:0:0:0:
160,192,68920,1,0,0:0:0:0:
224,192,69014,1,8,0:0:0:0:
480,192,69014,1,0,0:0:0:0:
352,192,69107,1,0,0:0:0:0:
32,192,69201,1,2,0:0:0:70:
288,192,69201,1,0,0:0:0:0:
224,192,69295,1,0,0:0:0:0:
160,192,69389,1,8,0:0:0:0:
96,192,69389,1,0,0:0:0:0:
32,192,69389,1,0,0:0:0:0:
416,192,69482,1,0,0:0:0:0:
288,192,69576,1,2,0:0:0:70:
480,192,69670,1,0,0:0:0:0:
352,192,69764,1,8,0:0:0:0:
224,192,69764,1,0,0:0:0:0:
96,192,69857,1,0,0:0:0:0:
160,192,69951,1,2,0:0:0:70:
480,192,70045,1,0,0:0:0:0:
352,192,70139,1,8,0:0:0:0:
416,192,70139,1,0,0:0:0:0:
288,192,70232,1,0,0:0:0:0:
96,192,70326,1,2,0:0:0:70:
160,192,70420,1,0,0:0:0:0:
224,192,70514,1,8,0:0:0:0:
480,192,70514,1,0,0:0:0:0:
32,192,70514,1,0,0:0:0:0:
288,192,70607,1,0,0:0:0:0:
416,192,70701,1,2,0:0:0:70:
480,192,70795,1,0,0:0:0:0:
224,192,70889,1,8,0:0:0:0:
96,192,70889,1,0,0:0:0:0:
352,192,70982,1,0,0:0:0:0:
480,192,71076,1,2,0:0:0:70:
32,192,71076,1,0,0:0:0:0:
224,192,71170,1,0,0:0:0:0:
160,192,71264,1,8,0:0:0:0:
96,192,71264,1,0,0:0:0:0:
288,192,71357,1,0,0:0:0:0:
416,192,71451,1,2,0:0:0:70:
352,192,71545,1,0,0:0:0:0:
224,192,71639,1,8,0:0:0:0:
160,192,71639,1,0,0:0:0:0:
288,192,71732,1,0,0:0:0:0:
480,192,71826,1,2,0:0:0:70:
32,192,71826,1,0,0:0:0:0:
416,192,71920,1,0,0:0:0:0:
224,192,72014,1,8,0:0:0:0:
160,192,72014,1,0,0:0:0:0:
352,192,72107,1,0,0:0:0:0:
416,192,72107,1,0,0:0:0:0:
160,192,72201,1,2,0:0:0:0:
224,192,72201,1,0,0:0:0:0:
352,192,72295,1,0,0:0:0:0:
416,192,72295,1,0,0:0:0:0:
96,192,72389,1,8,0:0:0:0:
160,192,72389,1,0,0:0:0:0:
416,192,72482,1,0,0:0:0:0:
480,192,72482,1,0,0:0:0:0:
96,192,72576,1,2,0:0:0:0:
160,192,72576,1,0,0:0:0:0:
416,192,72670,1,0,0:0:0:0:
480,192,72670,1,0,0:0:0:0:
32,192,72764,128,0,73326:0:0:0:70:
32,192,73514,1,8,0:0:0:0:
352,192,73514,1,0,0:0:0:0:
224,192,73514,1,0,0:0:0:0:
416,192,73607,1,0,0:0:0:0:
480,192,73701,1,2,0:0:0:0:
96,192,73795,1,0,0:0:0:0:
160,192,73889,1,8,0:0:0:0:
288,192,73889,1,0,0:0:0:0:
416,192,73982,1,0,0:0:0:0:
352,192,74076,1,2,0:0:0:0:
32,192,74076,1,0,0:0:0:70:
224,192,74170,1,0,0:0:0:0:
160,192,74264,1,8,0:0:0:0:
96,192,74264,1,0,0:0:0:0:
288,192,74357,1,0,0:0:0:0:
416,192,74451,1,2,0:0:0:0:
224,192,74545,1,0,0:0:0:0:
352,192,74639,1,8,0:0:0:0:
480,192,74639,1,0,0:0:0:0:
288,192,74732,1,0,0:0:0:0:
96,192,74826,1,2,0:0:0:0:
32,192,74826,1,0,0:0:0:70:
160,192,74920,1,0,0:0:0:0:
224,192,75014,1,8,0:0:0:0:
480,192,75014,1,0,0:0:0:0:
416,192,75107,1,0,0:0:0:0:
352,192,75201,1,2,0:0:0:70:
32,192,75201,1,0,0:0:0:0:
288,192,75295,1,0,0:0:0:0:
160,192,75389,1,8,0:0:0:0:
32,192,75389,1,0,0:0:0:0:
96,192,75389,1,0,0:0:0:0:
416,192,75482,1,0,0:0:0:0:
288,192,75576,1,2,0:0:0:0:
480,192,75670,1,0,0:0:0:0:
224,192,75764,1,8,0:0:0:0:
352,192,75764,1,0,0:0:0:0:
96,192,75857,1,0,0:0:0:0:
160,192,75951,1,0,0:0:0:70:
480,192,76045,1,0,0:0:0:0:
416,192,76139,1,8,0:0:0:0:
352,192,76139,1,0,0:0:0:0:
288,192,76232,1,0,0:0:0:0:
96,192,76326,1,2,0:0:0:0:
160,192,76420,1,0,0:0:0:0:
480,192,76514,1,8,0:0:0:0:
224,192,76514,1,0,0:0:0:0:
32,192,76514,1,0,0:0:0:0:
288,192,76607,1,0,0:0:0:0:
416,192,76701,1,2,0:0:0:70:
480,192,76795,1,0,0:0:0:0:
224,192,76889,1,8,0:0:0:0:
96,192,76889,1,0,0:0:0:0:
352,192,76982,1,0,0:0:0:0:
32,192,77076,1,0,0:0:0:70:
480,192,77076,1,2,0:0:0:0:
224,192,77170,1,0,0:0:0:0:
160,192,77264,1,8,0:0:0:0:
96,192,77264,1,0,0:0:0:0:
288,192,77357,1,0,0:0:0:0:
416,192,77451,1,2,0:0:0:70:
352,192,77545,1,0,0:0:0:0:
160,192,77639,1,8,0:0:0:0:
224,192,77639,1,0,0:0:0:0:
288,192,77732,1,0,0:0:0:0:
32,192,77826,1,0,0:0:0:70:
480,192,77826,1,2,0:0:0:0:
416,192,77920,1,0,0:0:0:0:
352,192,78014,1,0,0:0:0:0:
32,192,78014,1,0,0:0:0:0:
32,192,78389,128,0,79326:0:0:0:0:
352,192,78764,128,0,79326:0:0:0:0:
416,192,79514,1,8,0:0:0:0:
224,192,79514,1,0,0:0:0:0:
96,192,79607,1,0,0:0:0:0:
352,192,79701,1,2,0:0:0:70:
480,192,79795,1,0,0:0:0:0:
352,192,79889,1,8,0:0:0:0:
160,192,79889,1,0,0:0:0:0:
96,192,79982,1,0,0:0:0:0:
416,192,80076,1,2,0:0:0:70:
224,192,80076,1,0,0:0:0:0:
480,192,80170,1,0,0:0:0:0:
352,192,80264,1,8,0:0:0:0:
160,192,80264,1,0,0:0:0:0:
288,192,80357,1,0,0:0:0:0:
224,192,80451,1,0,0:0:0:70:
352,192,80545,1,0,0:0:0:0:
416,192,80639,1,8,0:0:0:0:
480,192,80639,1,0,0:0:0:0:
288,192,80732,1,0,0:0:0:0:
96,192,80826,1,0,0:0:0:70:
160,192,80826,1,2,0:0:0:0:
352,192,80920,1,0,0:0:0:0:
416,192,81014,1,8,0:0:0:0:
480,192,81014,1,0,0:0:0:0:
288,192,81107,1,0,0:0:0:0:
160,192,81201,1,2,0:0:0:70:
96,192,81201,1,0,0:0:0:0:
352,192,81295,1,0,0:0:0:0:
96,192,81389,1,8,0:0:0:0:
160,192,81389,1,0,0:0:0:0:
480,192,81482,1,0,0:0:0:0:
416,192,81576,1,2,0:0:0:70:
288,192,81670,1,0,0:0:0:0:
96,192,81764,1,8,0:0:0:0:
224,192,81764,1,0,0:0:0:0:
352,192,81857,1,0,0:0:0:0:
480,192,81951,1,2,0:0:0:0:
160,192,82045,1,0,0:0:0:0:
288,192,82139,1,8,0:0:0:0:
416,192,82139,1,0,0:0:0:0:
96,192,82232,1,0,0:0:0:0:
160,192,82326,1,2,0:0:0:0:
352,192,82420,1,0,0:0:0:0:
416,192,82514,1,8,0:0:0:0:
224,192,82514,1,0,0:0:0:0:
96,192,82607,1,0,0:0:0:0:
160,192,82701,1,2,0:0:0:70:
352,192,82795,1,0,0:0:0:0:
480,192,82889,1,8,0:0:0:0:
288,192,82889,1,0,0:0:0:0:
160,192,82982,1,0,0:0:0:0:
416,192,83076,1,2,0:0:0:0:
224,192,83076,1,0,0:0:0:70:
96,192,83170,1,0,0:0:0:0:
288,192,83264,1,8,0:0:0:0:
480,192,83264,1,0,0:0:0:0:
416,192,83357,1,0,0:0:0:0:
352,192,83451,1,2,0:0:0:70:
224,192,83545,1,0,0:0:0:0:
96,192,83639,1,8,0:0:0:0:
288,192,83639,1,0,0:0:0:0:
160,192,83732,1,0,0:0:0:0:
480,192,83826,1,0,0:0:0:70:
352,192,83826,1,2,0:0:0:0:
288,192,83920,1,0,0:0:0:0:
32,192,84014,1,0,0:0:0:0:
224,192,84014,128,0,85139:0:0:0:0:
480,192,84201,1,0,0:0:0:0:
480,192,84389,1,0,0:0:0:0:
96,192,84389,128,0,85139:0:0:0:0:
352,192,84764,128,0,85139:0:0:0:0:
480,192,85514,5,8,0:0:0:0:
160,192,85514,1,0,0:0:0:0:
288,192,85514,1,0,0:0:0:0:
480,192,85701,1,8,0:0:0:0:
224,192,85889,1,4,0:0:0:0:
352,192,85889,1,0,0:0:0:0:
160,192,86076,1,0,0:0:0:0:
288,192,86170,1,0,0:0:0:0:
480,192,86264,1,0,0:0:0:0:
416,192,86264,1,0,0:0:0:0:
96,192,86264,1,0,0:0:0:0:
224,192,86357,1,0,0:0:0:0:
352,192,86451,1,0,0:0:0:0:
96,192,86639,1,4,0:0:0:0:
160,192,86639,1,0,0:0:0:0:
416,192,86826,1,0,0:0:0:0:
352,192,86920,1,0,0:0:0:0:
224,192,87014,1,8,0:0:0:0:
288,192,87014,1,0,0:0:0:0:
96,192,87014,1,0,0:0:0:0:
224,192,87201,1,8,0:0:0:0:
480,192,87389,1,4,0:0:0:0:
288,192,87389,1,0,0:0:0:0:
160,192,87576,1,0,0:0:0:0:
352,192,87670,1,0,0:0:0:0:
96,192,87764,1,0,0:0:0:0:
224,192,87764,1,0,0:0:0:0:
480,192,87764,1,0,0:0:0:0:
416,192,87857,1,0,0:0:0:0:
288,192,87951,1,0,0:0:0:0:
160,192,88139,1,4,0:0:0:0:
224,192,88232,1,0,0:0:0:0:
480,192,88420,1,0,0:0:0:0:
288,192,88514,1,8,0:0:0:0:
416,192,88514,1,0,0:0:0:0:
96,192,88514,1,0,0:0:0:0:
288,192,88701,1,8,0:0:0:0:
96,192,88889,1,4,0:0:0:0:
160,192,88889,1,0,0:0:0:0:
224,192,89076,1,0,0:0:0:0:
352,192,89170,1,0,0:0:0:0:
480,192,89264,1,0,0:0:0:0:
96,192,89264,1,0,0:0:0:0:
160,192,89264,1,0,0:0:0:0:
352,192,89357,1,0,0:0:0:0:
224,192,89451,1,0,0:0:0:0:
352,192,89545,1,0,0:0:0:0:
96,192,89639,1,4,0:0:0:0:
480,192,89639,1,0,0:0:0:0:
160,192,89826,1,0,0:0:0:0:
288,192,89920,1,0,0:0:0:0:
416,192,90014,1,8,0:0:0:0:
224,192,90014,1,0,0:0:0:0:
224,192,90201,1,8,0:0:0:0:
288,192,90389,1,0,0:0:0:0:
352,192,90389,1,0,0:0:0:0:
96,192,90389,1,0,0:0:0:0:
224,192,90576,1,0,0:0:0:0:
352,192,90670,1,0,0:0:0:0:
32,192,90764,128,4,91326:0:0:0:0:
480,192,90764,1,0,0:0:0:0:
96,192,91514,1,8,0:0:0:0:
224,192,91514,1,0,0:0:0:0:
96,192,91701,1,8,0:0:0:0:
416,192,91889,1,4,0:0:0:0:
288,192,91889,1,0,0:0:0:0:
160,192,92076,1,0,0:0:0:0:
224,192,92170,1,0,0:0:0:0:
288,192,92264,1,0,0:0:0:0:
480,192,92264,1,0,0:0:0:0:
96,192,92264,1,0,0:0:0:0:
416,192,92357,1,0,0:0:0:0:
352,192,92451,1,0,0:0:0:0:
288,192,92545,1,0,0:0:0:0:
224,192,92639,1,4,0:0:0:0:
160,192,92639,1,0,0:0:0:0:
416,192,92826,1,0,0:0:0:0:
352,192,92920,1,0,0:0:0:0:
288,192,93014,1,8,0:0:0:0:
96,192,93014,1,0,0:0:0:0:
288,192,93201,1,8,0:0:0:0:
224,192,93389,1,4,0:0:0:0:
160,192,93389,1,0,0:0:0:0:
352,192,93576,1,0,0:0:0:0:
416,192,93670,1,0,0:0:0:0:
480,192,93764,1,0,0:0:0:0:
224,192,93764,1,0,0:0:0:0:
288,192,93764,1,0,0:0:0:0:
160,192,93857,1,0,0:0:0:0:
96,192,93951,1,0,0:0:0:0:
416,192,94139,1,4,0:0:0:0:
160,192,94232,1,0,0:0:0:0:
224,192,94420,1,0,0:0:0:0:
352,192,94514,1,8,0:0:0:0:
480,192,94514,1,0,0:0:0:0:
96,192,94514,1,0,0:0:0:0:
352,192,94701,1,8,0:0:0:0:
288,192,94889,1,4,0:0:0:0:
160,192,94889,1,0,0:0:0:0:
416,192,94889,1,0,0:0:0:0:
96,192,95076,1,0,0:0:0:0:
160,192,95170,1,0,0:0:0:0:
224,192,95264,1,0,0:0:0:0:
480,192,95264,1,0,0:0:0:0:
416,192,95264,1,0,0:0:0:0:
352,192,95357,1,0,0:0:0:0:
288,192,95451,1,0,0:0:0:0:
96,192,95451,1,0,0:0:0:0:
416,192,95545,1,0,0:0:0:0:
352,192,95639,1,4,0:0:0:0:
160,192,95639,1,0,0:0:0:0:
480,192,95732,1,0,0:0:0:0:
224,192,95732,1,0,0:0:0:0:
416,192,95826,1,0,0:0:0:0:
96,192,95826,1,0,0:0:0:0:
352,192,95920,1,0,0:0:0:0:
288,192,95920,1,0,0:0:0:0:
32,192,96014,128,0,96764:0:0:0:70:8bit2.wav
288,192,96764,1,0,0:0:0:70:
224,192,96764,1,0,0:0:0:0:
352,192,96764,1,0,0:0:0:0:
160,192,96857,1,0,0:0:0:0:
480,192,96951,1,0,0:0:0:0:
96,192,96951,1,0,0:0:0:0:
416,192,97045,1,0,0:0:0:0:
224,192,97139,1,0,0:0:0:70:
352,192,97232,1,0,0:0:0:0:
96,192,97326,1,0,0:0:0:0:
480,192,97420,1,0,0:0:0:0:
416,192,97514,1,8,0:0:0:0:
224,192,97514,1,0,0:0:0:0:
96,192,97607,1,0,0:0:0:0:
352,192,97701,1,0,0:0:0:70:
480,192,97795,1,0,0:0:0:0:
288,192,97889,1,8,0:0:0:0:
96,192,97889,1,4,0:0:0:0:
32,192,97889,1,0,0:0:0:0:
160,192,97982,1,0,0:0:0:0:
224,192,98076,1,2,0:0:0:70:
416,192,98076,1,0,0:0:0:0:
480,192,98170,1,0,0:0:0:0:
160,192,98264,1,8,0:0:0:0:
352,192,98264,1,0,0:0:0:0:
288,192,98357,1,0,0:0:0:0:
224,192,98451,1,2,0:0:0:0:
352,192,98545,1,0,0:0:0:0:
416,192,98639,1,4,0:0:0:0:
480,192,98639,1,8,0:0:0:0:
32,192,98639,1,0,0:0:0:0:
288,192,98732,1,0,0:0:0:0:
96,192,98826,1,2,0:0:0:70:
160,192,98826,1,0,0:0:0:0:
352,192,98920,1,0,0:0:0:0:
480,192,99014,1,8,0:0:0:0:
224,192,99014,1,0,0:0:0:0:
288,192,99107,1,0,0:0:0:0:
160,192,99201,1,0,0:0:0:70:
96,192,99201,1,2,0:0:0:0:
352,192,99295,1,0,0:0:0:0:
160,192,99389,1,4,0:0:0:0:
96,192,99389,1,8,0:0:0:0:
32,192,99389,1,0,0:0:0:0:
480,192,99482,1,0,0:0:0:0:
416,192,99576,1,2,0:0:0:70:
288,192,99670,1,0,0:0:0:0:
96,192,99764,1,8,0:0:0:0:
224,192,99764,1,0,0:0:0:0:
352,192,99857,1,0,0:0:0:0:
480,192,99951,1,2,0:0:0:70:
160,192,100045,1,0,0:0:0:0:
288,192,100139,1,4,0:0:0:0:
416,192,100139,1,8,0:0:0:0:
32,192,100139,1,0,0:0:0:0:
96,192,100232,1,0,0:0:0:0:
160,192,100326,1,2,0:0:0:70:
352,192,100420,1,0,0:0:0:0:
480,192,100514,1,8,0:0:0:0:
288,192,100514,1,0,0:0:0:0:
96,192,100607,1,0,0:0:0:0:
160,192,100701,1,2,0:0:0:70:
352,192,100795,1,0,0:0:0:0:
480,192,100889,1,8,0:0:0:0:
288,192,100889,1,4,0:0:0:0:
32,192,100889,1,0,0:0:0:0:
160,192,100982,1,0,0:0:0:0:
224,192,101076,1,2,0:0:0:70:
416,192,101076,1,0,0:0:0:0:
96,192,101170,1,0,0:0:0:0:
288,192,101264,1,8,0:0:0:0:
480,192,101264,1,0,0:0:0:0:
416,192,101357,1,0,0:0:0:0:
352,192,101451,1,2,0:0:0:0:
224,192,101545,1,0,0:0:0:0:
288,192,101639,1,8,0:0:0:0:
96,192,101639,1,4,0:0:0:0:
32,192,101639,1,0,0:0:0:0:
160,192,101732,1,0,0:0:0:0:
352,192,101826,1,2,0:0:0:0:
480,192,101826,1,0,0:0:0:70:
288,192,101920,1,0,0:0:0:0:
96,192,102014,1,0,0:0:0:0:
224,192,102014,1,0,0:0:0:0:
160,192,102139,1,0,0:0:0:0:
288,192,102139,1,0,0:0:0:0:
224,192,102264,1,0,0:0:0:0:
352,192,102264,1,0,0:0:0:0:
480,192,102389,1,0,0:0:0:0:
416,192,102389,1,0,0:0:0:0:
352,192,102514,1,0,0:0:0:0:
288,192,102514,1,0,0:0:0:0:
224,192,102639,1,0,0:0:0:0:
160,192,102639,1,0,0:0:0:0:
96,192,102764,1,0,0:0:0:0:
480,192,102764,1,0,0:0:0:0:
160,192,102889,1,0,0:0:0:0:
416,192,102889,1,0,0:0:0:0:
224,192,103014,1,0,0:0:0:0:
352,192,103014,1,0,0:0:0:0:
288,192,103139,128,0,103514:0:0:0:0:
160,192,103514,1,8,0:0:0:0:
352,192,103514,1,0,0:0:0:0:
416,192,103514,1,0,0:0:0:0:
224,192,103607,1,0,0:0:0:0:
480,192,103701,1,0,0:0:0:70:
416,192,103795,1,0,0:0:0:0:
32,192,103889,1,4,0:0:0:0:
352,192,103889,1,8,0:0:0:0:
224,192,103889,1,0,0:0:0:0:
160,192,103982,1,0,0:0:0:0:
288,192,104076,1,2,0:0:0:70:
96,192,104076,1,0,0:0:0:0:
416,192,104076,1,0,0:0:0:0:
224,192,104170,1,0,0:0:0:0:
352,192,104264,1,8,0:0:0:0:
160,192,104264,1,0,0:0:0:0:
416,192,104357,1,0,0:0:0:0:
480,192,104451,1,2,0:0:0:70:
224,192,104545,1,0,0:0:0:0:
352,192,104639,1,4,0:0:0:0:
32,192,104639,1,8,0:0:0:0:
288,192,104639,1,0,0:0:0:0:
416,192,104732,1,0,0:0:0:0:
96,192,104826,1,0,0:0:0:70:
160,192,104826,1,2,0:0:0:0:
224,192,104826,1,0,0:0:0:0:
352,192,104920,1,0,0:0:0:0:
416,192,105014,1,8,0:0:0:0:
480,192,105014,1,0,0:0:0:0:
288,192,105107,1,0,0:0:0:0:
160,192,105201,1,0,0:0:0:70:
224,192,105201,1,2,0:0:0:0:
96,192,105201,1,0,0:0:0:0:
352,192,105295,1,0,0:0:0:0:
224,192,105389,1,4,0:0:0:0:
160,192,105389,1,8,0:0:0:0:
32,192,105389,1,0,0:0:0:0:
96,192,105389,1,0,0:0:0:0:
480,192,105482,1,0,0:0:0:0:
288,192,105576,1,0,0:0:0:70:
416,192,105670,1,0,0:0:0:0:
160,192,105764,1,8,0:0:0:0:
96,192,105764,1,0,0:0:0:0:
352,192,105857,1,0,0:0:0:0:
480,192,105951,1,2,0:0:0:0:
224,192,106045,1,0,0:0:0:0:
32,192,106139,1,4,0:0:0:0:
288,192,106139,1,8,0:0:0:0:
416,192,106139,1,0,0:0:0:0:
160,192,106232,1,0,0:0:0:0:
96,192,106326,1,2,0:0:0:0:
288,192,106420,1,0,0:0:0:0:
416,192,106514,1,8,0:0:0:0:
352,192,106514,1,0,0:0:0:0:
224,192,106514,1,0,0:0:0:0:
96,192,106607,1,0,0:0:0:0:
160,192,106701,1,2,0:0:0:70:
352,192,106795,1,0,0:0:0:0:
32,192,106889,1,8,0:0:0:0:
288,192,106889,1,4,0:0:0:0:
480,192,106889,1,0,0:0:0:0:
160,192,106982,1,0,0:0:0:0:
352,192,107076,1,2,0:0:0:70:
416,192,107076,1,0,0:0:0:0:
224,192,107076,1,0,0:0:0:0:
96,192,107170,1,0,0:0:0:0:
480,192,107264,1,8,0:0:0:0:
288,192,107264,1,0,0:0:0:0:
416,192,107357,1,0,0:0:0:0:
352,192,107451,1,0,0:0:0:70:
224,192,107545,1,0,0:0:0:0:
288,192,107639,1,8,0:0:0:0:
32,192,107639,1,4,0:0:0:0:
96,192,107639,1,0,0:0:0:0:
160,192,107732,1,0,0:0:0:0:
352,192,107826,1,0,0:0:0:70:
480,192,107826,1,2,0:0:0:0:
288,192,107920,1,0,0:0:0:0:
224,192,108014,1,8,0:0:0:0:
416,192,108014,1,0,0:0:0:0:
160,192,108107,1,0,0:0:0:0:
352,192,108107,1,0,0:0:0:0:
96,192,108201,128,0,108764:0:0:0:0:
288,192,108389,128,0,108764:0:0:0:0:
224,192,108764,128,0,109514:0:0:0:0:
352,192,109139,128,0,109514:0:0:0:0:
480,192,109139,128,0,109514:0:0:0:0:
288,192,109514,1,8,0:0:0:0:
416,192,109514,1,0,0:0:0:0:
160,192,109607,1,0,0:0:0:0:
32,192,109701,1,0,0:0:0:70:
96,192,109701,1,2,0:0:0:0:
416,192,109795,1,0,0:0:0:0:
224,192,109889,1,4,0:0:0:0:
352,192,109889,1,8,0:0:0:0:
288,192,109889,1,0,0:0:0:0:
160,192,109982,1,0,0:0:0:0:
32,192,110076,1,0,0:0:0:70:
480,192,110076,1,2,0:0:0:0:
288,192,110170,1,0,0:0:0:0:
352,192,110264,1,8,0:0:0:0:
416,192,110264,1,0,0:0:0:0:
224,192,110357,1,0,0:0:0:0:
32,192,110451,1,0,0:0:0:70:
96,192,110451,1,2,0:0:0:0:
288,192,110545,1,0,0:0:0:0:
480,192,110639,1,8,0:0:0:0:
352,192,110639,1,4,0:0:0:0:
416,192,110639,1,0,0:0:0:0:
224,192,110732,1,0,0:0:0:0:
32,192,110826,1,0,0:0:0:70:
288,192,110826,1,2,0:0:0:0:
352,192,110920,1,0,0:0:0:0:
416,192,111014,1,8,0:0:0:0:
480,192,111014,1,0,0:0:0:0:
224,192,111107,1,0,0:0:0:0:
32,192,111201,1,0,0:0:0:70:
96,192,111201,1,2,0:0:0:0:
480,192,111295,1,0,0:0:0:0:
416,192,111389,1,8,0:0:0:0:
160,192,111389,1,4,0:0:0:0:
224,192,111389,1,0,0:0:0:0:
352,192,111482,1,0,0:0:0:0:
32,192,111576,1,0,0:0:0:70:
288,192,111576,1,2,0:0:0:0:
416,192,111670,1,0,0:0:0:0:
160,192,111764,1,8,0:0:0:0:
224,192,111764,1,0,0:0:0:0:
352,192,111857,1,0,0:0:0:0:
32,192,111951,1,0,0:0:0:70:
416,192,111951,1,2,0:0:0:0:
288,192,112045,1,0,0:0:0:0:
224,192,112139,1,8,0:0:0:0:
160,192,112139,1,4,0:0:0:0:
96,192,112139,1,0,0:0:0:0:
352,192,112232,1,0,0:0:0:0:
32,192,112326,1,0,0:0:0:70:
480,192,112326,1,2,0:0:0:0:
288,192,112420,1,0,0:0:0:0:
352,192,112514,1,8,0:0:0:0:
160,192,112514,1,0,0:0:0:0:
416,192,112607,1,0,0:0:0:0:
96,192,112701,1,0,0:0:0:70:
32,192,112701,1,2,0:0:0:0:
352,192,112795,1,0,0:0:0:0:
288,192,112889,1,4,0:0:0:0:
480,192,112889,1,8,0:0:0:0:
416,192,112889,1,0,0:0:0:0:
224,192,112982,1,0,0:0:0:0:
32,192,113076,1,0,0:0:0:70:
352,192,113076,1,2,0:0:0:0:
288,192,113170,1,0,0:0:0:0:
160,192,113264,1,8,0:0:0:0:
416,192,113264,1,0,0:0:0:0:
352,192,113357,1,0,0:0:0:0:
32,192,113451,1,0,0:0:0:70:
224,192,113451,1,2,0:0:0:0:
288,192,113545,1,0,0:0:0:0:
416,192,113639,1,4,0:0:0:0:
352,192,113639,1,8,0:0:0:0:
160,192,113639,1,0,0:0:0:0:
224,192,113732,1,0,0:0:0:0:
32,192,113826,1,0,0:0:0:70:
480,192,113826,1,2,0:0:0:0:
352,192,114014,1,8,0:0:0:0:
224,192,114014,1,0,0:0:0:0:
160,192,114107,1,0,0:0:0:0:
416,192,114107,1,0,0:0:0:0:
96,192,114201,128,0,114576:0:0:0:0:
480,192,114389,128,0,114576:0:0:0:0:
352,192,114576,128,0,114951:0:0:0:0:
224,192,114764,128,0,114951:0:0:0:0:
160,192,114951,128,0,115514:0:0:0:0:
416,192,115139,128,0,115514:0:0:0:0:
288,192,115326,128,0,115514:0:0:0:0:
96,192,115514,1,8,0:0:0:0:
96,192,115701,1,8,0:0:0:70:
224,192,115889,1,4,0:0:0:0:
352,192,115889,1,0,0:0:0:0:
480,192,116076,1,0,0:0:0:70:
416,192,116170,1,0,0:0:0:0:
288,192,116264,1,0,0:0:0:0:
96,192,116264,1,0,0:0:0:0:
160,192,116357,1,0,0:0:0:0:
224,192,116451,1,0,0:0:0:70:
352,192,116545,1,0,0:0:0:0:
288,192,116639,1,4,0:0:0:0:
480,192,116639,1,0,0:0:0:0:
224,192,116826,1,0,0:0:0:70:
352,192,116920,1,0,0:0:0:0:
96,192,117014,1,8,0:0:0:0:
480,192,117014,1,0,0:0:0:0:
96,192,117201,1,8,0:0:0:0:
160,192,117389,1,4,0:0:0:0:
416,192,117389,1,0,0:0:0:0:
224,192,117576,1,0,0:0:0:70:
160,192,117670,1,0,0:0:0:0:
96,192,117764,1,0,0:0:0:0:
352,192,117764,1,0,0:0:0:0:
416,192,117857,1,0,0:0:0:0:
480,192,117951,1,0,0:0:0:70:
224,192,118045,1,0,0:0:0:0:
288,192,118139,1,4,0:0:0:0:
96,192,118139,1,0,0:0:0:0:
160,192,118232,1,0,0:0:0:0:
480,192,118420,1,0,0:0:0:0:
416,192,118514,1,8,0:0:0:0:
224,192,118514,1,0,0:0:0:0:
352,192,118514,1,0,0:0:0:0:
224,192,118701,1,0,0:0:0:70:
160,192,118889,1,4,0:0:0:0:
288,192,118889,1,0,0:0:0:0:
416,192,118889,1,0,0:0:0:0:
352,192,119076,1,0,0:0:0:70:
352,192,119170,1,0,0:0:0:0:
224,192,119264,1,8,0:0:0:0:
288,192,119264,1,0,0:0:0:0:
96,192,119264,1,0,0:0:0:0:
160,192,119451,1,8,0:0:0:70:
160,192,119545,1,0,0:0:0:0:
480,192,119639,1,4,0:0:0:0:
352,192,119639,1,0,0:0:0:0:
224,192,119639,1,0,0:0:0:0:
416,192,119826,1,0,0:0:0:70:
416,192,119920,1,0,0:0:0:0:
32,192,120014,1,8,0:0:0:0:
160,192,120014,1,0,0:0:0:0:
352,192,120014,1,0,0:0:0:0:
160,192,120139,1,8,0:0:0:0:
416,192,120139,1,0,0:0:0:0:
160,192,120264,1,8,0:0:0:0:
480,192,120264,1,0,0:0:0:0:
32,192,120389,1,8,0:0:0:0:
416,192,120389,1,0,0:0:0:0:
96,192,120389,1,0,0:0:0:0:
416,192,120514,1,8,0:0:0:0:
160,192,120514,1,0,0:0:0:0:
416,192,120639,1,8,0:0:0:0:
224,192,120639,1,0,0:0:0:0:
32,192,120764,1,8,0:0:0:0:
288,192,120764,1,0,0:0:0:0:
480,192,120764,1,0,0:0:0:0:
288,192,120889,1,8,0:0:0:0:
416,192,120889,1,0,0:0:0:0:
288,192,121014,1,8,0:0:0:0:
352,192,121014,1,0,0:0:0:0:
96,192,121139,1,8,0:0:0:0:
160,192,121162,1,0,0:0:0:0:
224,192,121185,1,0,0:0:0:0:
288,192,121209,1,0,0:0:0:0:
352,192,121232,1,0,0:0:0:0:
416,192,121256,1,0,0:0:0:0:
480,192,121279,1,0,0:0:0:0:
96,192,121303,1,0,0:0:0:0:
160,192,121326,1,0,0:0:0:0:
224,192,121349,1,0,0:0:0:0:
288,192,121373,1,0,0:0:0:0:
352,192,121396,1,0,0:0:0:0:
416,192,121420,1,0,0:0:0:0:
480,192,121443,1,0,0:0:0:0:
96,192,121467,1,0,0:0:0:0:
160,192,121490,1,0,0:0:0:0:
224,192,121514,1,4,0:0:0:0:
32,192,121514,1,0,0:0:0:0:
352,192,121514,1,0,0:0:0:0:
