osu file format v14

[General]
AudioFilename: audio.mp3
AudioLeadIn: 0
PreviewTime: 117074
Countdown: 0
SampleSet: Soft
StackLeniency: 0.4
Mode: 0
LetterboxInBreaks: 0
EpilepsyWarning: 1
WidescreenStoryboard: 0

[Editor]
DistanceSpacing: 1
BeatDivisor: 8
GridSize: 16
TimelineZoom: 2.299999

[Metadata]
Title:conflict
TitleUnicode:conflict
Artist:siromaru + cranky
ArtistUnicode:siromaru + cranky
Creator:yf_bmp
Version:XLT's Expert
Source:THE BMS OF FIGHTERS 2011 - Intersection of conflict -
Tags:iimo HARMONIC SCHRANZ electronic conlang english BOF2011 Arcaea SOUND VOLTEX III GRAVITY WARS maimai FiNALE DX Cytus II Deemo VOEZ Synchronica Taiko no Tatsujin CHUNITHM O.N.G.E.K.I ongeki Muse Dash TAPSONIC TOP Groove Coaster Waiwai Party!!!! 2 Original Style RHYTHMVADERS WACCA SEVEN's CODE Dance Rail Respect PUMP IT UP Orzmic TAKUMI X_Light Yorita_Yoshino Setu StrengeMistake X Light Yorita Yoshino video rhythm game featured artist fa mappers' guild mappers mpg
BeatmapID:3321542
BeatmapSetID:1212359

[Difficulty]
HPDrainRate:5
CircleSize:4
OverallDifficulty:8
ApproachRate:9.6
SliderMultiplier:2
SliderTickRate:1

[Events]
//Background and Video events
0,0,"title.jpg",0,0
Video,1275,"conflict_output.mp4"
//Break Periods
//Storyboard Layer 0 (Background)
//Storyboard Layer 1 (Fail)
//Storyboard Layer 2 (Pass)
//Storyboard Layer 3 (Foreground)
//Storyboard Layer 4 (Overlay)
//Storyboard Sound Samples

[TimingPoints]
2981,375,4,2,3,60,1,0
12356,-71.4285714285714,4,2,3,60,0,0
13106,-83.3333333333333,4,2,3,70,0,0
14981,-66.6666666666667,4,2,3,70,0,0
15449,-66.6666666666667,4,2,1,70,0,0
15731,-50,4,2,1,70,0,0
16106,-66.6666666666667,4,2,1,70,0,0
16481,-50,4,2,1,70,0,0
16856,-79.9999999999999,4,2,1,70,0,0
17231,-133.333333333333,4,2,1,70,0,0
17606,-66.6666666666667,4,2,1,70,0,0
18731,-55.5555555555556,4,2,1,70,0,0
19856,-71.4285714285714,4,2,1,70,0,0
20043,-90.9090909090909,4,2,1,70,0,0
20981,-66.6666666666667,4,2,1,70,0,0
21731,-76.9230769230769,4,2,1,70,0,0
22106,-100,4,2,1,70,0,0
22481,-66.6666666666667,4,2,1,70,0,0
23981,-133.333333333333,4,2,1,70,0,0
24356,-166.666666666667,4,2,1,70,0,0
25762,-166.666666666667,4,2,3,70,0,0
26606,-66.6666666666667,4,2,3,70,0,0
27262,-66.6666666666667,4,2,1,70,0,0
27356,-76.9230769230769,4,2,1,70,0,0
27731,-66.6666666666667,4,2,1,70,0,0
28856,-76.9230769230769,4,2,1,70,0,0
29231,-133.333333333333,4,2,1,70,0,0
29606,-66.6666666666667,4,2,1,70,0,0
30356,-50,4,2,1,70,0,0
30731,-66.6666666666667,4,2,1,70,0,0
31856,-58.8235294117647,4,2,1,70,0,0
32231,-76.9230769230769,4,2,1,70,0,0
32606,-100,4,2,1,70,0,0
32981,-58.8235294117647,4,2,1,70,0,0
33731,-50,4,2,1,70,0,0
34106,-58.8235294117647,4,2,1,70,0,0
34856,-50,4,2,1,70,0,0
35606,-58.8235294117647,4,2,1,70,0,0
35793,-76.9230769230769,4,2,1,70,0,0
36356,-83.3333333333333,4,2,1,70,0,0
38793,-222.222222222221,4,2,2,70,0,0
38981,-66.6666666666667,4,2,1,70,0,0
49574,-66.6666666666667,4,2,3,70,0,0
50231,-66.6666666666667,4,2,2,70,0,0
50981,-66.6666666666667,4,2,3,70,0,0
51168,-100,4,2,3,70,0,0
51824,-100,4,2,1,70,0,0
54168,-133.333333333333,4,2,1,70,0,0
54261,-133.333333333333,4,2,3,70,0,0
54824,-133.333333333333,4,2,1,70,0,0
56606,-100,4,2,1,70,0,0
57168,-133.333333333333,4,2,1,70,0,0
57261,-133.333333333333,4,2,3,70,0,0
57637,-133.333333333333,4,2,1,70,0,0
59981,-200,4,2,1,70,0,0
61481,-66.6666666666667,4,2,1,70,0,0
61668,-66.6666666666667,4,2,3,5,0,0
61762,-66.6666666666667,4,2,3,70,0,0
61949,-66.6666666666667,4,2,3,5,0,0
62043,-83.3333333333333,4,2,3,70,0,0
62230,-83.3333333333333,4,2,3,5,0,0
62324,-83.3333333333333,4,2,3,70,0,0
62511,-83.3333333333333,4,2,3,5,0,0
62606,-83.3333333333333,4,2,3,70,0,0
62981,-83.3333333333333,4,2,3,60,0,0
63543,-133.333333333333,4,2,3,60,0,0
63731,-83.3333333333333,4,2,3,60,0,0
64293,-266.666666666667,4,2,3,60,0,0
64856,-133.333333333333,4,2,3,60,0,0
66731,-83.3333333333333,4,2,3,60,0,0
67293,-263.157894736842,4,2,3,60,0,0
68418,-133.333333333333,4,2,3,60,0,0
69731,-83.3333333333333,4,2,3,60,0,0
70293,-250,4,2,3,60,0,0
70856,-133.333333333333,4,2,3,60,0,0
72731,-100,4,2,3,60,0,0
74231,-200,4,2,2,40,0,0
74418,-200,4,2,2,50,0,0
74606,-200,4,2,2,60,0,0
74793,-200,4,2,2,70,0,0
74981,-100,4,2,3,50,0,0
76481,-100,4,2,3,55,0,0
77981,-100,4,2,3,60,0,0
78356,-83.3333333333333,4,2,3,60,0,0
79481,-83.3333333333333,4,2,3,65,0,0
80981,-83.3333333333333,4,2,3,70,0,0
81262,-83.3333333333333,4,2,1,70,0,0
86793,-100,4,2,1,70,0,0
86981,375,7,2,3,55,1,0
95231,-133.333333333333,7,2,3,70,0,0
96356,-133.333333333333,7,2,2,70,0,0
96543,-222.222222222222,7,2,2,70,0,0
96731,-100,7,2,2,50,0,0
97481,-100,7,2,3,60,0,0
98043,-71.4285714285714,7,2,3,60,0,0
99731,-83.3333333333333,7,2,3,60,0,0
102356,-66.6666666666667,7,2,3,60,0,0
102731,-76.9230769230769,7,2,3,60,0,0
103856,-71.4285714285714,7,2,3,60,0,0
107043,-71.4285714285714,7,2,3,70,0,0
107231,-50,7,2,3,70,0,0
107606,-100,7,2,3,70,0,0
107652,-100,7,2,3,20,0,0
107699,-100,7,2,3,70,0,0
107746,-100,7,2,3,20,0,0
107793,-100,7,2,3,70,0,0
108262,-333.333333333333,7,2,3,40,0,0
110231,-333.333333333333,7,2,3,35,0,0
110887,-333.333333333333,7,2,3,50,0,0
111168,-250,7,2,3,50,0,0
111449,-200,7,2,3,50,0,0
111731,-166.666666666667,7,2,3,50,0,0
112012,-142.857142857143,7,2,3,50,0,0
112293,-125,7,2,3,50,0,0
112574,-111.111111111111,7,2,3,50,0,0
112856,-111.111111111111,7,2,3,45,0,0
113277,-111.111111111111,7,2,1,45,0,0
113512,-111.111111111111,7,2,1,60,0,0
115481,-111.111111111111,7,2,1,55,0,0
115856,375,4,2,1,25,1,0
115902,-100,4,2,1,50,0,0
115949,-100,4,2,3,50,0,0
116231,-100,4,2,2,40,0,0
116606,-100,4,2,2,50,0,0
116981,-100,4,2,2,70,0,0
117168,-66.6666666666667,4,2,2,70,0,0
117257,-66.6666666666667,4,2,3,5,0,0
117356,-55.5555555555556,4,2,3,70,0,0
117543,-55.5555555555556,4,2,3,5,0,0
117637,-55.5555555555556,4,2,3,70,0,0
117824,-55.5555555555556,4,2,3,5,0,0
117918,-55.5555555555556,4,2,3,70,0,0
118105,-55.5555555555556,4,2,3,5,0,0
118199,-55.5555555555556,4,2,3,70,0,0
118386,-55.5555555555556,4,2,3,5,0,0
118481,-55.5555555555556,4,2,3,70,0,0
118856,-66.6666666666667,4,2,3,70,0,1
119324,-66.6666666666667,4,2,1,70,0,1
119606,-50,4,2,1,70,0,1
119981,-66.6666666666667,4,2,1,70,0,1
120356,-50,4,2,1,70,0,1
120731,-71.4285714285714,4,2,1,70,0,1
121106,-100,4,2,1,70,0,1
121481,-66.6666666666667,4,2,1,70,0,1
122606,-50,4,2,1,70,0,1
122981,-66.6666666666667,4,2,1,70,0,1
124106,-83.3333333333333,4,2,1,70,0,1
124856,-55.5555555555556,4,2,1,70,0,1
125231,-66.6666666666667,4,2,1,70,0,1
127106,-76.9230769230769,4,2,1,70,0,1
127856,-125,4,2,1,70,0,1
129356,-125,4,2,1,70,0,0
129637,-125,4,2,3,70,0,0
130481,-66.6666666666667,4,2,3,70,0,0
130856,-52.6315789473684,4,2,3,70,0,1
131137,-52.6315789473684,4,2,1,70,0,1
131231,-76.9230769230769,4,2,1,70,0,1
131606,-58.8235294117647,4,2,1,70,0,1
131981,-71.4285714285714,4,2,1,70,0,1
132168,-58.8235294117647,4,2,1,70,0,1
132731,-71.4285714285714,4,2,1,70,0,1
132918,-90.9090909090909,4,2,1,70,0,1
133106,-125,4,2,1,70,0,1
133481,-71.4285714285714,4,2,1,70,0,1
133856,-58.8235294117647,4,2,1,70,0,1
134606,-71.4285714285714,4,2,1,70,0,1
134981,-58.8235294117647,4,2,1,70,0,1
136106,-90.9090909090909,4,2,1,70,0,1
136481,-71.4285714285714,4,2,1,70,0,1
136856,-58.8235294117647,4,2,1,70,0,1
137606,-50,4,2,1,70,0,1
137981,-58.8235294117647,4,2,1,70,0,1
138731,-50,4,2,1,70,0,1
139481,-66.6666666666667,4,2,1,70,0,1
140231,-83.3333333333333,4,2,1,70,0,1
140981,-71.4285714285714,4,2,1,70,0,1
142856,-62.5,4,2,1,70,0,1
143231,-55.5555555555556,4,2,1,70,0,1
143606,-66.6666666666667,4,2,1,70,0,1
143981,-55.5555555555556,4,2,1,70,0,1
145106,-62.5,4,2,1,70,0,1
147356,-200,4,2,1,70,0,0
147449,-200,4,2,3,5,0,0

[Colours]
Combo1 : 16,120,175
Combo2 : 97,6,170
Combo3 : 4,68,155
Combo4 : 141,7,108

[HitObjects]
16,171,2981,5,4,1:0:0:0:
30,179,3168,2,0,P|104:163|116:121,1,100,2|0,2:0|1:0,2:0:0:0:
202,15,3543,6,0,P|230:55|278:59,1,100,2|0,2:0|1:0,2:0:0:0:
362,158,3918,2,0,P|396:123|444:127,1,100,2|0,2:0|1:0,2:0:0:0:
479,229,4293,6,0,P|444:263|396:259,1,100,2|0,2:0|1:0,2:0:0:0:
342,384,4668,2,0,P|307:349|259:353,1,100,2|0,2:0|1:0,2:0:0:0:
215,182,5043,6,0,P|166:178|132:212,1,100,2|0,2:0|1:0,2:0:0:0:
15,329,5418,2,0,P|49:363|97:359,2,100,2|0|2,2:0|1:0|2:0,2:0:0:0:
193,192,5981,5,0,1:0:0:0:
183,384,6168,2,0,P|174:315|162:277,1,100,2|0,2:0|1:0,2:0:0:0:
140,111,6543,6,0,P|144:44|151:1,1,100,2|0,2:0|1:0,2:0:0:0:
0,207,6918,2,0,P|53:227|104:211,1,100,2|0,2:0|1:0,2:0:0:0:
219,179,7293,6,0,P|267:169|319:167,1,100,2|0,2:0|1:0,2:0:0:0:
509,223,7668,2,0,P|456:243|405:227,1,100,2|0,2:0|1:0,2:0:0:0:
367,11,8043,6,0,P|373:60|375:110,1,100,2|0,2:0|1:0,2:0:0:0:
448,159,8418,1,2,2:0:0:0:
347,263,8606,5,0,1:0:0:0:
339,283,8699,1,0,1:0:0:0:
335,306,8793,1,0,3:0:0:0:
331,328,8887,1,0,3:0:0:0:
330,350,8981,1,10,1:3:0:0:
243,255,9168,6,0,P|260:186|245:138,1,100,2|2,2:0|1:3,2:0:0:0:
397,174,9543,2,0,P|447:223|486:230,1,100,2|2,2:0|1:3,2:0:0:0:
391,346,9918,2,0,P|322:364|282:422,1,100,2|2,2:0|1:3,2:0:0:0:
150,345,10293,6,0,L|50:321,1,100,2|2,2:0|1:3,2:0:0:0:
42,106,10668,2,0,L|139:129,1,100,2|2,2:0|1:3,2:0:0:0:
252,262,11043,6,0,L|152:238,1,100,2|2,2:0|1:3,2:0:0:0:
144,23,11418,2,0,L|241:46,1,100,2|2,2:0|1:3,2:0:0:0:
369,127,11793,6,0,P|438:119|487:109,1,100,2|8,2:0|1:3,2:0:0:0:
295,212,12168,1,2,2:0:0:0:
204,177,12356,6,0,B|150:160|117:206|125:263|182:291|235:255|235:255|289:215|357:236|378:298|362:340,1,420,2|0,1:3|2:0,2:0:0:0:
287,378,13106,6,0,P|266:386|278:362,1,60,2|0,1:3|2:0,2:0:0:0:
502,252,13293,2,0,P|474:261|449:277,1,60,2|0,2:0|2:0,2:0:0:0:
344,300,13481,5,0,1:0:0:0:
382,328,13574,1,2,1:2:0:0:
400,372,13668,1,2,1:2:0:0:
168,300,13856,5,0,1:0:0:0:
130,328,13949,1,2,1:2:0:0:
112,372,14043,1,2,1:2:0:0:
256,266,14231,5,0,1:0:0:0:
266,219,14324,1,0,2:0:0:0:
254,172,14418,1,0,2:0:0:0:
17,101,14606,5,0,1:0:0:0:
10,154,14699,1,0,2:0:0:0:
39,198,14793,1,0,3:0:0:0:
92,202,14887,1,0,3:0:0:0:
135,169,14981,6,0,B|205:128|134:89|210:43,1,150,4|0,1:0|3:0,2:0:0:0:
307,107,15262,1,0,3:2:0:0:
322,129,15356,6,0,P|280:115|247:110,1,75,8|0,1:2|2:0,2:0:0:0:
110,16,15543,2,0,P|83:38|95:74,1,75,0|2,3:0|3:2,2:0:0:0:
19,216,15731,6,0,P|112:247|176:326,1,200,8|0,1:2|3:0,2:0:0:0:
262,347,16012,1,0,3:0:0:0:
152,384,16106,6,0,B|159:301|214:337|220:238,1,150,8|0,1:2|2:0,2:0:0:0:
151,171,16387,1,2,1:2:0:0:
213,116,16481,6,0,B|319:124|274:196|393:206,1,200,8|0,1:2|3:2,2:0:0:0:
434,92,16762,1,0,2:0:0:0:
431,78,16856,6,0,P|407:77|393:112,1,62.5000000000001,0|0,2:0|2:0,2:0:0:0:
249,300,17043,2,0,P|273:295|316:272,1,62.5000000000001,0|2,3:2|1:2,2:0:0:0:
290,164,17231,6,0,P|296:186|323:189,1,37.5000000000001,8|0,1:2|2:0,2:0:0:0:
431,240,17418,5,0,1:2:0:0:
431,240,17512,1,0,2:0:0:0:
431,240,17606,2,0,P|475:244|499:278,1,75,8|0,1:2|2:0,2:0:0:0:
461,357,17793,2,0,P|420:349|393:316,1,75,0|0,3:0|1:0,2:0:0:0:
292,333,17981,6,0,P|204:331|148:379,1,150,8|0,1:2|3:0,2:0:0:0:
67,291,18262,1,2,1:2:0:0:
60,299,18356,2,0,P|45:282|79:292,1,75,8|0,1:2|2:0,2:0:0:0:
166,384,18543,6,0,P|176:329|179:285,1,75,0|0,3:0|3:0,2:0:0:0:
273,205,18731,6,0,B|180:191|234:136|126:113,1,180,8|0,1:2|3:0,2:0:0:0:
203,9,19012,5,0,3:0:0:0:
254,67,19106,2,0,B|240:160|185:106|162:214,1,180,8|0,1:2|2:0,2:0:0:0:
130,294,19387,1,2,3:2:0:0:
55,340,19481,6,0,B|149:311|186:320|169:349|234:338,1,180,8|0,1:2|3:2,2:0:0:0:
318,245,19762,1,0,2:0:0:0:
298,241,19856,6,0,L|222:258,1,70,0|0,2:0|2:0,2:0:0:0:
324,384,20043,2,0,L|317:327,1,55,0|0,3:2|3:2,2:0:0:0:
323,80,20231,6,0,L|317:137,1,55,8|0,1:2|2:0,2:0:0:0:
388,284,20418,1,0,3:0:0:0:
407,318,20512,1,2,3:2:0:0:
454,331,20606,5,0,1:2:0:0:
462,277,20699,1,0,2:0:0:0:
437,227,20793,1,0,3:0:0:0:
385,206,20887,1,2,3:2:0:0:
311,191,20981,6,0,B|223:197|266:242|172:251,1,150,8|0,1:2|3:0,2:0:0:0:
121,151,21262,1,2,3:2:0:0:
151,80,21356,6,0,P|185:60|226:141,1,150,8|0,1:2|3:0,2:0:0:0:
320,274,21637,1,2,3:2:0:0:
329,264,21731,6,0,P|357:247|401:262,1,65,8|0,1:2|2:0,2:0:0:0:
181,214,21918,2,0,P|164:184|117:176,1,65,0|2,3:0|3:2,2:0:0:0:
299,98,22106,6,0,P|287:126|281:160,1,50,8|0,1:2|2:0,2:0:0:0:
259,249,22293,5,0,2:0:0:0:
287,316,22387,1,2,3:2:0:0:
251,383,22481,6,0,B|237:303|308:331|280:226,1,150,8|0,1:2|3:2,2:0:0:0:
208,121,22762,1,0,2:0:0:0:
187,110,22856,6,0,P|117:121|122:201,1,150,0|0,2:0|3:2,2:0:0:0:
260,177,23137,1,2,3:2:0:0:
276,150,23231,6,0,P|316:136|357:126,1,75,8|0,1:2|2:0,2:0:0:0:
162,1,23418,2,0,P|169:37|173:74,1,75,0|0,3:2|3:0,2:0:0:0:
138,241,23606,5,8,1:2:0:0:
95,255,23699,1,0,1:0:0:0:
55,233,23793,1,0,3:0:0:0:
32,193,23887,1,2,1:2:0:0:
30,139,23981,6,0,L|42:93,1,37.5000000000001,8|0,1:2|2:0,2:0:0:0:
83,17,24168,1,0,3:0:0:0:
92,41,24262,1,0,3:0:0:0:
119,112,24356,6,0,L|163:128,1,29.9999999999999,8|0,1:2|2:0,2:0:0:0:
185,51,24543,1,0,3:0:0:0:
217,38,24637,1,0,3:0:0:0:
257,2,24731,5,8,1:2:0:0:
289,21,24824,1,0,2:0:0:0:
305,64,24918,1,0,3:0:0:0:
285,114,25012,1,0,3:0:0:0:
251,160,25106,5,8,1:2:0:0:
273,211,25199,1,0,2:0:0:0:
326,230,25293,1,0,3:0:0:0:
373,261,25387,1,0,3:0:0:0:
386,315,25481,5,0,1:0:0:0:
46,216,25762,5,0,2:0:0:0:
46,216,25856,1,2,1:2:0:0:
452,97,26137,5,8,2:0:0:0:
452,97,26231,1,2,1:2:0:0:
308,314,26418,1,0,2:0:0:0:
237,154,26606,6,0,P|296:174|336:189,1,75,8|0,1:0|2:0,2:0:0:0:
439,248,26793,2,0,B|456:259|486:236|470:205|448:206,1,75,0|0,2:0|2:0,2:0:0:0:
338,122,26981,6,0,B|259:114|238:165|243:164|223:216|137:202,1,225,4|0,1:0|2:0,2:0:0:0:
50,88,27356,6,0,P|69:119|82:149,1,65,2|0,1:0|2:0,2:0:0:0:
123,384,27543,2,0,P|104:381|96:329,1,65,2|2,3:2|3:1,2:0:0:0:
12,251,27731,6,0,B|92:236|148:296,1,150,2|0,1:2|2:0,2:0:0:0:
250,368,28012,1,0,3:0:0:0:
250,368,28106,6,0,B|202:290|275:294|237:220,1,150,2|2,1:0|3:1,2:0:0:0:
218,99,28387,1,2,3:2:0:0:
239,113,28481,6,0,B|327:132|273:182|353:206,1,150,2|0,1:2|3:0,2:0:0:0:
103,189,28762,1,0,2:0:0:0:
118,194,28856,6,0,P|159:180|195:176,1,65,2|0,1:0|2:0,2:0:0:0:
320,61,29043,2,0,P|327:27|290:2,1,65,0|2,3:0|3:1,2:0:0:0:
269,169,29231,6,0,P|287:162|295:143,1,37.5000000000001,8|2,1:2|2:1,2:0:0:0:
451,65,29418,5,0,2:0:0:0:
451,65,29512,1,0,2:0:0:0:
451,65,29606,2,0,P|408:102|411:136,1,75,2|0,1:0|2:0,2:0:0:0:
438,224,29793,2,0,P|475:242|503:269,1,75,0|2,3:1|1:0,2:1:0:0:
500,362,29981,6,0,P|425:330|348:331,1,150,8|2,1:2|3:2,2:0:0:0:
256,296,30262,1,0,2:0:0:0:
275,381,30356,6,0,B|240:332|277:279|281:283|308:254|270:192,1,200,2|0,1:0|3:2,2:0:0:0:
291,65,30637,1,2,3:1:0:0:
274,15,30731,6,0,P|263:62|261:104,1,75,2|2,1:2|2:1,2:0:0:0:
371,206,30918,2,0,P|385:204|408:249,1,75,0|2,2:0|3:2,2:0:0:0:
506,57,31106,6,0,B|445:75|445:75|426:103|426:103|366:121,1,150,2|0,1:0|3:0,2:0:0:0:
256,117,31387,1,0,2:0:0:0:
212,191,31481,6,0,P|308:233|329:292,1,150,8|0,1:2|3:0,2:0:0:0:
471,342,31762,1,2,3:1:0:0:
390,375,31856,6,0,P|402:286|426:182,1,170,2|0,1:2|3:0,2:0:0:0:
448,117,32137,1,2,3:1:0:0:
463,112,32231,6,0,P|433:90|400:91,1,65,2|2,1:2|2:1,2:0:0:0:
221,63,32418,2,0,P|204:100|209:124,1,65,0|2,2:0|3:2,2:0:0:0:
293,3,32606,6,0,P|308:35|314:61,1,50,2|0,1:0|2:0,2:0:0:0:
262,181,32793,5,2,3:1:0:0:
215,217,32887,1,0,2:0:0:0:
165,193,32981,6,0,B|63:209|130:276|23:297,1,170,2|2,1:0|3:1,2:0:0:0:
36,165,33356,6,0,B|54:257|121:190|137:292,1,170,2|0,1:0|3:0,2:0:0:0:
229,384,33637,1,0,2:0:0:0:
288,337,33731,6,0,B|406:318|326:238|454:212,1,200,2|2,1:0|3:1,2:0:0:0:
467,353,34012,1,0,2:0:0:0:
379,373,34106,6,0,P|357:274|336:195,1,170,2|0,1:0|3:0,2:0:0:0:
333,25,34481,6,0,B|435:41|368:108|475:129,1,170,8|2,1:2|3:1,2:0:0:0:
464,0,34856,6,0,B|443:109|362:29|343:151,1,200,2|0,1:0|3:0,2:0:0:0:
270,232,35137,1,2,3:2:0:0:
205,183,35231,6,0,B|90:166|170:86|42:63,1,200,2|0,1:0|2:0,2:0:0:0:
180,13,35512,1,2,3:1:0:0:
165,40,35606,6,0,P|156:93|151:143,1,85,2|2,1:2|2:1,2:0:0:0:
23,199,35793,2,0,P|37:219|75:219,1,65,2|0,3:2|2:0,2:0:0:0:
204,282,35981,5,8,1:2:0:0:
160,272,36074,1,2,2:1:0:0:
117,286,36168,1,0,3:0:0:0:
92,326,36262,1,0,2:0:0:0:
154,370,36356,6,0,P|170:342|165:301,1,60,8|0,1:2|2:0,2:0:0:0:
365,303,36543,2,0,P|354:270|328:252,1,60,0|2,3:0|3:1,2:0:0:0:
257,383,36731,5,8,1:2:0:0:
265,332,36824,1,2,2:1:0:0:
247,285,36918,1,0,3:0:0:0:
227,235,37012,1,0,2:0:0:0:
242,179,37106,6,0,L|251:90,1,60,8|2,1:2|2:1,2:0:0:0:
93,88,37293,2,0,P|119:102|136:126,1,60,2|0,3:2|2:0,2:0:0:0:
228,41,37481,5,0,3:0:0:0:
273,53,37574,1,0,2:0:0:0:
319,42,37668,1,0,3:0:0:0:
359,15,37762,1,0,3:0:0:0:
316,86,37856,5,0,3:0:0:0:
344,70,37949,1,0,2:0:0:0:
357,42,38043,1,0,3:0:0:0:
347,13,38137,1,0,3:0:0:0:
286,49,38231,5,2,1:2:0:0:
269,102,38324,1,2,2:0:0:0:
260,163,38418,1,2,3:2:0:0:
256,236,38512,1,2,3:2:0:0:
268,314,38606,1,8,1:2:0:0:
276,328,38793,6,0,L|274:363,1,22.5000000000001,2|0,3:2|3:0,2:0:0:0:
315,371,38981,6,0,P|302:290|287:194,1,150,4|0,1:0|2:0,2:0:0:0:
369,144,39262,1,0,3:0:0:0:
373,154,39356,1,8,1:3:0:0:
144,335,39543,6,0,P|193:308|224:296,1,75,0|0,3:0|2:0,2:0:0:0:
480,301,39731,5,8,1:3:0:0:
405,307,39824,1,0,2:0:0:0:
366,245,39918,1,0,3:0:0:0:
283,209,40106,5,8,1:3:0:0:
241,133,40293,37,0,3:0:0:0:
167,129,40387,1,0,3:0:0:0:
129,194,40481,1,8,1:3:0:0:
62,266,40668,5,0,3:0:0:0:
0,338,40856,37,8,1:3:0:0:
73,322,40949,1,0,2:0:0:0:
132,368,41043,1,0,2:0:0:0:
28,121,41231,5,0,1:3:0:0:
54,89,41324,1,0,1:0:0:0:
96,112,41418,1,0,3:0:0:0:
140,131,41512,5,0,2:0:0:0:
194,86,41606,2,0,P|187:43|174:-1,1,75,8|0,1:3|2:0,2:0:0:0:
88,203,41793,2,0,P|109:235|145:232,1,75,0|0,3:0|2:0,2:0:0:0:
252,194,41981,6,0,P|347:204|388:243,1,150,8|0,1:3|3:0,2:0:0:0:
351,161,42262,1,0,3:0:0:0:
389,96,42356,1,8,1:3:0:0:
245,16,42543,6,0,P|252:52|257:89,1,75,0|0,3:0|3:0,2:0:0:0:
384,238,42731,5,8,1:3:0:0:
350,304,42824,1,0,2:0:0:0:
274,300,42918,1,0,3:0:0:0:
214,377,43106,5,8,1:3:0:0:
134,331,43293,37,0,3:0:0:0:
103,262,43387,1,0,3:0:0:0:
30,276,43481,1,8,1:3:0:0:
60,185,43668,5,0,3:0:0:0:
56,86,43856,37,8,1:3:0:0:
125,113,43949,1,0,2:0:0:0:
172,56,44043,1,0,3:0:0:0:
290,214,44231,5,0,3:0:0:0:
286,196,44324,1,0,3:0:0:0:
269,205,44418,1,0,3:0:0:0:
65,188,44606,6,0,P|105:168|138:156,1,75,8|0,1:3|3:0,2:0:0:0:
294,84,44793,2,0,P|310:111|280:109,1,75,0|0,3:0|3:0,2:0:0:0:
181,3,44981,6,0,P|190:49|211:166,1,150,8|0,1:3|3:0,2:0:0:0:
190,247,45262,1,0,3:0:0:0:
236,311,45356,1,8,1:3:0:0:
87,370,45543,6,0,P|73:356|124:334,1,75,0|0,3:0|3:0,2:0:0:0:
47,245,45731,5,8,1:3:0:0:
91,185,45824,1,0,2:0:0:0:
163,206,45918,2,0,P|205:190|253:168,1,75,0|0,3:0|3:0,2:0:0:0:
285,109,46106,5,8,1:3:0:0:
330,8,46293,5,0,3:0:0:0:
391,54,46387,1,0,3:0:0:0:
369,126,46481,2,0,P|380:167|388:207,1,75,8|0,1:3|2:0,2:0:0:0:
363,282,46668,5,0,3:0:0:0:
455,306,46856,5,8,1:3:0:0:
413,374,46949,1,0,2:0:0:0:
336,359,47043,2,0,P|274:350|245:347,1,75,0|0,3:0|2:0,2:0:0:0:
114,369,47231,5,0,1:0:0:0:
89,349,47324,1,0,1:0:0:0:
77,308,47418,1,0,3:0:0:0:
102,275,47512,1,0,2:0:0:0:
180,298,47606,6,0,P|174:268|168:222,1,75,8|0,1:3|2:0,2:0:0:0:
41,218,47793,2,0,P|47:181|55:144,1,75,0|0,3:0|3:0,2:0:0:0:
48,31,47981,6,0,P|136:29|171:76,1,150,8|0,1:3|3:0,2:0:0:0:
242,158,48262,1,0,3:0:0:0:
323,135,48356,1,8,1:3:0:0:
265,1,48543,6,0,P|258:41|255:92,1,75,0|0,3:0|3:0,2:0:0:0:
156,147,48731,5,8,1:3:0:0:
103,200,48824,1,0,2:0:0:0:
156,253,48918,2,0,P|164:289|172:326,1,75,0|0,3:0|3:0,2:0:0:0:
256,288,49106,5,8,1:3:0:0:
326,367,49293,5,0,3:0:0:0:
379,314,49387,1,0,3:0:0:0:
336,251,49481,2,0,P|328:195|325:164,1,75,2|0,3:1|2:0,2:0:0:0:
239,197,49668,6,0,P|241:114|246:28,2,150,0|2|2,2:0|2:0|2:0,2:0:0:0:
245,214,50137,1,0,2:0:0:0:
347,243,50231,6,0,P|376:254|428:268,1,75,0|0,3:0|3:0,2:0:0:0:
168,360,50418,2,0,P|136:348|93:336,1,75,0|0,3:0|2:0,2:0:0:0:
256,288,50606,5,0,3:0:0:0:
264,269,50699,1,0,3:0:0:0:
239,240,50793,5,0,3:0:0:0:
270,198,50887,1,0,2:0:0:0:
240,127,50981,5,6,1:0:0:0:
76,39,51168,6,0,P|117:57|143:69,1,50,0|0,3:0|2:0,2:0:0:0:
161,193,51356,2,0,P|142:224|127:253,1,50,8|0,1:3|2:0,2:0:0:0:
206,2,51543,5,2,3:1:0:0:
237,29,51637,1,0,2:0:0:0:
222,75,51731,5,8,1:3:0:0:
209,120,51824,1,2,2:1:0:0:
245,152,51918,1,0,3:0:0:0:
263,238,52106,5,2,1:0:0:0:
323,99,52293,5,0,3:0:0:0:
366,136,52387,1,0,2:0:0:0:
346,189,52481,1,0,2:0:0:0:
386,297,52668,5,2,3:1:0:0:
427,59,52856,5,8,1:3:0:0:
476,115,52949,1,0,2:0:0:0:
452,186,53043,1,0,2:0:0:0:
128,320,53231,5,8,1:3:0:0:
169,304,53324,1,2,1:0:0:0:
213,310,53418,1,0,3:0:0:0:
242,344,53512,1,0,2:0:0:0:
278,364,53606,5,2,1:0:0:0:
321,356,53699,1,0,2:0:0:0:
332,312,53793,1,0,3:0:0:0:
377,308,53887,1,0,3:0:0:0:
412,336,53981,5,2,1:0:0:0:
431,56,54168,6,0,B|427:76|427:76|438:89,1,37.5000000000001,0|0,3:0|2:0,2:0:0:0:
471,211,54356,2,0,B|483:199|483:199|504:198,1,37.5000000000001,8|0,1:3|2:0,2:0:0:0:
383,156,54543,5,2,3:1:0:0:
348,170,54637,1,0,2:0:0:0:
356,213,54731,5,8,1:3:0:0:
369,255,54824,1,2,2:1:0:0:
338,269,54918,1,0,3:0:0:0:
292,94,55106,5,2,1:0:0:0:
256,171,55293,5,0,2:0:0:0:
271,220,55387,1,0,2:0:0:0:
239,241,55481,1,0,2:0:0:0:
182,30,55668,5,2,3:1:0:0:
131,50,55762,1,0,3:0:0:0:
147,119,55856,5,8,1:3:0:0:
165,187,55949,1,2,2:1:0:0:
96,218,56043,1,2,2:0:0:0:
45,377,56231,5,8,1:3:0:0:
1,351,56324,1,2,1:2:0:0:
19,298,56418,1,2,3:1:0:0:
8,137,56606,6,0,B|36:128|36:128|56:150,1,50,2|0,1:0|1:0,2:0:0:0:
234,90,56793,2,0,B|243:118|243:118|227:131,1,50,2|0,3:2|3:0,2:0:0:0:
259,310,56981,5,2,1:0:0:0:
416,355,57168,6,0,B|398:354|398:354|387:339,1,37.5000000000001,0|0,3:0|2:0,2:0:0:0:
133,340,57356,2,0,B|122:355|122:355|94:357,1,37.5000000000001,8|0,1:3|2:0,2:0:0:0:
86,267,57543,5,2,3:1:0:0:
130,246,57637,1,0,2:0:0:0:
175,226,57731,5,8,1:3:0:0:
198,270,57824,1,2,2:1:0:0:
219,315,57918,1,0,3:0:0:0:
139,343,58106,5,2,1:0:0:0:
142,220,58293,5,0,3:0:0:0:
196,195,58387,1,2,3:1:0:0:
222,249,58481,1,8,1:3:0:0:
106,135,58668,5,2,3:1:0:0:
174,102,58762,1,0,3:0:0:0:
244,70,58856,5,8,1:3:0:0:
278,140,58949,1,2,2:1:0:0:
310,209,59043,1,2,2:0:0:0:
488,0,59231,5,8,1:3:0:0:
511,28,59324,1,2,1:0:0:0:
512,70,59418,1,0,3:0:0:0:
493,98,59512,1,0,2:0:0:0:
430,133,59606,5,2,1:0:0:0:
405,104,59699,1,0,2:0:0:0:
426,73,59793,1,0,2:0:0:0:
397,42,59887,1,0,3:0:0:0:
346,50,59981,6,0,L|339:88,2,25,2|0|0,1:0|1:0|3:0,2:0:0:0:
166,50,60356,2,0,L|173:88,2,25,0|0|2,1:0|3:0|1:0,2:0:0:0:
256,16,60731,5,0,1:0:0:0:
250,43,60824,1,2,2:1:0:0:
261,72,60918,1,2,3:1:0:0:
248,109,61012,1,0,3:0:0:0:
265,149,61106,5,2,1:0:0:0:
244,193,61199,1,0,1:0:0:0:
273,234,61293,1,2,3:1:0:0:
240,281,61387,1,0,3:0:0:0:
312,312,61481,6,2,B|358:320|358:320|389:365|389:365|439:376,1,150,4|0,1:2|2:0,2:1:0:0:
201,311,61762,2,2,B|155:319|155:319|124:364|124:364|76:374,1,150,4|0,1:2|2:0,2:1:0:0:
327,361,62043,6,2,B|363:354|363:354|388:318|388:318|428:311,1,120,4|0,1:2|2:0,2:1:0:0:
185,361,62324,2,2,B|149:354|149:354|124:318|124:318|85:311,1,120,4|0,1:2|2:0,2:1:0:0:
238,233,62606,6,2,L|243:200,3,30,0|0|0|0,3:0|3:0|3:0|3:0,2:1:0:0:
214,260,62793,2,0,L|181:255,3,30,0|0|0|0,3:0|3:0|3:0|3:0,2:1:0:0:
256,288,62981,5,4,2:0:0:0:
187,310,63168,1,0,2:0:0:0:
139,364,63356,1,2,2:0:0:0:
165,384,63543,6,0,P|148:378|118:371,1,37.5000000000001,0|0,2:0|2:0,2:0:0:0:
56,322,63731,6,0,B|12:275|26:213|58:192|114:195|70:91,1,240,4|0,2:3|2:0,2:0:0:0:
78,96,64293,6,0,P|83:75|69:86,1,37.5,2|2,2:0|2:0,2:0:0:0:
26,362,64668,5,0,2:0:0:0:
20,198,64856,2,0,P|59:212|101:234,1,75.0000000000002,0|2,2:0|2:0,2:0:0:0:
169,187,65231,6,0,P|238:178|268:117,1,112.5,4|0,2:3|2:0,2:0:0:0:
260,124,65606,2,0,P|273:68|284:27,1,75.0000000000002,2|0,2:0|2:0,2:0:0:0:
406,25,65981,5,8,2:0:0:0:
376,90,66168,1,0,2:0:0:0:
411,166,66356,1,0,2:0:0:0:
477,194,66543,6,0,P|505:202|525:210,1,37.5000000000001,2|0,2:0|2:0,2:0:0:0:
467,104,66731,6,0,B|400:95|369:165|387:164|336:230|268:200,1,240,4|0,2:3|2:0,2:0:0:0:
255,209,67293,6,0,P|257:190|277:193,1,38,2|8,2:0|2:0,2:0:0:0:
152,342,67668,5,0,2:0:0:0:
223,325,67856,1,0,2:0:0:0:
141,371,68043,5,2,2:0:0:0:
148,368,68137,1,2,2:0:0:0:
155,365,68231,1,4,2:3:0:0:
280,256,68418,6,0,B|305:247|305:247|344:343,1,112.5,0|0,2:0|2:0,2:0:0:0:
358,325,68793,1,0,2:0:0:0:
411,244,68981,5,8,2:0:0:0:
372,165,69168,1,0,2:0:0:0:
423,98,69356,1,0,2:0:0:0:
425,29,69543,6,0,P|428:47|431:65,1,37.5000000000001,0|0,2:0|2:0,2:0:0:0:
337,107,69731,6,0,B|277:107|243:64|254:62|218:13|157:6|106:29,1,240,4|0,2:3|2:0,2:0:0:0:
108,16,70293,6,0,P|126:13|118:27,1,40,2|8,2:0|2:0,2:0:0:0:
153,111,70668,5,0,2:0:0:0:
351,38,70856,2,0,P|318:47|278:65,1,75.0000000000002,0|2,2:0|2:0,2:0:0:0:
206,2,71231,5,4,2:3:0:0:
250,148,71418,2,0,P|271:218|282:277,1,112.5,0|0,2:0|2:0,2:0:0:0:
270,282,71793,2,0,L|309:298,1,37.5000000000001,2|0,2:0|2:0,2:0:0:0:
200,351,71981,5,8,2:0:0:0:
131,371,72168,1,0,2:0:0:0:
62,324,72356,1,0,2:0:0:0:
148,263,72543,6,0,P|169:278|165:297,1,37.5000000000001,2|0,2:0|2:0,2:0:0:0:
70,236,72731,6,0,B|65:176|152:103|227:136,1,200,4|0,2:3|2:0,2:0:0:0:
192,0,73293,6,0,P|199:17|210:52,1,50,2|0,2:0|2:0,2:0:0:0:
289,82,73481,1,8,2:0:0:0:
220,144,73668,5,2,2:0:0:0:
250,169,73762,1,2,2:0:0:0:
248,199,73856,5,2,2:0:0:0:
261,220,73949,1,2,2:0:0:0:
264,244,74043,5,2,2:0:0:0:
273,258,74137,1,2,2:0:0:0:
275,288,74231,6,0,L|279:322,3,25,2|0|0|0,3:2|3:2|3:2|3:2,2:0:0:0:
242,376,74606,5,2,3:2:0:0:
103,295,74793,1,2,3:2:0:0:
0,332,74981,6,0,L|152:308,1,150,4|0,1:0|2:0,2:0:0:0:
270,359,75356,6,0,P|244:341|218:350,1,50,0|0,1:0|2:0,2:0:0:0:
142,300,75543,1,2,2:0:0:0:
191,227,75731,6,0,L|167:78,1,150,8|0,1:2|2:0,2:0:0:0:
22,41,76106,6,0,L|70:27,1,50,0|0,1:0|2:0,2:0:0:0:
157,64,76293,1,2,2:0:0:0:
249,64,76481,6,0,L|401:88,1,150,8|0,1:2|2:0,2:0:0:0:
469,2,76856,6,0,P|487:27|478:53,1,50,0|0,1:0|2:0,2:0:0:0:
391,96,77043,1,2,2:0:0:0:
440,169,77231,6,0,L|423:290,1,100,8|0,1:2|2:0,2:0:0:0:
211,280,77606,2,0,L|224:180,1,100,8|0,1:2|2:0,2:0:0:0:
331,215,77981,6,0,L|307:363,1,150,8|0,1:2|2:0,2:0:0:0:
299,371,78356,6,0,B|243:362|257:337|269:312|216:294,1,120,8|0,1:2|2:0,2:0:0:0:
28,369,78731,6,0,P|96:361|132:313,1,120,8|0,1:2|2:0,2:0:0:0:
177,183,79106,2,0,P|157:117|103:90,1,120,8|0,1:2|2:0,2:0:0:0:
23,185,79481,6,0,P|68:236|128:238,1,120,8|2,1:2|2:0,2:0:0:0:
281,194,79856,2,0,P|310:129|302:60,1,120,8|0,1:2|2:0,2:0:0:0:
64,320,80231,5,0,1:0:0:0:
197,29,80418,5,8,2:0:0:0:
161,148,80606,1,0,1:0:0:0:
231,235,80793,1,8,2:0:0:0:
261,339,80981,5,8,1:2:0:0:
345,270,81168,5,0,3:0:0:0:
358,311,81262,1,0,2:0:0:0:
365,353,81356,1,0,2:0:0:0:
454,384,81543,6,0,P|457:330|459:310,1,60,0|0,3:0|3:0,2:0:0:0:
443,221,81731,1,0,2:0:0:0:
167,270,81918,5,0,3:2:0:0:
154,311,82012,1,0,2:0:0:0:
147,353,82106,1,0,2:0:0:0:
58,384,82293,6,0,P|55:330|53:310,1,60,0|0,3:0|3:0,2:0:0:0:
69,221,82481,1,0,2:0:0:0:
35,124,82668,5,0,3:0:0:0:
44,82,82762,1,0,2:0:0:0:
42,39,82856,1,0,2:0:0:0:
147,0,83043,6,0,P|152:29|156:59,1,60,0|0,3:0|3:0,2:0:0:0:
164,156,83231,1,0,2:0:0:0:
256,104,83418,5,0,3:0:0:0:
256,68,83512,1,0,2:0:0:0:
256,33,83606,1,8,1:2:0:0:
365,0,83793,6,0,P|359:29|355:59,1,60,0|0,3:0|3:0,2:0:0:0:
348,156,83981,1,8,1:2:0:0:
477,124,84168,5,0,3:0:0:0:
468,82,84262,1,0,2:0:0:0:
470,39,84356,1,0,2:0:0:0:
402,215,84543,5,0,3:0:0:0:
443,219,84637,1,0,2:0:0:0:
481,237,84731,1,0,2:0:0:0:
339,149,84918,6,0,P|308:175|307:195,1,60,0|0,3:0|3:0,2:0:0:0:
378,354,85106,1,0,2:0:0:0:
256,304,85293,5,0,3:0:0:0:
291,301,85387,1,0,2:0:0:0:
313,271,85481,1,0,2:0:0:0:
256,80,85668,5,0,3:0:0:0:
221,83,85762,1,0,2:0:0:0:
199,113,85856,1,0,2:0:0:0:
173,235,86043,6,0,P|204:209|205:189,1,60,0|0,3:0|3:0,2:0:0:0:
134,30,86231,1,0,2:0:0:0:
378,30,86418,5,0,3:0:0:0:
348,60,86512,1,0,2:0:0:0:
337,100,86606,1,0,2:0:0:0:
200,175,86793,6,0,P|210:197|216:226,1,50,0|0,3:0|3:0,2:0:0:0:
256,320,86981,5,0,2:0:0:0:
175,313,87262,1,2,2:0:0:0:
176,335,87356,1,2,2:0:0:0:
92,349,87543,5,2,2:0:0:0:
11,342,87824,1,0,2:0:0:0:
12,364,87918,1,0,2:0:0:0:
0,211,88106,5,0,2:0:0:0:
72,204,88387,1,0,2:0:0:0:
72,224,88481,1,0,2:0:0:0:
147,237,88668,5,2,2:0:0:0:
220,230,88949,1,0,2:0:0:0:
219,250,89043,1,0,2:0:0:0:
256,320,89231,5,0,2:0:0:0:
337,313,89418,1,0,2:0:0:0:
404,361,89606,5,2,2:0:0:0:
487,344,89887,1,2,2:0:0:0:
486,366,89981,1,2,2:0:0:0:
512,211,90168,5,2,2:0:0:0:
439,204,90449,1,0,2:0:0:0:
439,224,90543,1,0,2:0:0:0:
364,237,90731,5,2,2:0:0:0:
291,230,91012,1,0,2:0:0:0:
292,250,91106,1,0,2:0:0:0:
217,250,91293,5,2,2:0:0:0:
147,237,91574,1,0,2:0:0:0:
148,215,91668,1,0,2:0:0:0:
81,179,91856,5,2,2:0:0:0:
8,204,92043,1,0,2:0:0:0:
3,84,92231,5,2,2:3:0:0:
75,91,92418,1,0,2:0:0:0:
76,76,92512,1,2,2:3:0:0:
77,61,92606,1,2,2:3:0:0:
150,58,92793,5,0,2:0:0:0:
216,21,92981,1,2,2:3:0:0:
218,34,93074,1,0,2:0:0:0:
220,49,93168,1,2,2:3:0:0:
292,31,93356,5,0,2:0:0:0:
364,51,93543,1,2,2:3:0:0:
365,36,93637,1,0,2:0:0:0:
366,21,93731,1,0,2:0:0:0:
436,57,93918,5,0,2:0:0:0:
507,77,94106,1,2,2:3:0:0:
509,90,94199,1,0,2:0:0:0:
511,105,94293,1,0,2:0:0:0:
445,149,94481,5,0,2:0:0:0:
369,117,94668,5,0,2:0:0:0:
367,131,94762,1,2,2:3:0:0:
365,143,94856,1,2,2:3:0:0:
281,148,95043,5,0,2:0:0:0:
278,134,95137,1,0,2:0:0:0:
255,111,95231,6,0,L|260:72,1,37.5000000000001,2|0,2:3|2:0,2:0:0:0:
254,5,95418,5,2,2:0:0:0:
254,5,95512,1,2,2:0:0:0:
254,5,95606,1,2,2:0:0:0:
280,75,95793,1,2,2:0:0:0:
227,194,95981,5,2,2:0:0:0:
227,194,96074,1,2,2:0:0:0:
227,194,96168,1,2,2:0:0:0:
227,194,96262,1,2,2:0:0:0:
227,194,96356,6,0,L|234:242,1,37.5000000000001,0|0,3:0|2:0,2:0:0:0:
253,384,96543,2,0,L|255:356,1,22.5,2|0,2:0|2:0,2:0:0:0:
237,238,96731,6,0,B|181:248|181:248|178:253|178:253|185:306,1,100,0|2,3:0|2:0,2:0:0:0:
262,359,97106,2,0,B|318:349|318:349|321:344|321:344|314:291,1,100,0|2,3:0|3:2,2:0:0:0:
319,296,97387,1,2,3:2:0:0:
314,286,97481,5,10,2:3:0:0:
404,286,97762,1,2,2:0:0:0:
404,286,97856,1,0,2:0:0:0:
297,12,98043,6,0,P|315:73|329:168,1,140,2|10,2:0|2:3,2:0:0:0:
404,193,98324,1,0,2:0:0:0:
416,167,98418,1,2,2:0:0:0:
295,241,98606,6,0,P|227:249|172:291,1,140,2|2,2:0|2:3,2:0:0:0:
113,360,98887,1,0,2:0:0:0:
151,376,98981,1,2,2:0:0:0:
92,265,99168,6,0,P|74:183|54:108,1,140,2|2,2:0|2:0,2:0:0:0:
137,12,99449,1,0,2:0:0:0:
132,44,99543,1,2,2:0:0:0:
0,71,99731,6,0,P|40:57|58:48,1,60,2|0,2:0|2:0,2:0:0:0:
214,152,99918,2,0,P|182:145|152:140,1,60,0|2,2:0|2:3,2:0:0:0:
0,260,100106,6,0,P|40:209|110:196,1,120,10|0,2:3|2:0,2:0:0:0:
185,252,100387,5,0,2:0:0:0:
174,223,100481,1,2,2:0:0:0:
229,26,100668,6,0,P|214:90|202:151,1,120,2|10,2:0|2:3,2:0:0:0:
282,207,100949,5,2,2:3:0:0:
307,191,101043,1,2,2:0:0:0:
21,186,101231,6,0,B|86:208|44:240|122:267,1,120,2|2,2:0|2:3,2:0:0:0:
195,345,101512,5,0,2:0:0:0:
171,367,101606,1,2,2:0:0:0:
377,315,101793,6,0,P|308:271|255:282,1,120,2|0,2:0|2:0,2:0:0:0:
196,167,102074,5,0,2:0:0:0:
193,136,102168,1,2,2:0:0:0:
180,378,102356,6,0,P|185:326|190:283,1,75,2|0,2:0|2:0,2:0:0:0:
14,192,102543,2,0,P|49:204|84:216,1,75,2|2,2:0|2:3,2:0:0:0:
301,180,102731,6,0,P|390:161|428:152,1,130,10|0,2:3|2:0,2:0:0:0:
420,164,103012,1,0,2:0:0:0:
429,178,103106,1,2,2:0:0:0:
512,13,103293,6,0,P|515:93|506:141,1,130,2|10,2:0|2:3,2:0:0:0:
492,226,103574,5,0,2:0:0:0:
502,241,103668,1,2,2:0:0:0:
312,205,103856,6,0,P|245:253|221:340,1,140,2|2,2:0|2:3,2:0:0:0:
111,377,104137,5,0,2:0:0:0:
89,366,104231,1,2,2:0:0:0:
233,380,104418,6,0,B|221:303|174:338|169:253,1,140,2|2,2:0|2:0,2:0:0:0:
184,160,104699,5,0,2:0:0:0:
203,174,104793,2,0,P|178:130|160:103,1,70,2|0,2:0|2:0,2:0:0:0:
204,23,104981,6,0,P|249:36|280:56,1,70,2|0,2:0|2:0,2:0:0:0:
59,132,105168,2,0,P|73:170|71:207,1,70,0|0,2:0|2:0,2:0:0:0:
15,287,105356,5,8,2:3:0:0:
146,327,105543,1,2,2:3:0:0:
414,171,105731,1,8,2:3:0:0:
198,211,105918,5,2,2:3:0:0:
364,347,106106,1,2,2:3:0:0:
259,118,106293,1,2,2:3:0:0:
270,270,106481,5,2,2:3:0:0:
467,314,106668,1,0,2:0:0:0:
124,364,106856,1,2,2:3:0:0:
256,352,107043,5,2,2:3:0:0:
15,306,107231,2,0,B|140:277|140:277|143:280|143:280|195:270|195:270|198:252,1,200,2|0,2:0|2:0,2:0:0:0:
130,198,107512,1,10,2:3:0:0:
137,180,107606,6,0,L|126:142,4,25,10|0|10|0|0,2:3|2:0|2:3|2:0|2:0,2:0:0:0:
129,17,107981,5,2,2:0:0:0:
157,24,108074,1,2,2:0:0:0:
185,32,108168,1,2,2:0:0:0:
256,16,108262,6,0,L|253:54,1,30,2|0,3:2|2:0,2:0:0:0:
177,100,108543,6,0,P|192:120|200:132,1,30,0|0,3:0|2:0,2:0:0:0:
292,148,108824,6,0,P|274:163|266:175,1,30,0|0,3:0|2:0,2:0:0:0:
191,234,109106,6,0,P|176:226|153:220,1,30,0|0,3:0|2:0,2:0:0:0:
70,208,109387,6,0,P|79:181|78:170,1,30,0|0,3:0|2:0,2:0:0:0:
349,215,109668,6,0,P|368:229|371:243,1,30,0|0,3:0|2:0,2:0:0:0:
225,123,109949,6,0,P|219:155|220:165,1,30,0|0,3:0|2:0,2:0:0:0:
235,285,110231,5,0,3:0:0:0:
259,319,110324,1,0,3:0:0:0:
242,346,110418,5,0,3:0:0:0:
252,358,110512,1,0,3:0:0:0:
251,375,110606,5,0,3:0:0:0:
0,317,110887,6,0,P|19:319|34:332,1,30,0|0,3:0|2:0,2:0:0:0:
52,184,111168,6,0,L|44:234,1,40,0|0,3:0|2:0,2:0:0:0:
116,279,111449,6,0,P|127:261|165:247,1,50,0|0,3:0|2:0,2:0:0:0:
138,110,111731,6,0,P|175:122|183:152,1,59.9999999999999,0|0,3:0|2:0,2:0:0:0:
236,295,112012,6,0,P|260:289|280:246,1,69.9999999999999,0|0,3:0|2:0,2:0:0:0:
323,13,112293,6,0,P|278:23|259:54,1,80,0|0,3:0|2:0,2:0:0:0:
311,156,112574,6,0,P|362:158|399:192,1,90.0000000000001,0|0,3:0|2:0,2:0:0:0:
416,96,112856,5,0,3:0:0:0:
479,74,112949,1,0,3:0:0:0:
455,32,113043,5,0,3:0:0:0:
493,42,113137,1,0,3:0:0:0:
475,18,113231,6,0,L|448:0,1,22.4999993133545,0|0,3:0|0:0,0:0:0:0:
492,356,113512,5,0,3:0:0:0:
486,355,113559,1,0,2:0:0:0:
256,48,113793,5,0,3:0:0:0:
256,48,113840,1,0,2:0:0:0:
244,340,114074,1,0,3:0:0:0:
244,340,114121,1,0,2:0:0:0:
33,16,114356,5,0,3:0:0:0:
33,16,114402,1,0,2:0:0:0:
18,364,114637,5,0,3:0:0:0:
18,364,114684,1,0,2:0:0:0:
247,24,114918,5,0,3:0:0:0:
247,24,114965,1,0,2:0:0:0:
260,369,115199,1,0,3:0:0:0:
260,369,115246,1,0,2:0:0:0:
272,200,115481,5,0,3:0:0:0:
234,182,115574,1,0,3:0:0:0:
262,189,115668,5,0,3:0:0:0:
251,194,115762,1,0,3:0:0:0:
252,204,115856,6,0,L|248:233,6,25,0|0|0|0|0|0|0,3:0|3:0|2:0|2:0|1:0|2:0|2:0,2:0:0:0:
256,176,116231,2,0,L|217:128,3,50,2|2|2|2,2:3|2:3|2:3|2:3,2:0:0:0:
277,190,116606,5,2,3:2:0:0:
356,183,116699,1,2,3:2:0:0:
435,174,116793,1,2,3:2:0:0:
511,165,116887,1,2,3:2:0:0:
425,168,116981,6,0,P|458:178|473:194,1,50,2|0,2:1|2:0,2:0:0:0:
371,232,117168,6,0,P|330:267|323:330,1,112.5,2|0,2:0|2:0,2:0:0:0:
313,317,117356,6,0,P|199:331|179:277,1,180,4|0,1:2|2:0,2:0:0:0:
14,304,117637,2,0,P|58:198|115:207,1,180,4|0,1:2|2:0,2:0:0:0:
270,242,117918,6,0,P|360:171|336:118,1,180,4|2,1:2|2:0,2:0:0:0:
512,65,118199,2,0,P|414:4|373:44,1,180,4|0,1:2|2:0,2:0:0:0:
234,85,118481,6,0,P|179:77|138:63,1,89.9999999999999,2|0,2:0|2:0,2:0:0:0:
61,243,118668,1,0,2:0:0:0:
10,129,118856,6,0,B|93:106|74:171|154:152,1,150,4|0,1:0|3:0,2:0:0:0:
276,103,119137,1,0,3:2:0:0:
302,114,119231,6,0,P|327:84|312:40,1,75,8|0,1:2|2:0,2:0:0:0:
171,5,119418,2,0,P|191:55|201:91,1,75,0|2,3:0|3:2,2:0:0:0:
326,182,119606,6,0,P|233:213|175:310,1,200,8|0,1:2|3:0,2:0:0:0:
134,370,119887,1,0,3:0:0:0:
65,328,119981,6,0,P|135:331|190:384,1,150,8|0,1:2|2:0,2:0:0:0:
304,328,120262,1,2,3:2:0:0:
339,251,120356,6,0,B|356:180|418:183|416:190|468:194|489:130,1,200,8|0,1:2|3:2,2:0:0:0:
356,72,120637,1,0,2:0:0:0:
372,64,120731,6,0,P|395:70|403:114,1,70,8|0,1:2|2:0,2:0:0:0:
508,244,120918,2,0,P|467:232|459:201,1,70,0|0,3:2|3:2,2:0:0:0:
500,73,121106,6,0,P|491:105|484:148,1,50,8|0,1:2|2:0,2:0:0:0:
428,302,121293,5,0,3:2:0:0:
428,302,121387,1,0,2:0:0:0:
428,302,121481,2,0,P|383:308|344:325,1,75,8|0,1:2|2:0,2:0:0:0:
316,195,121668,2,0,P|291:165|257:151,1,75,0|0,3:0|3:0,2:0:0:0:
76,382,121856,6,0,P|123:328|109:239,1,150,8|0,1:2|3:2,2:0:0:0:
132,159,122137,1,2,3:2:0:0:
122,152,122231,6,0,P|84:149|71:189,1,75,8|0,1:2|2:0,2:0:0:0:
219,277,122418,2,0,P|252:285|302:312,1,75,0|0,3:0|3:0,2:0:0:0:
226,178,122606,6,0,B|326:144|255:72|364:31,1,200,8|2,1:2|3:2,2:0:0:0:
475,104,122887,1,0,2:0:0:0:
446,8,122981,6,0,P|425:143|423:230,1,150,8|0,1:2|3:0,2:0:0:0:
439,278,123262,1,0,3:0:0:0:
485,352,123356,6,0,B|442:279|331:323,1,150,8|0,1:2|3:2,2:0:0:0:
261,203,123637,1,2,2:0:0:0:
279,193,123731,6,0,P|325:214|358:242,1,75,8|0,2:0|2:0,2:0:0:0:
290,384,123918,2,0,P|271:367|279:311,1,75,0|0,3:2|3:2,2:0:0:0:
150,294,124106,6,0,P|181:282|209:267,1,60,0|0,1:2|2:0,2:0:0:0:
350,161,124293,1,0,3:0:0:0:
373,138,124387,1,2,3:2:0:0:
419,142,124481,5,8,1:2:0:0:
395,90,124574,1,0,2:0:0:0:
344,68,124668,1,0,3:0:0:0:
280,76,124762,1,2,3:2:0:0:
227,124,124856,6,0,P|164:113|211:31,1,180,8|0,1:2|3:0,2:0:0:0:
208,26,125137,1,2,3:2:0:0:
183,110,125231,6,0,P|174:168|166:272,1,150,8|0,1:2|3:0,2:0:0:0:
135,383,125512,1,2,3:2:0:0:
114,351,125606,6,0,P|89:336|45:328,1,75,8|0,1:2|2:0,2:0:0:0:
239,219,125793,2,0,P|265:235|309:244,1,75,0|2,3:0|3:2,2:0:0:0:
100,136,125981,6,0,P|110:160|124:208,1,75,8|0,1:2|2:0,2:0:0:0:
176,308,126168,5,0,2:0:0:0:
228,360,126262,1,2,3:2:0:0:
298,326,126356,6,0,P|364:300|452:289,1,150,8|0,1:2|3:2,2:0:0:0:
512,356,126637,1,2,2:0:0:0:
449,285,126731,6,0,P|407:211|345:208,1,150,8|0,1:2|3:2,2:0:0:0:
224,145,127012,1,2,3:2:0:0:
246,137,127106,6,0,P|283:121|315:106,1,65,8|0,1:2|2:0,2:0:0:0:
454,50,127293,2,0,P|461:21|429:11,1,65,0|0,3:2|3:0,2:0:0:0:
337,32,127481,5,8,1:2:0:0:
371,62,127574,1,0,1:0:0:0:
391,102,127668,1,0,3:0:0:0:
392,146,127762,1,0,3:0:0:0:
416,179,127856,6,0,P|440:190|454:206,1,40,8|0,1:2|2:0,2:0:0:0:
349,257,128043,1,0,3:0:0:0:
355,234,128137,1,0,3:0:0:0:
421,276,128231,6,0,P|431:300|435:320,1,40,8|0,1:2|2:0,2:0:0:0:
260,297,128418,1,0,3:0:0:0:
273,282,128512,1,0,3:0:0:0:
304,358,128606,5,8,1:2:0:0:
254,364,128699,1,0,2:0:0:0:
217,329,128793,1,0,3:0:0:0:
214,278,128887,1,0,3:0:0:0:
228,214,128981,5,8,1:2:0:0:
198,151,129074,1,0,2:0:0:0:
130,133,129168,1,0,3:0:0:0:
83,80,129262,1,0,3:0:0:0:
107,11,129356,5,0,1:0:0:0:
439,200,129637,5,0,2:0:0:0:
439,200,129731,1,0,1:0:0:0:
40,372,130012,5,8,2:0:0:0:
40,372,130106,1,0,1:0:0:0:
204,225,130293,1,0,2:0:0:0:
17,274,130481,6,0,P|77:290|112:304,1,75,8|0,1:0|2:0,2:0:0:0:
283,375,130668,2,0,P|268:320|262:287,1,75,2|0,2:0|2:0,2:0:0:0:
315,58,130856,6,0,P|213:72|170:191,1,190,4|2,1:0|3:2,2:0:0:0:
71,211,131137,1,0,2:0:0:0:
159,244,131231,6,0,P|149:157|127:86,1,130,2|2,1:0|3:2,2:0:0:0:
23,264,131606,6,0,B|106:274|82:346|157:358,1,170,2|0,1:2|2:0,2:0:0:0:
316,230,131887,1,0,3:0:0:0:
316,230,131981,6,0,B|329:207|356:216|354:249|327:250,1,70,2|2,1:0|2:0,2:0:0:0:
255,384,132168,2,0,P|246:319|243:272,1,85,2|2,3:1|3:2,2:0:0:0:
292,123,132356,6,0,P|400:120|443:168,1,170,2|0,1:2|3:0,2:0:0:0:
318,233,132637,1,0,2:0:0:0:
303,229,132731,6,0,P|334:195|361:191,1,70,2|0,1:0|2:0,2:0:0:0:
454,9,132918,2,0,P|449:54|426:79,1,55,8|2,3:2|3:1,2:0:0:0:
236,177,133106,6,0,P|215:168|201:144,1,40,2|2,1:2|2:1,2:0:0:0:
62,26,133293,5,0,2:0:0:0:
62,26,133387,1,8,3:2:0:0:
62,26,133481,2,0,P|25:46|19:86,1,70,2|0,1:0|2:0,2:0:0:0:
166,136,133668,6,0,P|159:101|148:65,1,70,8|2,3:2|3:1,2:0:0:0:
0,216,133856,6,0,P|70:209|160:305,1,170,8|2,1:2|3:2,2:0:0:0:
122,285,134137,1,0,2:0:0:0:
109,379,134231,6,0,P|175:370|246:256,1,170,2|0,1:0|3:2,2:0:0:0:
241,173,134512,1,2,3:1:0:0:
257,135,134606,6,0,P|251:100|237:68,1,70,2|2,1:2|2:1,2:0:0:0:
167,138,134793,2,0,P|138:144|140:197,1,70,0|2,2:0|3:2,2:0:0:0:
304,18,134981,6,0,P|376:26|360:125,1,170,2|0,1:0|3:0,2:0:0:0:
511,198,135262,1,2,3:2:0:0:
451,259,135356,6,0,P|333:296|309:347,1,170,2|0,1:0|3:0,2:0:0:0:
229,289,135637,1,2,3:1:0:0:
213,377,135731,6,0,P|201:288|169:185,1,170,2|0,1:2|3:0,2:0:0:0:
101,160,136012,1,2,3:1:0:0:
92,165,136106,6,0,P|111:128|146:135,1,55,8|2,1:2|2:1,2:0:0:0:
302,72,136293,2,0,P|303:104|287:127,1,55,0|8,2:0|3:2,2:0:0:0:
183,13,136481,6,0,P|196:56|203:97,1,70,2|0,1:0|1:2,2:0:0:0:
265,203,136668,1,2,3:1:0:0:
312,206,136762,1,0,2:0:0:0:
346,177,136856,6,0,B|448:193|381:260|488:281,1,170,2|2,1:0|3:1,2:0:0:0:
476,165,137231,6,0,B|458:257|391:190|375:292,1,170,2|0,1:0|3:0,2:0:0:0:
283,384,137512,1,2,3:2:0:0:
224,337,137606,6,0,B|106:318|186:238|58:212,1,200,2|2,1:0|3:1,2:0:0:0:
45,353,137887,1,0,2:0:0:0:
133,373,137981,6,0,P|155:274|176:195,1,170,2|0,1:0|3:0,2:0:0:0:
179,25,138356,6,0,B|77:41|144:108|37:129,1,170,2|2,1:2|3:1,2:0:0:0:
48,0,138731,6,0,B|69:109|150:29|169:151,1,200,2|0,1:0|3:0,2:0:0:0:
242,232,139012,1,2,3:2:0:0:
307,183,139106,6,0,B|422:166|342:86|470:63,1,200,2|0,1:0|2:0,2:0:0:0:
327,30,139387,1,2,3:1:0:0:
312,53,139481,6,0,B|275:49|271:97|309:82,1,75,2|2,1:2|2:1,2:0:0:0:
428,200,139668,2,0,B|458:203|446:260|407:221,1,75,2|0,3:2|3:0,2:0:0:0:
51,131,139856,5,4,1:0:0:0:
99,120,139949,1,0,2:0:0:0:
147,135,140043,1,0,3:0:0:0:
182,171,140137,1,0,2:0:0:0:
233,188,140231,6,0,P|267:175|305:168,1,60,2|0,1:2|2:0,2:0:0:0:
75,265,140418,2,0,P|104:270|132:281,1,60,2|2,3:2|3:2,2:0:0:0:
449,246,140606,5,0,2:0:0:0:
400,257,140699,1,0,2:0:0:0:
364,309,140793,1,0,3:1:0:0:
299,339,140887,1,0,2:0:0:0:
238,384,140981,6,0,P|234:337|228:298,1,70,8|0,1:2|2:1,2:0:0:0:
298,196,141168,2,0,P|301:165|306:126,1,70,2|2,3:2|3:2,2:0:0:0:
206,20,141356,5,12,1:2:0:0:
138,37,141449,1,0,2:0:0:0:
86,90,141543,1,0,3:0:0:0:
61,157,141637,1,0,2:0:0:0:
14,215,141731,6,0,P|30:257|37:292,1,70,8|0,1:2|2:0,2:0:0:0:
171,190,141918,2,0,P|169:155|173:120,1,70,2|2,3:2|3:2,2:0:0:0:
294,108,142106,5,0,2:0:0:0:
352,66,142199,1,0,2:0:0:0:
424,78,142293,1,0,3:0:0:0:
466,138,142387,1,0,2:0:0:0:
460,210,142481,1,8,1:2:0:0:
405,257,142574,1,0,2:1:0:0:
334,278,142668,1,0,3:2:0:0:
297,342,142762,1,2,3:2:0:0:
226,307,142856,6,0,P|185:288|142:276,1,80,8|0,1:3|2:1,2:0:0:0:
84,146,143043,2,0,P|125:165|168:177,1,80,0|0,3:0|3:0,2:0:0:0:
60,325,143231,6,0,P|67:262|84:213,1,89.9999999999999,8|0,1:3|2:1,2:0:0:0:
213,97,143418,2,0,P|249:103|216:109,1,89.9999999999999,0|0,3:0|3:0,2:0:0:0:
415,206,143606,6,0,P|364:221|352:236,1,75,8|0,1:3|2:1,2:0:0:0:
392,328,143793,2,0,P|443:313|455:298,1,75,0|0,3:0|3:0,2:0:0:0:
297,151,143981,6,0,P|273:200|260:250,1,89.9999999999999,8|0,1:3|2:1,2:0:0:0:
270,380,144168,2,0,B|296:374|298:345|270:331|244:346|252:373,1,89.9999999999999,0|0,3:0|3:0,2:0:0:0:
139,326,144356,6,0,P|96:311|53:298,1,89.9999999999999,0|0,1:2|2:1,2:0:0:0:
109,220,144543,5,0,3:0:0:0:
187,198,144637,1,0,2:0:0:0:
271,168,144731,6,0,P|324:145|369:128,1,89.9999999999999,0|0,1:2|1:0,2:0:0:0:
39,18,144918,5,2,3:2:0:0:
32,12,145012,1,0,2:0:0:0:
114,58,145106,6,0,P|119:100|124:143,1,80,0|2,1:0|2:0,2:0:0:0:
349,376,145293,5,0,3:0:0:0:
353,383,145387,1,2,3:2:0:0:
285,318,145481,6,0,P|291:276|297:233,1,80,0|0,1:0|2:0,2:0:0:0:
242,2,145668,2,0,P|236:41|230:81,1,80,2|0,3:2|3:0,2:0:0:0:
189,173,145856,5,8,1:2:0:0:
267,169,145949,1,2,3:2:0:0:
324,116,146043,1,2,3:2:0:0:
376,62,146137,1,0,3:2:0:0:
450,71,146231,5,0,1:0:0:0:
482,137,146324,1,2,2:0:0:0:
450,205,146418,1,2,2:0:0:0:
377,223,146512,1,2,2:0:0:0:
326,278,146606,5,0,1:0:0:0:
300,335,146699,1,0,1:0:0:0:
255,365,146793,1,2,1:2:0:0:
207,362,146887,1,0,1:0:0:0:
167,340,146981,5,0,2:0:0:0:
176,307,147074,1,2,3:2:0:0:
211,294,147168,1,2,3:2:0:0:
241,307,147262,1,2,3:2:0:0:
255,334,147356,6,0,L|250:378,1,25,0|0,2:0|2:0,2:0:0:0:
