osu file format v14

[General]
AudioFilename: audio.mp3
AudioLeadIn: 0
PreviewTime: 117074
Countdown: 0
SampleSet: Soft
StackLeniency: 0.4
Mode: 0
LetterboxInBreaks: 0
EpilepsyWarning: 1
WidescreenStoryboard: 0

[Editor]
DistanceSpacing: 1
BeatDivisor: 4
GridSize: 4
TimelineZoom: 2.299999

[Metadata]
Title:conflict
TitleUnicode:conflict
Artist:siromaru + cranky
ArtistUnicode:siromaru + cranky
Creator:yf_bmp
Version:Strenge's Normal
Source:THE BMS OF FIGHTERS 2011 - Intersection of conflict -
Tags:iimo HARMONIC SCHRANZ electronic conlang english BOF2011 Arcaea SOUND VOLTEX III GRAVITY WARS maimai FiNALE DX Cytus II Deemo VOEZ Synchronica Taiko no Tatsujin CHUNITHM O.N.G.E.K.I ongeki Muse Dash TAPSONIC TOP Groove Coaster Waiwai Party!!!! 2 Original Style RHYTHMVADERS WACCA SEVEN's CODE Dance Rail Respect PUMP IT UP Orzmic TAKUMI X_Light Yorita_Yoshino Setu StrengeMistake X Light Yorita Yoshino video rhythm game featured artist fa mappers' guild mappers mpg
BeatmapID:3319643
BeatmapSetID:1212359

[Difficulty]
HPDrainRate:4
CircleSize:3
OverallDifficulty:4
ApproachRate:5
SliderMultiplier:1.1
SliderTickRate:1

[Events]
//Background and Video events
0,0,"title.jpg",0,0
Video,1275,"conflict_output.mp4"
//Break Periods
2,63181,73651
2,87181,96151
//Storyboard Layer 0 (Background)
//Storyboard Layer 1 (Fail)
//Storyboard Layer 2 (Pass)
//Storyboard Layer 3 (Foreground)
//Storyboard Layer 4 (Overlay)
//Storyboard Sound Samples

[TimingPoints]
2981,375,4,2,3,60,1,0
2981,-100,4,2,3,60,0,0
13106,-100,4,2,3,70,0,0
14981,-100,4,2,1,70,0,0
25481,-100,4,2,3,70,0,0
26981,-100,4,2,1,70,0,0
38981,-100,4,2,1,70,0,0
62976,-100,4,2,3,60,0,0
74981,-100,4,2,3,50,0,0
76481,-100,4,2,3,55,0,0
77981,-100,4,2,3,60,0,0
79481,-100,4,2,3,65,0,0
80981,-100,4,2,1,70,0,0
86981,375,7,2,3,55,1,0
97481,-100,7,2,3,60,0,0
107038,-100,7,2,3,70,0,0
108262,-100,7,2,3,40,0,0
110887,-100,7,2,3,50,0,0
112856,-100,7,2,1,45,0,0
113507,-100,7,2,1,60,0,0
115481,-100,7,2,1,55,0,0
115856,375,4,2,3,25,1,0
117356,-100,4,2,3,70,0,0
118856,-100,4,2,1,70,0,0
129356,-100,4,2,3,70,0,0
130856,-100,4,2,1,70,0,0
147356,-100,4,2,3,5,0,0

[Colours]
Combo1 : 16,120,175
Combo2 : 97,6,170
Combo3 : 4,68,155
Combo4 : 141,7,108

[HitObjects]
244,0,2981,6,0,L|230:109,1,110,4|0,1:0|1:0,0:0:0:0:
322,170,3731,2,0,L|308:279,1,110,0|0,1:0|1:0,0:0:0:0:
205,316,4481,2,0,P|151:306|101:327,2,110,0|0|0,1:0|1:0|1:0,0:0:0:0:
292,382,5606,1,0,1:0:0:0:
396,346,5981,6,0,P|449:336|499:357,2,110,0|0|0,1:0|1:0|1:0,0:0:0:0:
308,279,7106,1,0,1:0:0:0:
398,216,7481,2,0,L|412:100,1,110,0|0,1:0|1:0,0:0:0:0:
336,25,8231,2,0,P|282:15|232:36,1,110,0|0,1:0|1:0,0:0:0:0:
193,73,8793,1,0,3:0:0:0:
193,73,8981,6,0,B|109:61|109:61|61:76,1,110,10|2,1:3|1:3,0:0:0:0:
10,149,9731,2,0,B|-1:232|-1:232|13:281,1,110,2|2,1:3|1:3,0:0:0:0:
86,332,10481,2,0,B|169:343|169:343|218:329,1,110,2|2,1:3|1:3,0:0:0:0:
269,256,11231,2,0,B|280:172|280:172|266:124,1,110,2|2,1:3|1:3,0:0:0:0:
193,73,11981,5,8,1:3:0:0:
91,114,12356,1,2,1:3:0:0:
76,222,12731,1,0,1:0:0:0:
163,290,13106,1,2,1:3:0:0:
269,256,13481,6,0,P|316:340|360:198,1,330,0|0,1:0|1:0,0:0:0:0:
299,124,14981,6,0,P|253:94|200:100,1,110,4|8,1:0|1:2,0:0:0:0:
161,138,15543,1,0,3:0:0:0:
161,138,15731,2,0,L|151:264,1,110,8|8,1:2|1:2,0:0:0:0:
111,283,16293,1,0,0:0:0:0:
111,283,16481,2,0,P|57:277|12:306,2,110,8|0|8,1:2|0:0|1:2,0:0:0:0:
206,338,17606,2,0,P|239:331|274:328,1,55,8|0,1:2|3:0,0:0:0:0:
312,347,17981,6,0,P|309:293|335:239,1,110,8|8,1:2|1:2,0:0:0:0:
439,257,18731,2,0,P|467:262|494:262,2,55,8|0|8,1:2|3:0|1:2,0:0:0:0:
422,211,19293,1,0,0:0:0:0:
422,211,19481,2,0,L|429:94,1,110,8|0,1:2|0:0,0:0:0:0:
345,28,20231,1,8,1:2:0:0:
248,80,20606,1,0,1:2:0:0:
155,21,20981,6,0,P|91:21|38:62,1,110,8|8,1:2|1:2,0:0:0:0:
25,93,21543,1,0,3:0:0:0:
25,93,21731,2,0,L|34:207,1,110,8|8,1:2|1:2,0:0:0:0:
136,241,22481,2,0,L|129:307,1,55,8|0,1:2|3:2,0:0:0:0:
166,336,22856,2,0,P|219:343|270:323,1,110,0|8,0:0|1:2,0:0:0:0:
370,368,23606,1,8,1:2:0:0:
469,320,23981,6,0,L|476:250,1,55,8|0,1:2|3:0,0:0:0:0:
467,210,24356,2,0,L|474:140,1,55,8|0,1:2|3:0,0:0:0:0:
458,101,24731,2,0,P|432:90|405:89,1,55,8|0,1:2|3:0,0:0:0:0:
350,93,25106,2,0,P|322:93|297:104,1,55,8|0,1:2|3:0,0:0:0:0:
250,133,25481,1,0,1:0:0:0:
241,242,25856,1,2,1:2:0:0:
142,288,26231,1,2,1:2:0:0:
52,225,26606,1,8,1:1:0:0:
60,116,26981,6,0,P|112:89|164:94,1,110,4|2,1:0|1:1,0:0:0:0:
213,126,27543,1,2,3:2:0:0:
213,126,27731,2,0,L|330:115,1,110,2|2,1:2|1:1,0:0:0:0:
376,95,28293,1,2,3:1:0:0:
376,95,28481,2,0,P|378:49|416:-3,2,110,2|2|8,1:2|1:1|1:2,0:0:0:0:
462,163,29606,2,0,L|456:222,1,55,2|0,1:1|3:1,0:0:0:0:
415,255,29981,6,0,P|363:236|309:244,1,110,8|2,1:2|1:1,0:0:0:0:
226,317,30731,2,0,L|218:386,2,55,2|0|2,1:2|0:0|1:1,0:0:0:0:
196,277,31293,1,0,3:0:0:0:
196,277,31481,2,0,P|142:269|90:287,1,110,8|2,1:2|1:2,0:0:0:0:
4,218,32231,1,2,1:2:0:0:
17,108,32606,1,2,1:1:0:0:
102,38,32981,6,0,B|191:30|191:30|212:42,1,110,2|2,1:1|1:1,0:0:0:0:
253,81,33543,1,0,3:0:0:0:
253,81,33731,2,0,L|245:203,1,110,2|2,1:1|1:1,0:0:0:0:
318,273,34481,2,0,B|407:281|407:281|428:269,1,110,8|2,1:2|1:1,0:0:0:0:
470,239,35043,1,0,3:0:0:0:
470,239,35231,2,0,L|478:117,1,110,2|2,1:1|1:2,0:0:0:0:
402,48,35981,5,8,1:2:0:0:
299,12,36356,1,8,1:2:0:0:
191,26,36731,1,8,1:2:0:0:
96,78,37106,1,8,1:2:0:0:
40,173,37481,2,0,B|30:345|30:345|123:397|193:353,1,330,0|8,3:0|1:2,0:0:0:0:
287,335,38981,5,4,1:0:0:0:
397,366,39356,1,8,1:3:0:0:
397,366,39543,2,0,P|418:328|421:258,1,110,0|0,3:0|3:0,0:0:0:0:
378,228,40106,2,0,L|264:214,1,110,8|8,1:3|1:3,0:0:0:0:
214,207,40668,2,0,P|193:169|190:99,1,110,0|0,3:0|3:0,0:0:0:0:
219,57,41231,1,0,1:3:0:0:
320,15,41606,1,8,1:3:0:0:
417,65,41981,5,8,1:3:0:0:
412,178,42356,1,8,1:3:0:0:
412,178,42543,2,0,L|401:308,1,110,0|0,3:0|3:0,0:0:0:0:
372,334,43106,2,0,P|318:339|262:305,1,110,8|8,1:3|1:3,0:0:0:0:
232,273,43668,2,0,P|178:268|122:302,1,110,0|0,3:3|3:0,0:0:0:0:
85,325,44231,2,0,L|77:394,2,55,0|0|8,3:3|3:0|1:3,0:0:0:0:
27,230,44981,5,8,1:3:0:0:
100,148,45356,1,8,1:3:0:0:
100,148,45543,2,0,P|91:94|113:45,1,110,0|0,3:0|3:0,0:0:0:0:
168,39,46106,2,0,L|287:30,1,110,8|8,1:3|1:3,0:0:0:0:
321,64,46668,2,0,P|343:113|334:166,1,110,0|0,3:0|3:0,0:0:0:0:
290,199,47231,1,0,1:0:0:0:
184,167,47606,1,8,1:3:0:0:
103,241,47981,5,8,1:3:0:0:
130,352,48356,1,8,1:3:0:0:
130,352,48543,2,0,L|249:342,1,110,0|0,3:0|3:0,0:0:0:0:
292,359,49106,2,0,P|343:361|391:327,1,110,8|2,1:3|3:1,0:0:0:0:
479,103,50981,6,0,P|426:114|375:95,1,110,6|8,1:0|1:3,0:0:0:0:
333,60,51543,2,0,L|223:63,1,110,2|0,3:1|3:0,0:0:0:0:
174,35,52106,2,0,P|121:23|70:42,1,110,2|0,1:1|0:0,0:0:0:0:
43,92,52668,1,2,3:1:0:0:
43,92,52856,1,8,1:3:0:0:
82,194,53231,2,0,P|134:205|185:186,1,110,8|2,1:3|1:1,0:0:0:0:
288,225,53981,6,0,L|282:340,1,110,2|8,1:1|1:3,0:0:0:0:
332,356,54543,2,0,P|384:367|435:348,1,110,2|0,3:1|3:0,0:0:0:0:
469,304,55106,2,0,L|475:189,1,110,2|0,1:1|0:0,0:0:0:0:
436,162,55668,1,2,3:1:0:0:
436,162,55856,1,8,1:3:0:0:
349,93,56231,2,0,P|346:65|351:38,2,55,8|2|2,1:3|3:1|1:1,0:0:0:0:
307,127,56793,1,2,3:2:0:0:
307,127,56981,6,0,L|181:119,1,110,2|8,1:1|1:3,0:0:0:0:
146,99,57543,2,0,P|91:96|43:121,1,110,2|0,3:1|3:0,0:0:0:0:
60,174,58106,2,0,L|53:295,1,110,2|0,1:1|0:0,0:0:0:0:
22,329,58668,1,2,3:1:0:0:
22,329,58856,1,8,1:3:0:0:
122,373,59231,2,0,P|163:344|227:351,1,110,8|2,1:3|1:1,0:0:0:0:
328,371,59981,6,0,L|336:235,1,110,2|0,1:1|1:0,0:0:0:0:
304,215,60543,2,0,P|286:164|295:108,1,110,2|2,1:1|3:1,0:0:0:0:
337,73,61106,1,2,1:1:0:0:
256,192,61481,12,4,62981,0:0:0:0:
14,173,74981,6,0,L|130:150,1,110,4|0,1:0|1:0,0:0:0:0:
205,222,75731,2,0,L|321:199,1,110,8|0,1:2|1:0,0:0:0:0:
396,271,76481,2,0,L|512:248,2,110,8|0|8,1:2|1:0|1:2,0:0:0:0:
334,362,77606,1,8,1:2:0:0:
228,331,77981,6,0,P|174:322|125:344,1,110,8|8,1:2|1:2,0:0:0:0:
30,288,78731,2,0,P|38:234|16:185,1,110,8|8,1:2|1:2,0:0:0:0:
73,90,79481,1,8,1:2:0:0:
181,74,79856,1,8,1:2:0:0:
274,131,80231,1,0,1:0:0:0:
290,239,80606,1,0,1:0:0:0:
383,296,80981,6,0,P|440:296|492:264,1,110,8|0,1:2|0:0,0:0:0:0:
497,220,81543,1,0,3:0:0:0:
497,220,81731,2,0,L|507:92,1,110
418,43,82481,2,0,P|370:17|315:17,1,110
266,37,83043,1,0,3:0:0:0:
266,37,83231,2,0,L|138:31,1,110,0|8,0:0|1:2,0:0:0:0:
58,79,83981,5,8,1:2:0:0:
51,188,84356,1,0,0:0:0:0:
141,248,84731,1,0,0:0:0:0:
239,200,85106,1,0,0:0:0:0:
244,90,85481,2,0,P|293:65|348:69,1,110
389,113,86043,1,0,3:0:0:0:
389,113,86231,2,0,P|443:116|492:92,2,110
61,309,97481,6,0,P|108:281|162:283,1,110,10|0,0:3|0:0,0:0:0:0:
250,350,98231,2,0,P|304:351|351:324,1,110,10|0,0:3|0:0,0:0:0:0:
443,264,98981,1,0,0:0:0:0:
453,154,99356,1,2,0:0:0:0:
367,85,99731,1,2,0:0:0:0:
264,124,100106,6,0,L|251:244,1,110,10|0,0:3|0:0,0:0:0:0:
169,305,100856,2,0,P|114:310|67:284,1,110,10|0,0:3|0:0,0:0:0:0:
39,178,101606,1,0,0:0:0:0:
131,117,101981,1,2,0:0:0:0:
226,171,102356,1,2,0:0:0:0:
320,114,102731,6,0,P|342:64|333:11,2,110,10|0|10,0:3|0:0|0:3,0:0:0:0:
359,216,103856,1,0,0:0:0:0:
266,275,104231,2,0,P|243:324|252:377,2,110,0|2|2,0:0|0:0|0:0,0:0:0:0:
256,192,105356,12,2,107324,0:0:0:0:
154,283,108262,6,0,P|113:293|76:309,2,82.5,2|0|0,3:2|3:0|3:0,0:0:0:0:
215,226,109106,2,0,P|226:185|230:145,2,82.5,0|0|0,3:0|3:0|3:0,0:0:0:0:
232,307,109949,2,0,P|261:337|294:360,1,82.5,0|0,3:0|3:0,0:0:0:0:
349,353,110418,1,0,3:0:0:0:
349,353,110606,6,0,L|377:258,1,82.5,0|0,3:0|3:0,0:0:0:0:
434,219,111168,2,0,L|374:140,1,82.5,0|0,3:0|3:0,0:0:0:0:
375,70,111731,2,0,L|276:71,1,82.5,0|0,3:0|3:0,0:0:0:0:
220,30,112293,2,0,L|163:110,1,82.5,0|0,3:0|3:0,0:0:0:0:
96,133,112856,1,0,3:0:0:0:
256,192,113231,12,2,116231,2:3:0:0:
438,297,117356,6,0,P|394:286|354:288,1,82.5,4|4,1:2|1:2,0:0:0:0:
280,256,117918,2,0,P|238:255|198:265,1,82.5,4|4,1:2|1:2,0:0:0:0:
130,311,118481,1,2,0:0:0:0:
28,269,118856,6,0,P|13:217|28:155,1,110,4|8,1:0|1:2,0:0:0:0:
70,132,119418,1,0,3:0:0:0:
70,132,119606,2,0,L|181:120,1,110,8|8,1:2|1:2,0:0:0:0:
235,105,120168,1,0,0:0:0:0:
235,105,120356,2,0,P|250:52|239:0,2,110,8|8|8,1:2|1:2|1:2,0:0:0:0:
340,137,121481,2,0,P|369:134|395:144,1,55,8|0,1:2|3:0,0:0:0:0:
432,180,121856,6,0,L|420:312,1,110,8|8,1:2|1:2,0:0:0:0:
319,329,122606,2,0,L|324:389,2,55,8|2|8,1:2|3:2|1:2,0:0:0:0:
282,295,123168,1,0,3:0:0:0:
282,295,123356,2,0,P|238:273|176:282,1,110,8|2,1:2|0:2,0:0:0:0:
81,330,124106,1,0,1:2:0:0:
2,252,124481,1,8,1:2:0:0:
50,153,124856,6,0,P|94:131|156:140,1,110,8|8,1:2|1:2,0:0:0:0:
204,170,125418,1,0,3:0:0:0:
204,170,125606,2,0,L|335:150,1,110,8|8,1:2|1:2,0:0:0:0:
392,230,126356,2,0,L|385:296,1,55,8|0,1:2|3:2,0:0:0:0:
358,332,126731,2,0,P|304:338|253:318,1,110,2|8,0:2|1:2,0:0:0:0:
154,367,127481,1,8,1:2:0:0:
56,317,127856,6,0,P|50:289|53:261,1,55,8|0,1:2|3:0,0:0:0:0:
91,224,128231,2,0,P|119:218|147:221,1,55,8|0,1:2|3:0,0:0:0:0:
192,247,128606,1,8,1:2:0:0:
296,213,128981,1,8,1:2:0:0:
401,180,129356,6,0,L|410:71,2,110,0|0|0,1:0|1:0|1:0,0:0:0:0:
470,265,130481,1,8,1:1:0:0:
390,341,130856,6,0,P|336:347|285:327,1,110,4|2,1:0|1:1,0:0:0:0:
245,299,131418,1,2,3:2:0:0:
245,299,131606,2,0,L|242:169,1,110,2|2,1:2|1:1,0:0:0:0:
202,160,132168,1,2,3:1:0:0:
202,160,132356,2,0,P|148:153|97:173,2,110,2|2|2,1:2|1:1|1:2,0:0:0:0:
285,88,133481,2,0,L|339:82,1,55,2|8,1:1|3:2,0:0:0:0:
391,102,133856,6,0,P|411:152|404:206,1,110,8|2,1:2|1:1,0:0:0:0:
341,297,134606,2,0,P|342:324|336:351,2,55,2|0|2,1:2|0:0|1:1,0:0:0:0:
300,268,135168,1,0,3:0:0:0:
300,268,135356,2,0,L|178:258,1,110,2|2,1:1|1:2,0:0:0:0:
101,194,136106,1,8,1:2:0:0:
109,84,136481,1,2,1:1:0:0:
198,20,136856,6,0,B|276:6|276:6|308:24,1,110,2|2,1:1|1:1,0:0:0:0:
355,52,137418,1,0,3:0:0:0:
355,52,137606,2,0,L|339:183,1,110,2|2,1:1|1:1,0:0:0:0:
252,226,138356,2,0,L|268:357,1,110,2|2,1:2|1:1,0:0:0:0:
317,366,138918,1,0,3:0:0:0:
317,366,139106,2,0,B|394:380|394:380|426:362,1,110,2|2,1:1|1:2,0:0:0:0:
495,283,139856,6,0,L|511:152,1,110,4|2,1:0|1:2,0:0:0:0:
421,105,140606,1,0,0:0:0:0:
321,150,140981,1,8,1:2:0:0:
229,88,141356,2,0,L|233:22,2,55,12|0|8,1:2|3:0|1:2,0:0:0:0:
178,82,141918,1,2,3:2:0:0:
178,82,142106,2,0,P|124:77|76:101,1,110,0|8,0:0|1:2,0:0:0:0:
35,137,142668,1,0,3:2:0:0:
35,137,142856,5,8,1:3:0:0:
256,192,143043,12,0,147356,0:0:0:0:
