osu file format v14

[General]
AudioFilename: audio.mp3
AudioLeadIn: 0
PreviewTime: 117074
Countdown: 0
SampleSet: Soft
StackLeniency: 0.4
Mode: 0
LetterboxInBreaks: 0
EpilepsyWarning: 1
WidescreenStoryboard: 0

[Editor]
DistanceSpacing: 0.8
BeatDivisor: 8
GridSize: 4
TimelineZoom: 2.299999

[Metadata]
Title:conflict
TitleUnicode:conflict
Artist:siromaru + cranky
ArtistUnicode:siromaru + cranky
Creator:yf_bmp
Version:Intersection
Source:THE BMS OF FIGHTERS 2011 - Intersection of conflict -
Tags:iimo HARMONIC SCHRANZ electronic conlang english BOF2011 Arcaea SOUND VOLTEX III GRAVITY WARS maimai FiNALE DX Cytus II Deemo VOEZ Synchronica Taiko no Tatsujin CHUNITHM O.N.G.E.K.I ongeki Muse Dash TAPSONIC TOP Groove Coaster Waiwai Party!!!! 2 Original Style RHYTHMVADERS WACCA SEVEN's CODE Dance Rail Respect PUMP IT UP Orzmic TAKUMI X_Light Yorita_Yoshino Setu StrengeMistake X Light Yorita Yoshino video rhythm game featured artist fa mappers' guild mappers mpg
BeatmapID:3107406
BeatmapSetID:1212359

[Difficulty]
HPDrainRate:5
CircleSize:4
OverallDifficulty:8
ApproachRate:9.7
SliderMultiplier:2
SliderTickRate:1

[Events]
//Background and Video events
0,0,"title.jpg",0,0
Video,1275,"conflict_output.mp4"
//Break Periods
//Storyboard Layer 0 (Background)
//Storyboard Layer 1 (Fail)
//Storyboard Layer 2 (Pass)
//Storyboard Layer 3 (Foreground)
//Storyboard Layer 4 (Overlay)
//Storyboard Sound Samples

[TimingPoints]
2981,375,4,2,3,60,1,0
2981,-83.3333333333333,4,2,3,60,0,0
8981,-83.3333333333333,4,2,3,60,0,0
13106,-66.6666666666667,4,2,3,70,0,0
14981,-83.3333333333333,4,2,1,70,0,0
24731,-100,4,2,1,70,0,0
25481,-100,4,2,3,70,0,0
26981,-58.8235294117647,4,2,1,70,0,0
34293,-66.6666666666667,4,2,1,70,0,0
38793,-100,4,2,2,70,0,0
38981,-66.6666666666667,4,2,1,70,0,0
49481,-40,4,2,3,70,0,0
49621,-40,4,2,3,5,0,0
49668,-66.6666666666667,4,2,3,70,0,0
50221,-66.6666666666667,4,2,1,70,0,0
50231,-66.6666666666667,4,2,2,70,0,0
50981,-50,4,2,3,70,0,0
51121,-50,4,2,3,5,0,0
51168,-50,4,2,3,70,0,0
51309,-50,4,2,3,5,0,0
51356,-50,4,2,3,70,0,0
51496,-50,4,2,3,5,0,0
51543,-50,4,2,3,70,0,0
51684,-50,4,2,3,5,0,0
51731,-50,4,2,1,70,0,0
53981,-50,4,2,3,70,0,0
54121,-50,4,2,3,5,0,0
54168,-50,4,2,3,70,0,0
54309,-50,4,2,3,5,0,0
54356,-50,4,2,3,70,0,0
54496,-50,4,2,3,5,0,0
54543,-50,4,2,3,70,0,0
54684,-50,4,2,3,5,0,0
54731,-50,4,2,1,70,0,0
56981,-50,4,2,3,70,0,0
57121,-50,4,2,3,5,0,0
57168,-50,4,2,3,70,0,0
57309,-50,4,2,3,5,0,0
57356,-50,4,2,3,70,0,0
57496,-50,4,2,3,5,0,0
57543,-50,4,2,3,70,0,0
57637,-50,4,2,1,70,0,0
57731,-50,4,2,1,70,0,0
61481,-40,4,2,3,70,0,0
61668,-40,4,2,3,5,0,0
61762,-40,4,2,3,70,0,0
61949,-40,4,2,3,5,0,0
62043,-40,4,2,3,70,0,0
62231,-40,4,2,3,5,0,0
62324,-40,4,2,3,70,0,0
62512,-40,4,2,3,5,0,0
62606,-40,4,2,3,70,0,0
62981,-100,4,2,3,60,0,0
74231,-100,4,2,2,40,0,0
74418,-100,4,2,2,50,0,0
74606,-100,4,2,2,60,0,0
74793,-100,4,2,2,70,0,0
74981,-100,4,2,3,50,0,0
76481,-100,4,2,3,55,0,0
77981,-100,4,2,3,60,0,0
79481,-100,4,2,3,65,0,0
80981,-100,4,2,1,70,0,0
82668,-76.9230769230769,4,2,1,70,0,0
84168,-100,4,2,1,70,0,0
85668,-111.111111111111,4,2,1,70,0,0
86418,-133.333333333333,4,2,1,70,0,0
86981,375,7,2,3,55,1,0
95231,-50,7,2,3,70,0,0
95606,-66.6666666666667,7,2,3,70,0,0
96356,-133.333333333333,7,2,2,70,0,0
96543,-50,7,2,3,70,0,0
96731,-66.6666666666667,7,2,2,50,0,0
97481,-66.6666666666667,7,2,3,60,0,0
107043,-100,7,2,3,70,0,0
107231,-25,7,2,3,70,0,0
107371,-100,7,2,3,70,0,0
107512,-100,7,2,3,70,0,0
107559,-100,7,2,3,20,0,0
107606,-100,7,2,3,70,0,0
107652,-100,7,2,3,20,0,0
107699,-100,7,2,3,70,0,0
107746,-100,7,2,3,20,0,0
107793,-100,7,2,3,70,0,0
108262,-100,7,2,3,40,0,0
110231,-66.6666666666667,7,2,1,35,0,0
110887,-66.6666666666667,7,2,3,50,0,0
112856,-66.6666666666667,7,2,1,45,0,0
113512,-66.6666666666667,7,2,1,60,0,0
115481,-66.6666666666667,7,2,1,55,0,0
115856,375,4,2,3,25,1,0
115856,-50,4,2,3,25,0,0
115902,-50,4,2,3,50,0,0
116231,-50,4,2,2,40,0,0
116606,-50,4,2,2,50,0,0
116652,-50,4,2,2,20,0,0
116699,-50,4,2,2,50,0,0
116746,-50,4,2,2,20,0,0
116793,-50,4,2,2,50,0,0
116840,-50,4,2,2,20,0,0
116887,-50,4,2,2,50,0,0
116934,-50,4,2,2,20,0,0
116981,-40,4,2,3,70,0,0
117121,-40,4,2,3,5,0,0
117168,-100,4,2,3,70,0,0
117262,-100,4,2,3,5,0,0
117356,-40,4,2,3,70,0,0
117543,-40,4,2,3,5,0,0
117637,-40,4,2,3,70,0,0
117824,-40,4,2,3,5,0,0
117918,-40,4,2,3,70,0,0
118106,-40,4,2,3,5,0,0
118199,-40,4,2,3,70,0,0
118387,-40,4,2,3,5,0,0
118481,-100,4,2,3,70,0,0
118856,-66.6666666666667,4,2,1,70,0,1
119606,-50,4,2,1,70,0,1
119793,-66.6666666666667,4,2,1,70,0,1
120356,-50,4,2,1,70,0,1
120543,-66.6666666666667,4,2,1,70,0,1
121856,-50,4,2,1,70,0,1
122418,-66.6666666666667,4,2,1,70,0,1
124481,-50,4,2,1,70,0,1
124668,-66.6666666666667,4,2,1,70,0,1
124856,-50,4,2,1,70,0,1
127293,-66.6666666666667,4,2,1,70,0,1
127856,-83.3333333333333,4,2,1,70,0,1
128606,-100,4,2,1,70,0,1
129356,-100,4,2,3,70,0,0
130481,-40,4,2,3,70,0,0
130621,-40,4,2,3,5,0,0
130668,-40,4,2,3,70,0,0
130856,-58.8235294117647,4,2,1,70,0,1
137793,-66.6666666666667,4,2,1,70,0,1
139856,-66.6666666666667,4,2,1,70,0,1
145856,-100,4,2,1,70,0,1
147356,-100,4,2,1,70,0,0
147449,-100,4,2,3,5,0,0

[Colours]
Combo1 : 16,120,175
Combo2 : 97,6,170
Combo3 : 4,68,155
Combo4 : 141,7,108

[HitObjects]
256,272,2981,5,4,1:0:0:0:
28,328,3168,6,0,B|4:272|4:272|28:216,1,119.999996337891,2|0,0:0|1:0,0:0:0:0:
140,220,3543,2,0,B|164:276|164:276|140:332,1,119.999996337891,2|0,0:0|1:0,0:0:0:0:
24,104,3918,2,0,L|144:104,1,119.999996337891,2|0,0:0|1:0,0:0:0:0:
256,284,4293,2,0,L|256:224,1,59.9999981689454,2|2,0:0|0:0,0:0:0:0:
256,0,4481,1,0,1:0:0:0:
484,56,4668,6,0,B|508:112|508:112|484:168,1,119.999996337891,2|0,0:0|1:0,0:0:0:0:
372,164,5043,2,0,B|348:108|348:108|372:52,1,119.999996337891,2|0,0:0|1:0,0:0:0:0:
488,280,5418,2,0,L|368:280,1,119.999996337891,2|0,0:0|1:0,0:0:0:0:
256,100,5793,2,0,L|256:160,1,59.9999981689454,2|2,0:0|0:0,0:0:0:0:
256,384,5981,1,0,1:0:0:0:
4,300,6168,6,0,L|96:288,1,59.9999981689454,2|0,0:0|0:0,0:0:0:0:
144,280,6356,1,0,1:0:0:0:
24,120,6543,2,0,L|100:220,1,119.999996337891,2|0,0:0|1:0,0:0:0:0:
256,168,6918,6,0,L|256:84,1,59.9999981689454,2|0,0:0|0:0,0:0:0:0:
256,28,7106,1,0,1:0:0:0:
428,132,7293,2,0,L|320:64,1,119.999996337891,2|0,0:0|1:0,0:0:0:0:
212,232,7668,2,0,B|204:260|204:260|212:296,1,59.9999981689454,2|0,0:0|0:0,0:0:0:0:
188,368,7856,1,0,1:0:0:0:
320,368,8043,2,0,L|184:368,1,119.999996337891,2|0,0:0|1:0,0:0:0:0:
508,300,8418,6,0,L|416:288,1,59.9999981689454,2|0,0:0|0:0,0:0:0:0:
320,292,8606,1,0,1:0:0:0:
316,220,8699,1,0,1:0:0:0:
312,148,8793,1,0,3:0:0:0:
308,76,8887,1,0,3:0:0:0:
304,4,8981,6,0,L|444:24,1,119.999996337891,10|2,1:3|0:0,0:0:0:0:
488,48,9262,1,0,0:0:0:0:
440,72,9356,1,2,1:3:0:0:
312,232,9543,1,2,0:0:0:0:
268,268,9637,1,0,0:0:0:0:
320,292,9731,2,0,L|460:272,1,119.999996337891,2|2,1:3|0:0,0:0:0:0:
508,300,10012,1,0,0:0:0:0:
468,344,10106,1,2,1:3:0:0:
216,320,10293,5,2,0:0:0:0:
260,356,10387,1,0,0:0:0:0:
208,380,10481,2,0,L|68:360,1,119.999996337891,2|2,1:3|0:0,0:0:0:0:
24,336,10762,1,0,0:0:0:0:
72,312,10856,1,2,1:3:0:0:
200,152,11043,1,2,0:0:0:0:
244,116,11137,1,0,0:0:0:0:
192,92,11231,2,0,L|52:112,1,119.999996337891,2|2,1:3|0:0,0:0:0:0:
4,84,11512,1,0,0:0:0:0:
44,40,11606,1,2,1:3:0:0:
312,80,11793,5,2,0:0:0:0:
268,44,11887,1,0,0:0:0:0:
320,20,11981,2,0,L|316:148,1,119.999996337891,8|2,1:3|0:0,0:0:0:0:
314,217,12293,1,2,0:2:0:0:
314,217,12356,1,2,1:3:0:0:
500,344,12543,5,2,0:0:0:0:
448,368,12637,2,0,L|452:240,1,119.999996337891
452,236,12871,1,2,0:0:0:0:
313,293,13012,1,0,0:0:0:0:
314,217,13106,6,0,P|276:220|244:260,1,75.0000028610231,2|0,1:3|0:0,0:0:0:0:
308,368,13293,2,0,P|346:365|378:325,1,75.0000028610231,2|0,0:2|0:0,0:0:0:0:
186,140,13481,5,0,1:0:0:0:
176,236,13574,1,2,1:2:0:0:
165,330,13668,1,2,1:2:0:0:
154,322,13856,5,0,1:0:0:0:
164,236,13949,1,2,1:2:0:0:
173,148,14043,1,2,1:2:0:0:
163,156,14231,5,0,1:0:0:0:
154,236,14324,1,0,3:0:0:0:
84,271,14418,1,0,3:0:0:0:
75,271,14606,5,0,1:0:0:0:
11,225,14699,1,0,3:0:0:0:
15,145,14793,1,0,3:0:0:0:
88,112,14887,1,0,3:0:0:0:
153,155,14981,6,0,P|189:151|216:128,1,59.9999981689454,4|0,1:0|2:0,0:0:0:0:
168,4,15168,1,0,3:0:0:0:
160,80,15262,1,0,3:2:0:0:
153,155,15356,5,8,1:2:0:0:
224,132,15449,1,0,2:0:0:0:
280,184,15543,1,0,3:0:0:0:
256,288,15637,5,2,3:2:0:0:
256,288,15731,2,0,L|332:284,1,59.9999981689454,8|0,1:2|2:0,0:0:0:0:
492,244,15918,1,0,3:0:0:0:
492,322,16012,1,0,3:0:0:0:
417,355,16106,6,0,P|413:326|397:301,1,59.9999981689454,8|0,1:2|2:0,0:0:0:0:
415,222,16292,1,0,3:2:0:0:
384,92,16387,5,2,1:2:0:0:
384,92,16481,2,0,L|376:164,1,59.9999981689454,8|0,1:2|2:0,0:0:0:0:
311,360,16668,5,0,3:2:0:0:
315,284,16761,1,0,3:0:0:0:
195,324,16855,5,8,1:2:0:0:
239,384,16949,1,0,2:0:0:0:
311,360,17043,1,0,3:2:0:0:
315,284,17137,5,2,1:2:0:0:
315,284,17231,2,0,L|255:276,1,59.9999981689454,8|0,1:2|2:0,0:0:0:0:
152,260,17418,2,0,L|92:252,1,59.9999981689454,0|0,1:2|3:0,0:0:0:0:
12,68,17606,1,8,1:2:0:0:
100,4,17699,1,0,2:0:0:0:
88,80,17793,1,0,3:0:0:0:
76,156,17887,1,0,1:0:0:0:
32,248,17981,6,0,B|55:266|55:266|85:258,1,59.9999981689454,8|0,1:2|2:0,0:0:0:0:
176,176,18168,1,0,3:0:0:0:
176,32,18262,1,2,1:2:0:0:
176,32,18356,2,0,L|188:104,1,59.9999981689454,8|0,1:2|2:0,0:0:0:0:
256,216,18543,5,0,3:0:0:0:
260,136,18637,1,0,3:0:0:0:
264,56,18731,2,0,L|328:52,1,59.9999981689454,8|0,1:2|2:0,0:0:0:0:
332,236,18918,5,0,3:0:0:0:
336,158,19012,1,0,3:0:0:0:
411,128,19106,2,0,P|413:157|428:183,1,59.9999981689454,8|0,1:2|2:0,0:0:0:0:
407,261,19292,1,0,3:2:0:0:
512,160,19387,5,2,3:2:0:0:
512,160,19481,2,0,P|509:130|494:104,1,59.9999981689454,8|0,1:2|2:0,0:0:0:0:
344,300,19668,5,0,3:2:0:0:
404,255,19761,1,2,3:2:0:0:
404,255,19855,5,8,1:2:0:0:
468,295,19949,1,0,2:0:0:0:
444,367,20043,1,0,3:2:0:0:
368,371,20137,1,0,3:2:0:0:
344,300,20231,2,0,P|316:292|272:297,1,59.9999981689454,8|0,1:2|2:0,0:0:0:0:
216,320,20418,1,0,3:0:0:0:
168,380,20512,5,2,3:2:0:0:
168,380,20606,2,0,P|166:350|174:321,1,59.9999981689454,0|0,1:2|2:0,0:0:0:0:
216,224,20793,1,0,3:0:0:0:
312,172,20887,5,2,3:2:0:0:
312,172,20981,2,0,P|313:142|305:113,1,59.9999981689454,8|0,1:2|2:0,0:0:0:0:
216,224,21168,1,0,3:0:0:0:
132,160,21262,5,2,3:2:0:0:
132,160,21356,2,0,P|133:130|144:101,1,59.9999981689454,8|0,1:2|2:0,0:0:0:0:
224,148,21543,1,0,3:0:0:0:
288,52,21637,5,2,3:2:0:0:
288,52,21731,2,0,P|301:93|332:108,1,59.9999981689454,8|0,1:2|2:0,0:0:0:0:
216,224,21918,1,0,3:0:0:0:
172,44,22012,5,2,3:2:0:0:
172,44,22106,2,0,P|154:83|123:95,1,59.9999981689454,8|0,1:2|2:0,0:0:0:0:
224,148,22292,1,2,3:2:0:0:
292,252,22387,5,2,3:2:0:0:
292,252,22481,2,0,P|325:254|364:228,1,59.9999981689454,8|0,1:2|2:0,0:0:0:0:
288,336,22668,5,0,3:2:0:0:
172,300,22761,1,2,3:2:0:0:
172,300,22855,5,8,1:2:0:0:
216,360,22949,1,0,2:0:0:0:
288,336,23043,1,0,3:2:0:0:
292,260,23137,5,2,3:2:0:0:
292,260,23231,2,0,L|281:196,1,59.9999981689454,8|0,1:2|2:0,0:0:0:0:
408,60,23418,2,0,L|397:124,1,59.9999981689454,0|0,3:2|3:0,0:0:0:0:
188,228,23606,1,8,1:2:0:0:
221,162,23699,1,0,1:0:0:0:
255,97,23793,1,0,3:0:0:0:
200,48,23887,1,2,1:2:0:0:
144,0,23981,6,0,B|112:-8|112:-8|36:40,1,119.999996337891,8|0,1:2|3:0,0:0:0:0:
0,104,24262,1,0,3:0:0:0:
52,156,24356,2,0,B|84:156|84:156|145:222,1,119.999996337891,8|0,1:2|3:0,0:0:0:0:
156,268,24637,1,0,3:0:0:0:
140,312,24731,6,0,B|92:360|92:360|59:360,1,100,8|0,1:2|3:0,0:0:0:0:
64,264,25012,1,0,3:0:0:0:
156,268,25106,2,0,L|260:268,1,100,8|0,1:2|3:0,0:0:0:0:
280,316,25387,1,0,3:0:0:0:
256,364,25481,5,0,1:0:0:0:
256,364,25762,5,8,0:0:0:0:
256,364,25856,1,2,1:2:0:0:
256,364,26137,5,8,0:2:0:0:
256,364,26231,1,2,1:2:0:0:
256,364,26512,5,8,0:2:0:0:
256,364,26606,1,8,1:1:0:0:
256,192,26794,1,0,0:0:0:0:
108,92,26981,5,4,1:0:0:0:
124,164,27074,1,2,0:1:0:0:
108,92,27168,1,2,3:2:0:0:
4,224,27356,1,2,1:1:0:0:
60,384,27543,5,2,3:2:0:0:
136,364,27637,1,2,3:1:0:0:
60,384,27731,1,2,1:2:0:0:
136,364,27824,1,2,0:1:0:0:
52,144,28012,5,0,3:0:0:0:
124,164,28106,1,2,1:1:0:0:
52,144,28199,1,2,0:2:0:0:
124,164,28293,1,2,3:1:0:0:
52,144,28387,1,2,3:2:0:0:
216,120,28481,6,0,L|120:140,1,85.0000016212464,2|2,1:2|0:1,0:0:0:0:
128,272,28668,1,0,3:0:0:0:
96,8,28856,1,2,1:1:0:0:
468,128,29043,5,0,3:0:0:0:
384,116,29137,1,2,3:1:0:0:
468,128,29231,1,8,1:2:0:0:
360,92,29324,2,0,P|352:56|356:8,1,85.0000016212464,2|0,0:1|3:1,0:0:0:0:
132,137,29606,1,2,1:1:0:0:
284,300,29793,2,0,P|292:336|288:384,1,85.0000016212464,0|2,3:1|1:1,0:1:0:0:
192,232,29981,5,8,1:2:0:0:
276,224,30074,1,2,0:1:0:0:
360,216,30168,1,2,3:2:0:0:
128,288,30356,1,2,1:1:0:0:
456,316,30543,1,0,3:2:0:0:
380,368,30637,5,2,3:1:0:0:
388,284,30731,1,2,1:2:0:0:
396,200,30824,1,2,0:1:0:0:
128,72,31012,1,2,3:2:0:0:
128,72,31106,1,2,1:1:0:0:
308,232,31293,2,0,P|309:199|328:148,1,85.0000016212464,0|2,3:0|3:2,0:0:0:0:
512,92,31481,5,8,1:2:0:0:
424,80,31574,1,0,0:0:0:0:
336,68,31668,1,0,3:0:0:0:
248,56,31762,1,2,3:1:0:0:
160,44,31856,1,2,1:2:0:0:
8,304,32043,1,0,3:0:0:0:
128,248,32137,5,2,3:1:0:0:
112,336,32231,1,2,1:2:0:0:
128,248,32324,1,2,0:1:0:0:
4,84,32512,5,2,3:2:0:0:
100,64,32606,1,2,1:1:0:0:
4,84,32699,1,0,0:2:0:0:
100,64,32793,1,2,3:1:0:0:
240,284,32981,5,2,1:1:0:0:
220,188,33074,1,2,0:2:0:0:
204,88,33168,1,2,3:1:0:0:
368,164,33356,1,2,1:1:0:0:
324,340,33543,2,0,P|297:326|239:311,1,85.0000016212464,0|8,3:0|3:2,0:0:0:0:
60,339,33731,5,2,1:1:0:0:
155,339,33824,1,2,0:2:0:0:
177,248,33918,1,2,3:1:0:0:
12,96,34106,1,2,1:1:0:0:
88,204,34293,2,0,L|104:120,1,75.0000028610231,0|2,3:0|3:1,0:0:0:0:
192,28,34481,5,8,1:2:0:0:
212,108,34574,1,0,0:0:0:0:
236,188,34668,1,2,3:1:0:0:
356,64,34856,1,2,1:1:0:0:
312,264,35043,5,0,3:0:0:0:
388,276,35137,1,2,3:2:0:0:
312,264,35231,1,2,1:1:0:0:
388,276,35324,1,2,0:2:0:0:
472,32,35512,5,2,3:1:0:0:
480,80,35606,1,2,1:2:0:0:
472,32,35699,1,2,0:1:0:0:
480,80,35793,1,2,3:2:0:0:
248,196,35981,5,8,1:2:0:0:
248,196,36074,1,2,0:1:0:0:
248,196,36168,1,0,3:0:0:0:
392,352,36356,1,8,1:2:0:0:
504,180,36543,5,0,3:0:0:0:
444,172,36637,1,2,3:1:0:0:
384,164,36731,1,8,1:2:0:0:
324,156,36824,1,2,0:1:0:0:
280,116,36918,1,0,3:0:0:0:
172,288,37106,1,8,1:2:0:0:
172,348,37199,1,2,0:1:0:0:
120,320,37293,1,2,3:2:0:0:
64,24,37481,5,0,3:0:0:0:
88,72,37574,1,0,2:0:0:0:
96,128,37668,1,0,3:0:0:0:
96,184,37762,1,0,3:0:0:0:
56,24,37856,5,0,3:0:0:0:
68,64,37949,1,0,2:0:0:0:
68,104,38043,1,0,3:0:0:0:
56,140,38137,1,0,3:0:0:0:
12,16,38231,5,2,1:2:0:0:
56,32,38324,1,2,0:2:0:0:
108,64,38418,1,2,3:2:0:0:
144,124,38512,1,2,3:2:0:0:
148,204,38606,1,8,1:2:0:0:
80,351,38793,6,0,P|71:361|60:365,1,25,2|0,3:2|3:2,0:0:0:0:
40,356,38887,1,0,3:0:0:0:
54,250,38981,6,0,B|56:224|56:224|21:189,1,75.0000028610231,4|0,1:0|2:0,0:0:0:0:
180,152,39168,1,0,3:0:0:0:
180,152,39262,1,0,3:0:0:0:
54,250,39356,6,0,B|56:224|56:224|96:195,1,75.0000028610231,8|0,1:3|2:0,0:0:0:0:
68,92,39543,1,0,3:0:0:0:
68,92,39637,1,0,3:0:0:0:
54,250,39731,5,8,1:3:0:0:
0,276,39824,1,0,2:0:0:0:
48,308,39918,1,0,3:0:0:0:
104,284,40012,1,0,3:0:0:0:
54,250,40106,6,0,L|68:84,1,150.000005722046,8|0,1:3|3:0,0:0:0:0:
24,172,40387,1,0,3:0:0:0:
54,250,40481,6,0,B|56:224|56:224|21:189,1,75.0000028610231,8|0,1:3|0:0,0:0:0:0:
34,39,40668,2,0,B|32:65|32:65|66:99,1,75.0000028610231,0|0,3:0|3:0,0:0:0:0:
96,195,40856,5,8,1:3:0:0:
65,217,40950,1,0,0:0:0:0:
54,250,41043,1,0,3:0:0:0:
136,360,41231,5,0,1:3:0:0:
212,352,41325,1,0,1:0:0:0:
288,344,41418,1,0,3:0:0:0:
392,52,41606,5,8,1:3:0:0:
256,196,41793,1,0,3:0:0:0:
458,250,41981,6,0,B|456:224|456:224|491:189,1,75.0000028610231,8|0,1:3|0:0,0:0:0:0:
332,152,42168,1,0,3:0:0:0:
332,152,42262,1,0,3:0:0:0:
458,250,42356,6,0,B|456:224|456:224|416:195,1,75.0000028610231,8|0,1:3|0:0,0:0:0:0:
444,92,42543,1,0,3:0:0:0:
444,92,42637,1,0,3:0:0:0:
458,250,42731,5,8,1:3:0:0:
512,276,42824,1,0,0:0:0:0:
464,308,42918,1,0,3:0:0:0:
408,284,43012,1,0,3:0:0:0:
458,250,43106,6,0,L|444:84,1,150.000005722046,8|0,1:3|3:0,0:0:0:0:
488,172,43387,1,0,3:0:0:0:
458,250,43481,6,0,B|456:224|456:224|491:189,1,75.0000028610231,8|0,1:3|0:0,0:0:0:0:
478,40,43668,2,0,B|480:66|480:66|445:101,1,75.0000028610231,0|0,3:3|3:0,0:0:0:0:
416,195,43856,5,8,1:3:0:0:
447,217,43950,1,0,0:0:0:0:
458,250,44043,1,0,3:0:0:0:
168,100,44231,5,0,3:3:0:0:
264,88,44325,1,0,3:0:0:0:
360,76,44418,1,0,3:0:0:0:
364,88,44606,5,8,1:3:0:0:
288,84,44699,1,0,3:0:0:0:
212,80,44793,1,0,3:0:0:0:
136,76,44887,1,0,3:0:0:0:
56,152,44981,6,0,B|58:178|58:178|23:213,1,75.0000028610231,8|0,1:3|0:0,0:0:0:0:
182,250,45168,1,0,3:0:0:0:
182,250,45262,1,0,3:0:0:0:
56,152,45356,6,0,B|58:178|58:178|98:207,1,75.0000028610231,8|0,1:3|0:0,0:0:0:0:
70,310,45543,1,0,3:0:0:0:
70,310,45637,1,0,3:0:0:0:
56,152,45731,5,8,1:3:0:0:
2,126,45824,1,0,0:0:0:0:
50,94,45918,1,0,3:0:0:0:
106,118,46012,1,0,3:0:0:0:
56,152,46106,6,0,L|70:318,1,150.000005722046,8|0,1:3|3:0,0:0:0:0:
26,230,46387,1,0,3:0:0:0:
56,152,46481,6,0,B|58:178|58:178|23:213,1,75.0000028610231,8|0,1:3|0:0,0:0:0:0:
36,363,46668,2,0,B|34:337|34:337|68:303,1,75.0000028610231,0|0,3:0|3:0,0:0:0:0:
98,207,46856,5,8,1:3:0:0:
67,185,46950,1,0,0:0:0:0:
56,152,47043,1,0,3:0:0:0:
138,42,47231,5,0,1:0:0:0:
214,50,47325,1,0,1:0:0:0:
290,58,47418,1,0,3:0:0:0:
394,350,47606,5,8,1:3:0:0:
455,152,47793,1,0,3:0:0:0:
455,152,47887,1,0,3:0:0:0:
456,152,47981,6,0,B|454:178|454:178|489:213,1,75.0000028610231,8|0,1:3|0:0,0:0:0:0:
336,260,48168,1,0,3:0:0:0:
336,260,48262,1,0,3:0:0:0:
456,152,48356,6,0,B|454:178|454:178|414:207,1,75.0000028610231,8|0,1:3|0:0,0:0:0:0:
442,310,48543,1,0,3:0:0:0:
442,310,48637,1,0,3:0:0:0:
456,152,48731,5,8,1:3:0:0:
510,126,48824,1,0,2:0:0:0:
462,94,48918,1,0,3:0:0:0:
406,118,49012,1,0,3:0:0:0:
455,152,49106,6,0,L|445:276,1,75.0000028610231,8|0,1:3|2:0,0:0:0:0:
336,260,49293,1,0,3:0:0:0:
336,260,49387,1,0,3:0:0:0:
448,220,49481,6,0,B|351:162|359:254|270:211,1,187.5,2|0,3:1|2:0,0:0:0:0:
263,214,49668,6,0,P|273:164|255:122,1,75.0000028610231,0|0,0:0|2:0,0:0:0:0:
148,12,49856,5,2,0:2:0:0:
44,124,50043,1,2,0:0:0:0:
44,124,50137,1,0,0:0:0:0:
52,88,50231,5,0,3:0:0:0:
128,84,50324,1,0,3:0:0:0:
192,124,50418,1,0,3:0:0:0:
180,224,50606,5,0,3:0:0:0:
136,236,50699,1,0,3:0:0:0:
184,244,50793,1,0,3:0:0:0:
140,256,50886,1,0,3:0:0:0:
216,312,50981,6,0,B|248:336|248:336|316:320|316:320|352:344,1,150,6|0,1:0|0:0,0:0:0:0:
349,342,51168,6,0,B|381:366|381:366|449:350|449:350|464:312,1,150,0|0,3:0|0:0,0:0:0:0:
464,312,51356,6,0,B|432:288|432:288|364:304|364:304|349:342,1,150,8|0,1:3|0:0,0:0:0:0:
349,341,51543,6,0,B|309:346|309:346|254:303|254:303|215:311,1,150,2|0,3:1|0:0,0:0:0:0:
144,328,51731,5,8,1:3:0:0:
96,327,51824,1,2,0:1:0:0:
57,296,51918,1,0,3:0:0:0:
10,299,52012,1,0,3:0:0:0:
124,252,52106,5,2,1:1:0:0:
12,204,52293,5,0,3:0:0:0:
60,203,52386,1,2,3:1:0:0:
99,172,52480,1,8,1:3:0:0:
146,175,52574,1,0,0:0:0:0:
32,128,52668,5,2,3:1:0:0:
72,96,52762,1,0,3:0:0:0:
112,12,52856,5,8,1:3:0:0:
108,60,52949,1,2,0:1:0:0:
140,100,53043,1,2,3:2:0:0:
316,116,53231,5,8,1:3:0:0:
351,78,53325,1,2,1:1:0:0:
351,30,53418,1,0,3:0:0:0:
224,136,53606,1,2,1:1:0:0:
240,280,53793,1,0,3:0:0:0:
240,280,53887,1,0,3:0:0:0:
316,320,53981,6,0,B|301:358|301:358|233:374|233:374|201:350,1,150,2|0,1:1|0:0,0:0:0:0:
202,350,54168,6,0,B|168:328|168:328|100:344|100:344|68:320,1,150,0|0,3:0|0:0,0:0:0:0:
69,320,54356,6,0,B|108:312|108:312|163:355|163:355|203:350,1,150,8|0,1:3|0:0,0:0:0:0:
202,350,54543,6,0,B|217:312|217:312|285:296|285:296|317:320,1,150,2|0,3:1|0:0,0:0:0:0:
376,364,54731,5,8,1:3:0:0:
417,385,54824,1,2,0:1:0:0:
466,374,54918,1,0,3:0:0:0:
490,334,55012,1,0,3:0:0:0:
420,304,55106,5,2,1:1:0:0:
448,168,55293,5,0,3:0:0:0:
406,146,55386,1,2,3:1:0:0:
357,157,55480,1,8,1:3:0:0:
333,197,55574,1,0,0:0:0:0:
400,232,55668,5,2,3:1:0:0:
360,264,55762,1,0,3:0:0:0:
320,348,55856,5,8,1:3:0:0:
324,300,55949,1,2,0:1:0:0:
292,260,56043,1,2,0:0:0:0:
124,228,56231,5,8,1:3:0:0:
74,284,56325,1,2,1:2:0:0:
74,360,56418,1,2,3:1:0:0:
212,224,56606,5,2,1:1:0:0:
172,156,56699,1,0,1:0:0:0:
100,124,56793,1,2,3:2:0:0:
92,44,56887,1,0,3:0:0:0:
160,0,56981,6,0,P|208:-7|268:68,1,150,2|0,1:1|0:0,0:0:0:0:
268,72,57168,6,0,P|250:117|155:131,1,150,0|0,3:0|0:0,0:0:0:0:
152,128,57356,6,0,P|121:89|156:0,1,150,8|0,1:3|0:0,0:0:0:0:
160,0,57543,6,0,P|224:24|208:72,1,100,2|0,3:1|0:0,0:0:0:0:
152,128,57731,5,8,1:3:0:0:
121,89,57824,1,2,0:1:0:0:
121,40,57918,1,0,3:0:0:0:
151,2,58012,1,0,3:0:0:0:
268,72,58106,5,2,1:1:0:0:
160,0,58293,5,0,3:0:0:0:
208,0,58386,1,2,3:1:0:0:
250,18,58480,1,8,1:3:0:0:
267,64,58574,1,0,0:0:0:0:
152,128,58668,5,2,3:1:0:0:
192,160,58762,1,0,3:0:0:0:
232,244,58856,5,8,1:3:0:0:
228,196,58949,1,2,0:1:0:0:
260,156,59043,1,2,0:0:0:0:
436,140,59231,5,8,1:3:0:0:
471,178,59325,1,2,1:1:0:0:
471,226,59418,1,0,3:0:0:0:
344,120,59606,1,2,1:1:0:0:
256,328,59793,1,0,3:0:0:0:
256,328,59887,1,0,3:0:0:0:
256,328,59981,6,0,P|304:331|343:301,1,100,2|0,1:1|1:0,0:0:0:0:
138,123,60168,2,0,P|111:164|117:213,1,100,0|2,3:0|2:1,0:0:0:0:
373,123,60356,2,0,P|351:80|306:61,1,100,0|0,1:0|3:0,0:0:0:0:
256,192,60543,1,2,1:1:0:0:
224,336,60731,5,0,1:0:0:0:
156,296,60824,1,2,0:1:0:0:
124,224,60918,1,2,3:1:0:0:
44,216,61012,1,0,3:0:0:0:
0,284,61106,5,2,1:1:0:0:
32,356,61199,1,0,1:0:0:0:
112,364,61293,1,2,3:1:0:0:
156,296,61387,1,0,3:0:0:0:
124,224,61481,6,2,P|75:210|52:365,1,250,4|0,1:2|0:0,0:1:0:0:
129,226,61762,6,2,P|236:189|200:83,1,250,4|0,1:2|0:0,0:1:0:0:
124,224,62043,6,2,P|88:188|211:91,1,250,4|0,1:2|0:0,0:1:0:0:
129,226,62324,6,2,P|148:336|37:357,1,250,4|0,1:2|0:0,0:1:0:0:
68,172,62606,6,2,P|68:140|52:116,3,62.5,0|0|0|0,3:0|3:0|3:0|3:0,0:1:0:0:
124,88,62793,2,0,P|123:57|140:31,3,62.5,0|0|0|0,3:0|3:0|3:0|3:0,0:1:0:0:
194,80,62981,5,4,0:0:0:0:
168,152,63168,1,0,0:0:0:0:
224,204,63356,1,0,0:0:0:0:
256,272,63543,1,0,0:0:0:0:
264,348,63684,1,8,0:0:0:0:
264,348,63731,5,4,0:3:0:0:
324,304,63918,1,0,0:0:0:0:
400,292,64106,1,0,0:0:0:0:
512,352,64293,1,0,0:0:0:0:
508,224,64434,1,8,0:0:0:0:
508,224,64481,5,0,0:0:0:0:
356,144,64668,1,0,0:0:0:0:
432,136,64856,1,0,0:0:0:0:
508,128,65043,1,0,0:0:0:0:
428,0,65184,1,8,0:0:0:0:
428,0,65231,5,4,0:3:0:0:
464,68,65418,1,0,0:0:0:0:
432,136,65606,1,0,0:0:0:0:
360,152,65793,1,0,0:0:0:0:
256,256,65934,1,0,0:0:0:0:
256,256,65981,5,8,0:0:0:0:
260,252,66356,1,0,0:0:0:0:
288,184,66543,1,2,0:0:0:0:
256,116,66731,5,4,0:3:0:0:
180,108,66918,1,0,0:0:0:0:
124,160,67106,1,0,0:0:0:0:
48,156,67293,1,2,0:0:0:0:
172,0,67481,5,8,0:0:0:0:
172,8,67856,1,0,0:0:0:0:
256,116,68043,6,0,L|310:112,2,33.3333333333333,2|2|0,0:0|0:0|0:0,0:0:0:0:
180,108,68231,1,4,0:3:0:0:
124,160,68418,1,0,0:0:0:0:
136,236,68606,1,2,0:0:0:0:
200,272,68793,1,0,0:0:0:0:
304,384,68981,5,8,0:0:0:0:
252,328,69168,1,0,0:0:0:0:
200,272,69356,1,0,0:0:0:0:
176,344,69543,1,0,0:0:0:0:
80,236,69731,5,4,0:3:0:0:
80,236,69777,1,8,0:0:0:0:
116,168,69918,1,0,0:0:0:0:
116,92,70106,1,0,0:0:0:0:
48,120,70293,1,0,0:0:0:0:
0,180,70481,5,8,0:0:0:0:
0,180,70527,1,0,0:0:0:0:
156,232,70668,1,0,0:0:0:0:
232,224,70856,1,0,0:0:0:0:
308,216,71043,1,0,0:0:0:0:
228,88,71184,1,8,0:0:0:0:
228,88,71231,5,4,0:3:0:0:
264,156,71418,1,0,0:0:0:0:
232,224,71606,1,0,0:0:0:0:
160,240,71793,1,0,0:0:0:0:
56,344,71981,5,8,0:0:0:0:
56,344,72027,1,0,0:0:0:0:
52,348,72356,1,0,0:0:0:0:
24,280,72543,1,2,0:0:0:0:
56,212,72731,5,4,0:3:0:0:
132,204,72918,1,0,0:0:0:0:
188,256,73106,1,0,0:0:0:0:
264,252,73293,1,2,0:0:0:0:
360,136,73481,6,0,P|360:92|328:52,1,87.5,8|2,0:0|0:0,0:0:0:0:
272,100,73738,2,0,P|273:119|285:135,1,37.5,2|2,0:0|0:0,0:0:0:0:
356,116,73856,6,0,P|352:88|336:68,1,50,2|2,0:0|0:0,0:0:0:0:
264,96,74020,2,0,P|268:124|284:144,1,50,2|2,0:0|0:0,0:0:0:0:
336,52,74231,5,2,3:2:0:0:
310,35,74324,1,0,3:2:0:0:
271,22,74418,1,0,3:2:0:0:
223,23,74512,1,0,3:2:0:0:
174,46,74606,1,2,3:2:0:0:
142,97,74699,1,0,3:2:0:0:
137,163,74793,1,2,3:2:0:0:
113,97,74887,1,0,3:2:0:0:
52,52,74981,6,0,L|-3:57,1,50,4|0,1:0|0:0,0:0:0:0:
164,44,75168,1,0,0:0:0:0:
120,204,75356,1,0,1:0:0:0:
216,152,75543,1,2,0:0:0:0:
0,176,75731,2,0,L|112:164,1,100,8|0,1:2|0:0,0:0:0:0:
232,344,76106,1,0,1:0:0:0:
204,200,76294,1,2,0:0:0:0:
96,324,76481,6,0,L|24:317,1,50,8|0,1:2|0:0,0:0:0:0:
241,334,76668,1,0,0:0:0:0:
184,126,76856,1,0,1:0:0:0:
309,194,77043,1,2,0:0:0:0:
28,162,77231,2,0,L|173:177,1,100,8|0,1:2|0:0,0:0:0:0:
408,112,77606,1,8,1:2:0:0:
224,128,77794,1,0,0:0:0:0:
56,52,77981,6,0,L|48:-12,1,50,8|0,1:2|0:0,0:0:0:0:
24,168,78168,1,0,0:0:0:0:
304,52,78356,2,0,B|276:56|276:56|240:40|240:40|208:44,1,100,8|0,1:2|0:0,0:0:0:0:
480,224,78731,6,0,L|488:160,1,50,8|0,1:2|0:0,0:0:0:0:
512,340,78918,1,0,0:0:0:0:
232,224,79106,2,0,B|260:228|260:228|296:212|296:212|328:216,1,100,8|0,1:2|0:0,0:0:0:0:
404,296,79387,1,0,0:0:0:0:
416,308,79481,6,0,L|395:229,1,50,8|0,1:2|0:0,0:0:0:0:
376,112,79668,1,2,0:0:0:0:
260,324,79856,2,0,B|256:295|256:295|231:265|231:265|227:233,1,100,8|0,1:2|0:0,0:0:0:0:
244,104,80137,1,0,0:0:0:0:
256,92,80231,2,0,L|235:171,1,50,0|0,1:0|0:0,0:0:0:0:
0,212,80418,5,8,0:0:0:0:
159,177,80606,1,0,1:0:0:0:
0,212,80793,1,8,0:0:0:0:
168,32,80981,1,8,1:2:0:0:
268,276,81168,6,0,L|200:264,1,50,0|0,3:0|3:0,0:0:0:0:
144,252,81355,1,0,1:0:0:0:
168,128,81543,6,0,L|156:196,1,50,0|0,3:0|3:0,0:0:0:0:
144,252,81730,1,8,1:2:0:0:
20,228,81918,6,0,L|88:240,1,50,0|0,3:2|3:0,0:0:0:0:
144,252,82105,1,0,1:0:0:0:
120,376,82293,6,0,L|132:308,1,50,0|0,3:0|3:0,0:0:0:0:
144,252,82480,1,8,1:2:0:0:
224,120,82668,6,0,L|288:131,1,64.9999970245363,0|0,3:0|3:0,0:0:0:0:
363,147,82855,1,8,1:2:0:0:
336,286,83043,6,0,L|347:222,1,64.9999970245363,0|0,3:0|3:0,0:0:0:0:
363,147,83230,1,8,1:2:0:0:
502,174,83418,6,0,L|438:163,1,64.9999970245363,0|0,3:0|3:0,0:0:0:0:
363,147,83606,1,8,1:2:0:0:
390,8,83794,6,0,L|379:72,1,64.9999970245363,0|0,3:0|3:0,0:0:0:0:
363,147,83981,1,8,1:2:0:0:
120,336,84168,6,0,P|126:314|156:290,1,50,0|0,3:0|3:0,0:0:0:0:
256,248,84355,1,8,1:2:0:0:
392,336,84543,6,0,P|385:314|356:290,1,50,0|0,3:0|3:0,0:0:0:0:
256,248,84730,1,8,1:2:0:0:
120,336,84918,6,0,P|126:314|156:290,1,50,0|0,3:0|3:0,0:0:0:0:
256,248,85105,1,8,1:2:0:0:
392,336,85293,6,0,P|385:314|356:290,1,50,0|0,3:0|3:0,0:0:0:0:
256,248,85480,1,8,1:2:0:0:
132,140,85668,6,0,P|160:148|188:140,1,44.999998626709,0|2,3:0|3:2,0:0:0:0:
256,96,85855,1,8,1:2:0:0:
256,172,85949,1,0,2:0:0:0:
380,140,86043,6,0,P|352:148|324:140,1,44.999998626709,0|0,3:0|3:0,0:0:0:0:
256,172,86230,1,8,1:2:0:0:
152,48,86418,6,0,P|172:52|196:44,1,37.5000014305115,0|0,3:0|3:0,0:0:0:0:
256,12,86605,1,8,1:2:0:0:
256,88,86699,1,0,2:0:0:0:
360,48,86793,6,0,P|340:52|316:44,1,37.5000014305115,0|0,3:0|3:0,0:0:0:0:
256,12,86980,5,2,3:2:0:0:
256,248,87262,5,2,0:0:0:0:
256,248,87356,1,2,0:0:0:0:
256,248,87543,1,2,0:0:0:0:
112,164,87824,5,0,0:0:0:0:
56,172,87918,1,0,0:0:0:0:
256,248,88105,1,2,0:0:0:0:
112,164,88387,5,0,0:0:0:0:
56,172,88481,1,0,0:0:0:0:
256,248,88668,1,2,0:0:0:0:
112,164,88949,5,0,0:0:0:0:
56,172,89043,1,0,0:0:0:0:
56,372,89230,1,2,0:0:0:0:
32,280,89418,1,0,0:0:0:0:
256,248,89606,5,2,0:2:0:0:
256,248,89888,1,2,0:0:0:0:
256,248,89982,1,2,0:0:0:0:
256,248,90169,1,2,0:0:0:0:
216,56,90450,5,0,0:0:0:0:
272,64,90544,1,0,0:0:0:0:
256,248,90731,1,2,0:0:0:0:
216,56,91012,5,0,0:0:0:0:
272,64,91106,1,0,0:0:0:0:
256,248,91294,1,2,0:0:0:0:
216,56,91574,5,0,0:0:0:0:
272,64,91668,1,0,0:0:0:0:
144,168,91856,1,2,0:0:0:0:
320,152,92044,1,0,0:0:0:0:
496,140,92231,5,2,0:3:0:0:
416,240,92418,1,0,0:0:0:0:
416,240,92512,1,2,0:3:0:0:
416,240,92606,1,2,0:3:0:0:
256,368,92887,5,0,0:0:0:0:
304,352,92981,1,2,0:3:0:0:
256,332,93074,1,0,0:0:0:0:
208,312,93168,1,2,0:3:0:0:
256,292,93262,1,2,0:3:0:0:
256,212,93449,5,2,0:3:0:0:
284,168,93543,1,2,0:3:0:0:
228,168,93637,1,0,0:0:0:0:
256,124,93730,1,2,0:3:0:0:
256,4,94012,5,0,0:0:0:0:
256,4,94106,1,2,0:3:0:0:
284,80,94293,5,0,0:0:0:0:
228,80,94387,1,0,0:0:0:0:
256,124,94480,1,2,0:3:0:0:
104,192,94668,1,0,0:0:0:0:
104,192,94762,1,2,0:3:0:0:
104,192,94856,1,2,0:3:0:0:
152,368,95043,5,0,0:0:0:0:
152,368,95137,1,0,0:0:0:0:
152,368,95231,6,0,B|195:371|204:328|140:272|108:396|20:408|56:253|32:304|56:368|112:332,1,200,2|2,0:3|0:0,0:0:0:0:
104,268,95512,1,2,0:0:0:0:
104,192,95606,6,0,B|92:168|92:168|92:160|92:160|84:156|84:156|68:128,1,75.0000028610231,2|0,0:0|0:0,0:0:0:0:
176,32,95793,2,0,B|164:56|164:56|164:64|164:64|156:68|156:68|140:96,1,75.0000028610231,2|0,0:0|0:0,0:0:0:0:
256,188,95981,1,2,0:0:0:0:
248,232,96074,1,2,0:0:0:0:
264,276,96168,1,2,0:0:0:0:
256,320,96262,1,2,0:0:0:0:
256,348,96356,6,0,P|280:336|292:336,1,37.5000014305115,0|0,3:0|0:0,0:0:0:0:
384,344,96543,6,0,B|372:344|355:320|373:283|347:394|410:386|433:297|479:337|473:368,1,150,2|0,0:0|0:0,0:0:0:0:
488,356,96731,2,0,P|498:340|500:321,2,37.5000014305115,0|0|0,3:0|3:0|3:0,0:0:0:0:
416,268,96918,2,0,B|404:244|404:244|440:172,1,75.0000028610231,2|0,0:0|0:0,0:0:0:0:
508,96,97106,2,0,B|504:76|504:76|488:60,2,37.5000014305115,0|0|0,3:0|3:0|3:0,0:0:0:0:
504,176,97293,1,2,3:2:0:0:
504,176,97387,1,2,3:2:0:0:
344,240,97481,6,0,P|340:172|304:76,1,150.000005722046,10|0,0:3|0:0,0:0:0:0:
404,0,97762,6,0,P|402:37|395:74,1,75.0000028610231,0|10,0:0|0:3,0:0:0:0:
336,252,98043,1,0,0:0:0:0:
308,108,98231,5,10,0:3:0:0:
236,74,98324,2,0,P|235:36|227:0,1,75.0000028610231,0|2,0:0|0:3,0:0:0:0:
224,248,98512,1,2,0:3:0:0:
164,108,98699,5,2,0:3:0:0:
92,74,98793,2,0,P|91:36|84:0,1,75.0000028610231,2|2,0:3|0:3,0:0:0:0:
80,248,98980,1,10,0:3:0:0:
452,312,99262,1,2,0:3:0:0:
452,312,99356,5,2,0:0:0:0:
452,312,99731,1,2,0:0:0:0:
168,240,99918,1,0,0:0:0:0:
168,240,100012,1,2,0:3:0:0:
168,240,100106,6,0,P|172:172|208:76,1,150.000005722046,10|0,0:3|0:0,0:0:0:0:
108,0,100387,6,0,P|109:37|116:74,1,75.0000028610231,0|10,0:0|0:3,0:0:0:0:
176,252,100668,1,0,0:0:0:0:
204,108,100856,5,10,0:3:0:0:
283,0,100949,2,0,P|275:36|275:74,1,75.0000028610231,2|0,0:3|0:2,0:0:0:0:
288,248,101137,1,2,0:3:0:0:
348,108,101324,5,2,0:3:0:0:
427,0,101418,2,0,P|419:36|419:74,1,75.0000028610231,2|2,0:3|0:3,0:0:0:0:
432,248,101605,1,10,0:3:0:0:
60,312,101887,1,2,0:3:0:0:
60,312,101981,5,2,0:0:0:0:
60,312,102356,1,2,0:0:0:0:
356,240,102543,1,0,0:0:0:0:
356,240,102637,1,2,0:3:0:0:
356,240,102731,6,0,P|284:228|192:208,1,150.000005722046,10|0,0:3|0:0,0:0:0:0:
132,280,103012,6,0,P|204:292|260:296,1,75.0000028610231,0|10,0:0|0:3,0:0:0:0:
360,156,103293,1,0,0:0:0:0:
224,204,103481,5,10,0:3:0:0:
116,116,103574,2,0,P|188:128|244:132,1,75.0000028610231,0|2,0:0|0:3,0:0:0:0:
376,136,103762,1,2,0:3:0:0:
236,104,103949,5,2,0:3:0:0:
128,16,104043,2,0,P|200:28|256:32,1,75.0000028610231,2|2,0:3|0:3,0:0:0:0:
388,36,104230,1,10,0:3:0:0:
256,368,104512,1,2,0:3:0:0:
256,368,104606,5,2,0:0:0:0:
256,368,104981,1,2,0:0:0:0:
256,204,105168,1,0,0:0:0:0:
256,204,105262,1,0,0:0:0:0:
256,204,105356,5,8,0:3:0:0:
256,192,105543,1,2,0:3:0:0:
256,180,105731,1,8,0:3:0:0:
256,168,105918,1,2,0:3:0:0:
256,156,106106,1,2,0:3:0:0:
256,144,106293,1,2,0:3:0:0:
256,292,106481,5,2,0:3:0:0:
256,288,106574,1,2,0:3:0:0:
256,284,106668,1,0,0:0:0:0:
256,280,106762,1,2,0:3:0:0:
256,276,106856,1,2,0:3:0:0:
172,144,107043,2,0,P|172:172|164:196,1,50,2|0,0:3|0:0,0:0:0:0:
0,240,107231,6,0,B|212:228,1,200,2|0,0:0|0:0,0:0:0:0:
168,272,107371,6,0,P|170:299|180:323,1,50,0|0,0:3|0:0,0:0:0:0:
172,356,107512,6,0,P|153:345|140:324,1,25,10|0,0:3|0:0,0:0:0:0:
172,356,107606,2,0,P|172:379|161:399,1,25,10|0,0:3|0:0,0:0:0:0:
172,357,107699,2,0,P|192:346|216:346,1,25,10|0,0:3|0:0,0:0:0:0:
256,192,107981,5,2,0:0:0:0:
256,192,108074,1,2,0:0:0:0:
256,192,108168,1,2,0:0:0:0:
188,192,108262,5,2,3:2:0:0:
324,192,108543,1,0,3:0:0:0:
215,262,108824,5,0,3:0:0:0:
296,120,109105,1,0,3:0:0:0:
303,273,109387,5,0,3:0:0:0:
208,109,109668,1,0,3:0:0:0:
364,192,109949,5,0,3:0:0:0:
216,199,110231,5,0,3:0:0:0:
283,164,110324,5,0,3:0:0:0:
236,200,110418,5,0,3:0:0:0:
270,182,110512,5,0,3:0:0:0:
256,192,110606,5,0,3:0:0:0:
256,192,110652,1,0,3:0:0:0:
194,297,110887,5,0,3:0:0:0:
317,85,111168,1,0,3:0:0:0:
317,85,111215,1,0,3:0:0:0:
323,309,111449,5,0,3:0:0:0:
187,74,111730,1,0,3:0:0:0:
187,74,111777,1,0,3:0:0:0:
404,190,112012,5,0,3:0:0:0:
105,190,112293,1,0,3:0:0:0:
105,190,112340,1,0,3:0:0:0:
337,50,112574,5,0,3:0:0:0:
316,183,112856,5,0,3:0:0:0:
215,236,112949,5,0,3:0:0:0:
285,182,113043,5,0,3:0:0:0:
235,208,113137,5,0,3:0:0:0:
256,192,113231,5,0,3:0:0:0:
256,192,113277,1,0,3:0:0:0:
342,344,113512,5,0,3:0:0:0:
342,344,113559,1,0,0:0:0:0:
166,38,113793,1,0,3:0:0:0:
166,38,113840,1,0,3:0:0:0:
443,192,114074,5,0,3:0:0:0:
443,192,114121,1,0,0:0:0:0:
63,193,114355,1,0,3:0:0:0:
63,193,114402,1,0,3:0:0:0:
355,16,114637,5,0,3:0:0:0:
355,16,114684,1,0,0:0:0:0:
151,369,114918,1,0,3:0:0:0:
151,369,114965,1,0,3:0:0:0:
146,3,115199,5,0,3:0:0:0:
146,3,115246,1,0,0:0:0:0:
166,207,115481,5,0,3:0:0:0:
316,129,115574,5,0,3:0:0:0:
211,210,115668,5,0,3:0:0:0:
287,169,115762,5,0,3:0:0:0:
256,192,115856,5,0,3:0:0:0:
256,192,115902,6,0,P|265:214|267:239,2,50,0|0|0,3:0|3:0|3:0,0:0:0:0:
272,272,116043,2,0,P|296:274|319:284,3,50,0|0|0|0,1:0|1:0|1:0|1:0,0:0:0:0:
336,300,116231,6,0,B|344:312|336:324|336:324|328:336|336:348,7,50,2|2|2|2|2|2|2|2,2:3|2:3|2:3|2:3|2:3|2:3|2:3|2:3,0:0:0:0:
412,288,116606,6,0,B|424:284|424:284|472:280,1,50,2|0,3:2|0:0,0:0:0:0:
400,216,116699,6,0,B|412:212|412:212|460:208,1,50,2|0,3:2|0:0,0:0:0:0:
416,140,116793,6,0,B|428:136|428:136|476:132,1,50,2|0,3:2|0:0,0:0:0:0:
404,68,116887,6,0,B|416:64|416:64|464:60,1,50,2|0,3:2|0:0,0:0:0:0:
360,8,116981,6,0,B|488:0|504:28|513:5|513:5|516:-16|488:4,1,187.5,2|0,0:1|0:0,0:0:0:0:
488,8,117168,6,0,P|465:18|440:18,1,50,2|0,0:2|0:0,0:0:0:0:
124,160,117356,6,0,P|75:174|52:19,1,250,4|0,1:2|0:0,0:0:0:0:
129,158,117637,6,0,P|236:195|200:301,1,250,4|0,1:2|0:0,0:0:0:0:
124,160,117918,6,0,P|88:196|211:293,1,250,4|2,1:2|0:0,0:0:0:0:
129,158,118199,6,0,P|148:48|37:27,1,250,4|0,1:2|0:0,0:0:0:0:
68,212,118481,1,2,0:0:0:0:
68,212,118856,6,0,P|64:256|96:292,1,75.0000028610231,4|0,1:0|2:0,0:0:0:0:
208,188,119043,1,0,3:0:0:0:
129,158,119137,1,0,3:2:0:0:
160,312,119231,6,0,P|200:293|215:247,1,75.0000028610231,8|0,1:2|2:0,0:0:0:0:
196,104,119418,1,0,3:0:0:0:
216,192,119512,1,2,3:2:0:0:
360,104,119606,6,0,P|362:153|340:197,1,100,8|0,1:2|2:0,0:0:0:0:
340,24,119793,1,0,3:0:0:0:
184,60,119887,1,0,3:0:0:0:
256,16,119981,6,0,P|260:45|288:92,1,75.0000028610231,8|0,1:2|0:0,0:0:0:0:
364,108,120167,1,0,3:2:0:0:
336,192,120262,5,2,3:2:0:0:
472,208,120356,2,0,P|478:140|452:100,1,100,8|0,1:2|0:0,0:0:0:0:
400,256,120543,5,0,3:2:0:0:
396,336,120636,1,0,3:0:0:0:
476,360,120731,6,0,P|484:328|472:276,1,75.0000028610231,8|0,1:2|0:0,0:0:0:0:
400,332,120918,1,0,3:2:0:0:
404,252,121012,1,0,3:2:0:0:
320,368,121106,6,0,P|276:368|228:336,1,75.0000028610231,8|0,1:2|0:0,0:0:0:0:
276,184,121293,2,0,P|313:182|347:196,1,75.0000028610231,0|0,3:2|3:0,0:0:0:0:
204,288,121481,5,8,1:2:0:0:
128,260,121574,1,0,0:0:0:0:
60,308,121668,1,0,3:0:0:0:
136,340,121762,1,0,3:0:0:0:
192,208,121856,6,0,P|192:172|156:112,1,100,8|0,1:2|0:0,0:0:0:0:
128,260,122043,1,0,3:2:0:0:
108,108,122137,1,2,3:2:0:0:
52,228,122231,2,0,P|42:179|57:132,1,100,8|0,1:2|0:0,0:0:0:0:
256,8,122418,5,0,3:0:0:0:
280,88,122512,1,0,3:0:0:0:
304,168,122606,2,0,L|212:160,1,75.0000028610231,8|0,1:2|0:0,0:0:0:0:
96,60,122793,2,0,L|188:52,1,75.0000028610231,2|0,3:2|3:0,0:0:0:0:
384,0,122981,2,0,P|368:36|376:92,1,75.0000028610231,8|0,1:2|0:0,0:0:0:0:
452,284,123168,5,0,3:0:0:0:
476,204,123262,1,0,3:0:0:0:
500,124,123356,2,0,L|408:132,1,75.0000028610231,8|0,1:2|0:0,0:0:0:0:
229,216,123543,5,0,3:2:0:0:
233,140,123636,1,2,3:2:0:0:
345,180,123730,5,8,1:2:0:0:
305,116,123824,1,0,0:0:0:0:
233,140,123918,1,0,3:2:0:0:
229,216,124012,1,0,3:2:0:0:
300,240,124106,2,0,P|308:268|296:336,1,75.0000028610231,0|0,1:2|0:0,0:0:0:0:
236,340,124293,1,0,3:0:0:0:
100,288,124387,5,2,3:2:0:0:
184,280,124481,2,0,P|148:300|80:284,1,100,8|0,1:2|0:0,0:0:0:0:
16,208,124668,1,0,3:0:0:0:
148,136,124762,5,2,3:2:0:0:
64,128,124856,2,0,P|100:148|168:132,1,100,8|0,1:2|0:0,0:0:0:0:
212,68,125043,1,0,3:0:0:0:
292,120,125137,5,2,3:2:0:0:
371,90,125231,2,0,P|341:118|271:120,1,100,8|0,1:2|0:0,0:0:0:0:
212,68,125418,1,0,3:0:0:0:
276,4,125512,5,2,3:2:0:0:
360,12,125606,2,0,P|324:-8|256:8,1,100,8|0,1:2|0:0,0:0:0:0:
212,68,125793,1,0,3:0:0:0:
132,20,125887,5,2,3:2:0:0:
53,50,125981,2,0,P|82:21|152:19,1,100,8|0,1:2|0:0,0:0:0:0:
212,68,126167,1,2,3:2:0:0:
168,224,126262,5,2,3:2:0:0:
152,144,126356,2,0,P|185:142|252:236,1,150,8|0,1:2|2:0,0:0:0:0:
248,240,126543,5,0,3:2:0:0:
196,304,126636,1,2,3:2:0:0:
320,280,126730,5,8,1:2:0:0:
248,252,126824,1,0,0:0:0:0:
200,316,126918,1,0,3:2:0:0:
244,380,127012,1,2,3:2:0:0:
320,360,127106,6,0,P|369:358|411:332,1,100,8|0,1:2|0:0,0:0:0:0:
512,244,127293,2,0,P|474:258|420:252,1,75.0000028610231,0|0,3:2|3:0,0:0:0:0:
368,220,127481,5,8,1:2:0:0:
321,152,127574,1,0,1:0:0:0:
322,69,127668,1,0,3:0:0:0:
368,0,127762,1,0,3:0:0:0:
368,0,127809,1,2,0:0:0:0:
368,0,127856,6,0,B|400:-8|400:-8|476:40,1,119.999996337891,8|0,1:2|3:0,0:0:0:0:
512,104,128137,1,0,3:0:0:0:
460,156,128231,2,0,B|428:156|428:156|367:222,1,119.999996337891,8|0,1:2|3:0,0:0:0:0:
356,268,128512,1,0,3:0:0:0:
372,312,128606,6,0,B|420:360|420:360|453:360,1,100,8|0,1:2|3:0,0:0:0:0:
448,264,128887,1,0,3:0:0:0:
356,268,128981,2,0,L|252:268,1,100,8|0,1:2|3:0,0:0:0:0:
232,316,129262,1,0,3:0:0:0:
256,364,129356,5,0,1:0:0:0:
256,364,129637,5,8,0:0:0:0:
256,364,129731,1,0,1:0:0:0:
256,364,130012,5,8,0:0:0:0:
256,364,130106,1,0,1:0:0:0:
256,364,130387,5,8,0:0:0:0:
256,364,130481,2,0,B|248:356|248:356|264:356|264:356|256:348|256:348|260:340|260:340|252:340|252:340|256:332|256:332|260:328|260:328|252:328|252:328|256:324|256:324|256:160,1,187.5,8|0,1:1|0:0,0:0:0:0:
256,192,130669,1,2,0:0:0:0:
404,292,130856,5,4,1:0:0:0:
384,216,130949,1,2,2:1:0:0:
404,292,131043,2,0,P|364:308|320:304,1,85.0000016212464,2|0,3:2|3:0,0:0:0:0:
508,160,131231,1,2,1:1:0:0:
452,0,131418,5,2,3:2:0:0:
376,20,131512,1,2,3:1:0:0:
452,0,131606,1,2,1:2:0:0:
344,4,131699,2,0,P|332:44|340:96,1,85.0000016212464,2|0,2:1|3:0,0:0:0:0:
460,236,131887,5,0,3:0:0:0:
384,216,131981,1,2,1:1:0:0:
460,236,132074,1,2,2:2:0:0:
384,216,132168,1,2,3:1:0:0:
460,236,132262,1,2,3:2:0:0:
404,292,132356,5,2,1:2:0:0:
392,200,132449,1,2,2:1:0:0:
384,104,132543,2,0,P|424:92|476:96,1,85.0000016212464,0|0,3:0|3:0,0:0:0:0:
412,384,132731,2,0,P|369:385|329:373,1,85.0000016212464,2|0,1:1|0:0,0:0:0:0:
72,356,132918,5,8,3:2:0:0:
152,352,133012,1,2,3:1:0:0:
72,356,133106,1,2,1:2:0:0:
184,324,133199,2,0,P|188:288|168:204,1,85.0000016212464,2|0,2:1|3:2,0:0:0:0:
16,64,133387,5,8,3:2:0:0:
0,172,133481,2,0,P|36:176|120:156,1,85.0000016212464,2|0,1:1|0:0,0:0:0:0:
236,124,133668,5,8,3:2:0:0:
244,204,133762,1,2,3:1:0:0:
320,156,133856,5,8,1:2:0:0:
232,164,133949,1,2,2:1:0:0:
144,172,134043,2,0,L|152:72,1,85.0000016212464,2|0,3:2|3:0,0:0:0:0:
404,96,134231,2,0,P|368:100|284:80,1,85.0000016212464,2|0,1:1|0:0,0:0:0:0:
56,68,134418,1,0,3:2:0:0:
132,16,134512,5,2,3:1:0:0:
124,104,134606,1,2,1:2:0:0:
116,192,134699,2,0,P|160:200|204:192,1,85.0000016212464,2|0,2:1|3:0,0:0:0:0:
224,284,134887,1,2,3:2:0:0:
396,308,134981,2,0,P|352:316|308:308,1,85.0000016212464,2|0,1:1|2:0,0:0:0:0:
52,360,135168,1,0,3:0:0:0:
80,284,135262,1,2,3:2:0:0:
0,292,135356,5,2,1:1:0:0:
92,304,135449,1,0,1:0:0:0:
188,316,135543,1,0,3:0:0:0:
284,328,135637,1,2,3:1:0:0:
380,340,135731,2,0,P|380:296|396:224,1,85.0000016212464,2|0,1:2|0:0,0:0:0:0:
504,80,135918,1,0,3:0:0:0:
384,136,136012,5,2,3:1:0:0:
400,36,136106,1,8,1:2:0:0:
384,136,136199,2,0,P|338:137|284:120,1,85.0000016212464,2|0,2:1|3:0,0:0:0:0:
508,300,136387,5,8,3:2:0:0:
408,320,136481,1,2,1:1:0:0:
508,300,136574,1,0,1:2:0:0:
408,319,136668,2,0,P|398:277|402:233,1,85.0000016212464,2|0,3:1|3:0,0:0:0:0:
272,96,136856,5,2,1:1:0:0:
292,200,136949,1,2,2:2:0:0:
312,304,137043,2,0,P|313:344|299:386,1,85.0000016212464,2|0,3:1|3:0,0:0:0:0:
148,128,137231,2,0,P|146:87|160:45,1,85.0000016212464,2|0,1:1|0:0,0:0:0:0:
460,60,137418,5,0,3:0:0:0:
364,36,137512,1,2,3:2:0:0:
464,48,137606,5,2,1:1:0:0:
364,48,137699,1,2,2:2:0:0:
364,148,137793,2,0,P|396:160|452:152,1,75.0000028610231,2|0,3:1|3:0,0:0:0:0:
500,288,137981,2,0,P|462:285|427:297,1,75.0000028610231,2|0,1:1|0:0,0:0:0:0:
308,384,138168,5,0,3:0:0:0:
220,360,138262,1,2,3:1:0:0:
312,364,138356,5,2,1:2:0:0:
288,276,138449,1,0,2:0:0:0:
264,188,138543,2,0,P|262:148|276:108,1,75.0000028610231,2|0,3:1|3:0,0:0:0:0:
136,308,138731,2,0,P|138:348|124:388,1,75.0000028610231,2|0,1:1|0:0,0:0:0:0:
184,132,138918,5,0,3:0:0:0:
104,120,139012,1,2,3:2:0:0:
160,56,139106,1,2,1:1:0:0:
160,56,139152,1,2,0:0:0:0:
160,56,139199,2,0,P|152:96|124:148,1,75.0000028610231,2|0,2:2|0:0,0:0:0:0:
40,352,139387,5,2,3:1:0:0:
32,296,139481,1,2,1:2:0:0:
40,352,139574,1,2,2:1:0:0:
32,296,139668,2,0,P|70:299|107:292,1,75.0000028610231,2|0,3:2|3:0,0:0:0:0:
360,4,139856,5,4,1:0:0:0:
360,4,140043,2,0,L|336:136,1,75.0000028610231,0|0,3:0|3:0,0:0:0:0:
104,0,140231,2,0,L|80:132,1,75.0000028610231,2|0,1:2|0:0,0:0:0:0:
395,231,140418,5,2,3:2:0:0:
488,212,140511,1,2,3:2:0:0:
488,212,140605,2,0,L|356:236,1,75.0000028610231,8|0,1:2|2:2,0:2:0:0:
72,164,140793,2,0,L|204:188,1,75.0000028610231,0|0,3:1|3:1,0:0:0:0:
320,372,140981,1,8,1:2:0:0:
376,364,141074,1,0,2:1:0:0:
320,372,141168,2,0,L|304:288,1,75.0000028610231,2|2,3:2|3:2,0:0:0:0:
192,0,141356,5,12,1:2:0:0:
192,0,141543,2,0,L|216:132,1,75.0000028610231,0|0,3:0|3:0,0:0:0:0:
192,384,141731,2,0,L|216:252,1,75.0000028610231,8|0,1:2|0:0,0:0:0:0:
376,150,141918,5,2,3:2:0:0:
488,172,142011,1,2,3:2:0:0:
488,172,142105,2,0,L|356:148,1,75.0000028610231,8|0,1:2|2:0,0:0:0:0:
72,220,142293,2,0,L|204:196,1,75.0000028610231,0|0,3:0|3:0,0:0:0:0:
372,368,142481,1,8,1:2:0:0:
316,380,142574,1,0,2:1:0:0:
288,328,142668,1,0,3:2:0:0:
192,384,142762,1,2,3:2:0:0:
212,276,142856,5,8,1:3:0:0:
212,276,142949,1,0,0:1:0:0:
181,310,143043,2,0,L|168:384,1,75.0000028610231,0|0,3:0|3:0,0:0:0:0:
300,108,143231,5,8,1:3:0:0:
300,108,143324,1,0,0:1:0:0:
331,74,143418,2,0,L|345:1,1,75.0000028610231,0|0,3:0|3:0,0:0:0:0:
64,188,143606,5,8,1:3:0:0:
64,188,143699,1,0,0:1:0:0:
46,212,143793,2,0,L|173:167,1,75.0000028610231,0|0,3:0|3:0,0:0:0:0:
448,196,143981,5,8,1:3:0:0:
448,196,144074,1,0,0:1:0:0:
467,173,144168,2,0,L|340:218,1,75.0000028610231,0|0,3:0|3:0,0:0:0:0:
191,68,144356,5,0,1:2:0:0:
191,68,144449,1,0,0:1:0:0:
191,68,144543,2,0,L|134:20,1,75.0000028610231,0|0,3:0|3:0,0:0:0:0:
321,316,144731,5,0,1:2:0:0:
321,316,144824,1,0,1:1:0:0:
321,316,144918,2,0,L|378:364,1,75.0000028610231,2|0,3:2|3:0,0:0:0:0:
256,260,145106,5,0,1:0:0:0:
300,220,145199,1,2,0:2:0:0:
288,204,145293,1,0,3:0:0:0:
224,204,145387,5,2,3:2:0:0:
212,220,145481,1,0,1:0:0:0:
256,260,145574,1,0,2:0:0:0:
288,204,145668,5,2,3:2:0:0:
288,128,145762,1,0,3:0:0:0:
244,56,145856,5,8,1:2:0:0:
160,8,145949,1,2,3:2:0:0:
56,28,146043,1,2,3:2:0:0:
8,108,146137,1,0,3:2:0:0:
36,188,146231,1,0,1:0:0:0:
112,176,146324,1,2,2:2:0:0:
116,104,146418,1,2,2:2:0:0:
68,92,146512,1,2,2:2:0:0:
48,124,146606,5,0,1:0:0:0:
68,92,146699,5,0,1:0:0:0:
111,116,146793,5,2,1:2:0:0:
88,184,146887,5,0,1:0:0:0:
12,176,146980,5,2,3:2:0:0:
5,91,147074,5,2,3:2:0:0:
72,28,147168,5,2,3:2:0:0:
178,34,147262,5,2,3:2:0:0:
247,102,147355,5,4,1:0:0:0:
256,192,147449,12,0,148856,0:0:0:0:
