osu file format v14

[General]
AudioFilename: audio.mp3
AudioLeadIn: 0
PreviewTime: 118387
Countdown: 1
SampleSet: Normal
StackLeniency: 0.7
Mode: 1
LetterboxInBreaks: 0
WidescreenStoryboard: 0

[Editor]
Bookmarks: 14981,38981,50981,62981,80981,86981,97481,108356,118856,147356
DistanceSpacing: 1.4
BeatDivisor: 4
GridSize: 32
TimelineZoom: 3.399999

[Metadata]
Title:conflict
TitleUnicode:conflict
Artist:siromaru + cranky
ArtistUnicode:siromaru + cranky
Creator:radar
Version:desperation
Source:SOUND VOLTEX III GRAVITY WARS
Tags:Genjuro Idealism fa featured artist osu! electronic video game bms arcaea
BeatmapID:2130686
BeatmapSetID:1018134

[Difficulty]
HPDrainRate:5.5
CircleSize:5
OverallDifficulty:6.5
ApproachRate:5
SliderMultiplier:1.4
SliderTickRate:1

[Events]
//Background and Video events
0,0,"wallhaven-kwkzq1.jpg",0,0
//Break Periods
//Storyboard Layer 0 (Background)
//Storyboard Layer 1 (Fail)
//Storyboard Layer 2 (Pass)
//Storyboard Layer 3 (Foreground)
//Storyboard Layer 4 (Overlay)
//Storyboard Sound Samples

[TimingPoints]
3043,375,4,1,0,75,1,0
14293,-98.0392156862745,4,1,0,75,0,0
14386,-96.1538461538461,4,1,0,75,0,0
14480,-94.3396226415094,4,1,0,75,0,0
14668,-92.5925925925926,4,1,0,75,0,0
14761,-90.9090909090909,4,1,0,75,0,0
14855,-89.2857142857143,4,1,0,75,0,0
14949,-87.719298245614,4,1,0,75,0,0
15043,-86.2068965517241,4,1,0,75,0,1
15230,-84.7457627118644,4,1,0,75,0,1
15324,-83.3333333333333,4,1,0,75,0,1
25168,-84.7457627118644,4,1,0,75,0,1
25261,-86.2068965517241,4,1,0,75,0,1
25355,-87.719298245614,4,1,0,75,0,1
25449,-89.2857142857143,4,1,0,75,0,1
25543,-90.9090909090909,4,1,0,75,0,0
25824,-88.4955752212389,4,1,0,75,0,0
26199,-86.2068965517241,4,1,0,75,0,0
26574,-84.0336134453781,4,1,0,75,0,0
26855,-83.3333333333333,4,1,0,75,0,0
27043,-83.3333333333333,4,1,0,75,0,1
38105,-84.7457627118644,4,1,0,75,0,1
38199,-86.2068965517241,4,1,0,75,0,1
38293,-87.719298245614,4,1,0,75,0,1
38480,-89.2857142857143,4,1,0,75,0,1
38574,-90.9090909090909,4,1,0,75,0,1
38668,-92.5925925925926,4,1,0,75,0,1
38855,-94.3396226415094,4,1,0,75,0,1
38918,-96.1538461538461,4,1,0,75,0,1
38980,-98.0392156862745,4,1,0,75,0,1
39043,-100,4,1,0,75,0,0
60793,-98.0392156862745,4,1,0,75,0,0
60886,-96.1538461538461,4,1,0,75,0,0
60980,-94.3396226415094,4,1,0,75,0,0
61074,-92.5925925925926,4,1,0,75,0,0
61168,-90.9090909090909,4,1,0,75,0,0
61261,-89.2857142857143,4,1,0,75,0,0
61355,-87.719298245614,4,1,0,75,0,0
61449,-86.2068965517241,4,1,0,75,0,0
61543,-84.7457627118644,4,1,0,75,0,0
61824,-92.5925925925926,4,1,0,75,0,0
62105,-100,4,1,0,75,0,0
62386,-105.263157894737,4,1,0,75,0,0
62668,-111.111111111111,4,1,0,75,0,0
73730,-108.695652173913,4,1,0,75,0,0
73793,-107.52688172043,4,1,0,75,0,0
73855,-106.382978723404,4,1,0,75,0,0
73918,-105.263157894737,4,1,0,75,0,0
73980,-104.166666666667,4,1,0,75,0,0
74043,-103.092783505155,4,1,0,75,0,0
74105,-102.040816326531,4,1,0,75,0,0
74199,-101.010101010101,4,1,0,75,0,0
74293,-100,4,1,0,75,0,0
74386,-98.0392156862745,4,1,0,75,0,0
74480,-96.1538461538461,4,1,0,75,0,0
74574,-94.3396226415094,4,1,0,75,0,0
74668,-92.5925925925926,4,1,0,75,0,0
74761,-90.9090909090909,4,1,0,75,0,0
74855,-89.2857142857143,4,1,0,75,0,0
74949,-87.719298245614,4,1,0,75,0,0
75043,-86.2068965517241,4,1,0,75,0,0
75230,-100,4,1,0,75,0,0
87043,375,7,1,0,75,1,0
87324,-105.263157894737,7,1,0,75,0,0
87886,-111.111111111111,7,1,0,75,0,0
91918,-108.695652173913,7,1,0,75,0,0
92105,-106.382978723404,7,1,0,75,0,0
92293,-104.166666666667,7,1,0,75,0,0
92480,-103.092783505155,7,1,0,75,0,0
92574,-102.040816326531,7,1,0,75,0,0
92668,-101.010101010101,7,1,0,75,0,0
92761,-100,7,1,0,75,0,0
105418,375,4,1,0,75,1,0
108043,-98.0392156862745,4,1,0,75,0,0
108136,-96.1538461538461,4,1,0,75,0,0
108230,-94.3396226415094,4,1,0,75,0,0
108324,-92.5925925925926,4,1,0,75,0,0
108605,-100,4,1,0,75,0,8
108793,-99.009900990099,4,1,0,75,0,8
108886,-98.0392156862745,4,1,0,75,0,8
108980,-97.0873786407767,4,1,0,75,0,8
109168,-96.1538461538461,4,1,0,75,0,8
109355,-95.2380952380952,4,1,0,75,0,8
109449,-94.3396226415094,4,1,0,75,0,8
109543,-93.4579439252336,4,1,0,75,0,8
109730,-92.5925925925926,4,1,0,75,0,8
110011,-91.743119266055,4,1,0,75,0,8
110105,-90.9090909090909,4,1,0,75,0,8
110293,-90.0900900900901,4,1,0,75,0,8
110386,-89.2857142857143,4,1,0,75,0,8
110480,-88.4955752212389,4,1,0,75,0,8
110574,-87.719298245614,4,1,0,75,0,8
110668,-86.9565217391304,4,1,0,75,0,8
110855,-86.2068965517241,4,1,0,75,0,8
110949,-85.4700854700855,4,1,0,75,0,8
111136,-84.7457627118644,4,1,0,75,0,8
111230,-84.0336134453781,4,1,0,75,0,8
111418,-83.3333333333333,4,1,0,75,0,8
111511,-82.6446280991736,4,1,0,75,0,8
111605,-81.9672131147541,4,1,0,75,0,8
111699,-81.3008130081301,4,1,0,75,0,8
111793,-80.6451612903226,4,1,0,75,0,8
111980,-80,4,1,0,75,0,8
112074,-79.3650793650794,4,1,0,75,0,8
112261,-78.7401574803149,4,1,0,75,0,8
112355,-78.125,4,1,0,75,0,8
112543,-77.5193798449612,4,1,0,75,0,8
112636,-76.9230769230769,4,1,0,75,0,8
112824,-76.3358778625954,4,1,0,75,0,8
112918,-75.7575757575758,4,1,0,75,0,8
113011,-75.187969924812,4,1,0,75,0,8
113105,-74.6268656716418,4,1,0,75,0,8
113199,-74.0740740740741,4,1,0,75,0,8
113293,-73.5294117647059,4,1,0,75,0,8
113480,-72.992700729927,4,1,0,75,0,8
113574,-72.463768115942,4,1,0,75,0,8
113668,-71.9424460431655,4,1,0,75,0,8
113761,-71.4285714285714,4,1,0,75,0,8
113855,-70.9219858156028,4,1,0,75,0,8
114043,-70.4225352112676,4,1,0,75,0,8
114136,-69.9300699300699,4,1,0,75,0,8
114230,-69.4444444444444,4,1,0,75,0,8
114418,-68.9655172413793,4,1,0,75,0,8
114511,-68.4931506849315,4,1,0,75,0,8
114605,-68.0272108843537,4,1,0,75,0,8
114699,-67.5675675675676,4,1,0,75,0,8
114886,-67.1140939597315,4,1,0,75,0,8
114980,-66.6666666666667,4,1,0,75,0,8
115074,-66.2251655629139,4,1,0,75,0,8
115168,-65.7894736842105,4,1,0,75,0,8
115261,-65.359477124183,4,1,0,75,0,8
115355,-64.9350649350649,4,1,0,75,0,8
115449,-64.5161290322581,4,1,0,75,0,8
115543,-64.1025641025641,4,1,0,75,0,8
115636,-63.6942675159236,4,1,0,75,0,8
115730,-63.2911392405063,4,1,0,75,0,8
115824,-62.8930817610063,4,1,0,75,0,8
115918,-62.5,4,1,0,75,0,8
116480,-63.2911392405063,4,1,0,75,0,8
116668,-64.1025641025641,4,1,0,75,0,8
116761,-64.9350649350649,4,1,0,75,0,8
116855,-65.7894736842105,4,1,0,75,0,8
116949,-66.6666666666667,4,1,0,75,0,8
117043,-67.5675675675676,4,1,0,75,0,8
117230,-66.6666666666667,4,1,0,75,0,8
117418,-71.4285714285714,4,1,0,75,0,8
117699,-76.9230769230769,4,1,0,75,0,8
117980,-83.3333333333333,4,1,0,75,0,8
118261,-90.9090909090909,4,1,0,75,0,8
118543,-100,4,1,0,75,0,8
118918,-83.3333333333333,4,1,0,75,0,1
129043,-84.7457627118644,4,1,0,75,0,1
129136,-86.2068965517241,4,1,0,75,0,1
129230,-87.719298245614,4,1,0,75,0,1
129324,-89.2857142857143,4,1,0,75,0,1
129418,-90.9090909090909,4,1,0,75,0,0
129793,-88.4955752212389,4,1,0,75,0,0
130168,-86.2068965517241,4,1,0,75,0,0
130449,-84.7457627118644,4,1,0,75,0,0
130543,-84.0336134453781,4,1,0,75,0,0
130636,-83.3333333333333,4,1,0,75,0,0
130730,-82.6446280991736,4,1,0,75,0,0
130918,-83.3333333333333,4,1,0,75,0,1
145636,-82.6446280991736,4,1,0,75,0,1
145730,-81.9672131147541,4,1,0,75,0,1
145824,-81.3008130081301,4,1,0,75,0,1
145918,-80.6451612903226,4,1,0,75,0,1
146011,-80,4,1,0,75,0,1
146105,-79.3650793650794,4,1,0,75,0,1
146199,-78.7401574803149,4,1,0,75,0,1
146293,-78.125,4,1,0,75,0,1
146386,-77.5193798449612,4,1,0,75,0,1
146480,-76.9230769230769,4,1,0,75,0,1
146574,-76.3358778625954,4,1,0,75,0,1
146668,-75.7575757575758,4,1,0,75,0,1
146761,-75.187969924812,4,1,0,75,0,1
146855,-74.6268656716418,4,1,0,75,0,1
146949,-74.0740740740741,4,1,0,75,0,1
147043,-73.5294117647059,4,1,0,75,0,1
147136,-72.992700729927,4,1,0,75,0,1
147230,-72.463768115942,4,1,0,75,0,1
147324,-71.9424460431655,4,1,0,75,0,1
147418,-71.4285714285714,4,1,0,75,0,0

[HitObjects]
256,192,2105,12,0,2855,0:0:0:0:
160,96,3043,5,0,0:0:0:0:
352,96,3230,1,8,0:0:0:0:
160,96,3418,1,0,0:0:0:0:
352,96,3605,1,8,0:0:0:0:
352,96,3699,1,8,0:0:0:0:
160,96,3793,1,0,0:0:0:0:
352,96,3980,1,8,0:0:0:0:
352,96,4074,1,8,0:0:0:0:
160,96,4168,1,0,0:0:0:0:
352,96,4355,1,8,0:0:0:0:
160,96,4543,1,0,0:0:0:0:
352,96,4730,1,8,0:0:0:0:
160,96,4918,1,0,0:0:0:0:
160,96,5105,1,0,0:0:0:0:
352,96,5199,1,8,0:0:0:0:
160,96,5293,1,0,0:0:0:0:
352,96,5480,1,8,0:0:0:0:
352,96,5574,1,8,0:0:0:0:
160,96,5668,1,0,0:0:0:0:
352,96,5855,1,8,0:0:0:0:
160,96,6043,1,0,0:0:0:0:
352,96,6230,1,8,0:0:0:0:
160,96,6418,1,0,0:0:0:0:
352,96,6605,1,8,0:0:0:0:
160,96,6699,1,8,0:0:0:0:
160,96,6793,1,0,0:0:0:0:
352,96,6980,1,8,0:0:0:0:
160,96,7074,1,0,0:0:0:0:
160,96,7168,1,0,0:0:0:0:
352,96,7355,1,8,0:0:0:0:
352,96,7449,1,8,0:0:0:0:
160,96,7543,1,0,0:0:0:0:
352,96,7730,1,8,0:0:0:0:
160,96,7918,1,0,0:0:0:0:
352,96,8105,1,8,0:0:0:0:
352,96,8293,1,8,0:0:0:0:
160,96,8386,1,0,0:0:0:0:
352,96,8480,1,8,0:0:0:0:
352,96,8668,1,8,0:0:0:0:
352,96,8761,1,8,0:0:0:0:
352,96,8855,1,8,0:0:0:0:
352,96,8949,1,8,0:0:0:0:
160,96,9043,1,0,0:0:0:0:
352,96,9230,1,8,0:0:0:0:
160,96,9418,1,0,0:0:0:0:
160,96,9511,1,0,0:0:0:0:
352,96,9605,1,8,0:0:0:0:
160,96,9793,1,0,0:0:0:0:
352,96,9980,1,8,0:0:0:0:
160,96,10168,1,0,0:0:0:0:
160,96,10261,1,0,0:0:0:0:
352,96,10355,1,8,0:0:0:0:
160,96,10543,1,0,0:0:0:0:
352,96,10730,1,8,0:0:0:0:
160,96,10918,1,0,0:0:0:0:
352,96,11105,1,8,0:0:0:0:
160,96,11199,1,0,0:0:0:0:
352,96,11293,1,8,0:0:0:0:
352,96,11480,1,8,0:0:0:0:
352,96,11574,1,8,0:0:0:0:
160,96,11668,1,0,0:0:0:0:
352,96,11855,1,8,0:0:0:0:
160,96,12043,1,0,0:0:0:0:
160,96,12136,1,0,0:0:0:0:
352,96,12230,1,8,0:0:0:0:
160,96,12324,1,0,0:0:0:0:
352,96,12418,1,8,0:0:0:0:
352,96,12605,1,8,0:0:0:0:
352,96,12699,1,8,0:0:0:0:
160,96,12793,1,0,0:0:0:0:
160,96,12980,1,8,0:0:0:0:
160,96,13074,1,0,0:0:0:0:
352,96,13168,1,8,0:0:0:0:
352,96,13355,1,8,0:0:0:0:
352,96,13543,1,8,0:0:0:0:
160,96,13636,1,0,0:0:0:0:
352,96,13730,1,8,0:0:0:0:
352,96,13918,1,8,0:0:0:0:
352,96,13980,1,8,0:0:0:0:
352,96,14043,1,8,0:0:0:0:
160,96,14105,1,0,0:0:0:0:
352,96,14293,1,8,0:0:0:0:
352,96,14386,1,8,0:0:0:0:
160,96,14480,1,0,0:0:0:0:
352,96,14668,1,8,0:0:0:0:
160,96,14761,1,0,0:0:0:0:
352,96,14855,1,8,0:0:0:0:
352,96,14949,1,8,0:0:0:0:
160,288,15043,1,4,0:0:0:0:
160,96,15230,1,0,0:0:0:0:
352,96,15324,1,8,0:0:0:0:
160,96,15418,1,0,0:0:0:0:
352,96,15605,1,8,0:0:0:0:
160,96,15793,1,0,0:0:0:0:
160,96,15886,1,0,0:0:0:0:
352,96,15980,1,8,0:0:0:0:
352,96,16074,1,8,0:0:0:0:
160,96,16168,1,0,0:0:0:0:
160,96,16449,1,0,0:0:0:0:
352,96,16543,1,8,0:0:0:0:
160,96,16730,1,0,0:0:0:0:
352,96,16824,1,8,0:0:0:0:
160,96,16918,1,0,0:0:0:0:
160,96,17105,1,0,0:0:0:0:
352,96,17199,1,8,0:0:0:0:
352,96,17293,1,8,0:0:0:0:
160,96,17480,1,0,0:0:0:0:
160,96,17574,1,0,0:0:0:0:
352,96,17668,1,8,0:0:0:0:
352,96,17761,1,8,0:0:0:0:
160,96,17855,1,0,0:0:0:0:
352,96,17949,1,8,0:0:0:0:
160,96,18043,1,0,0:0:0:0:
160,96,18324,1,0,0:0:0:0:
352,96,18418,1,8,0:0:0:0:
160,96,18605,1,0,0:0:0:0:
352,96,18793,1,8,0:0:0:0:
352,96,18886,1,8,0:0:0:0:
160,96,18980,1,0,0:0:0:0:
352,96,19168,1,8,0:0:0:0:
160,96,19355,1,0,0:0:0:0:
160,96,19449,1,0,0:0:0:0:
352,96,19543,1,8,0:0:0:0:
352,96,19824,1,8,0:0:0:0:
160,96,19918,1,0,0:0:0:0:
160,96,20105,1,0,0:0:0:0:
160,96,20199,1,0,0:0:0:0:
352,96,20293,1,8,0:0:0:0:
160,96,20386,1,0,0:0:0:0:
352,96,20480,1,8,0:0:0:0:
352,96,20574,1,8,0:0:0:0:
160,96,20668,1,0,0:0:0:0:
352,96,20949,1,8,0:0:0:0:
160,96,21043,1,0,0:0:0:0:
160,96,21230,1,0,0:0:0:0:
160,96,21324,1,0,0:0:0:0:
352,96,21418,1,8,0:0:0:0:
160,96,21605,1,0,0:0:0:0:
352,96,21699,1,8,0:0:0:0:
352,96,21793,1,8,0:0:0:0:
160,96,21886,1,0,0:0:0:0:
160,96,21980,1,0,0:0:0:0:
352,96,22074,1,8,0:0:0:0:
160,96,22168,1,0,0:0:0:0:
160,96,22449,1,0,0:0:0:0:
352,96,22543,1,8,0:0:0:0:
352,96,22824,1,8,0:0:0:0:
160,96,22918,1,0,0:0:0:0:
352,96,23105,1,8,0:0:0:0:
352,96,23199,1,8,0:0:0:0:
160,96,23293,1,0,0:0:0:0:
160,96,23480,1,0,0:0:0:0:
352,96,23668,1,8,0:0:0:0:
352,96,23761,1,8,0:0:0:0:
352,96,23855,1,8,0:0:0:0:
352,96,23949,1,8,0:0:0:0:
160,96,24043,1,0,0:0:0:0:
160,96,24324,1,0,0:0:0:0:
160,96,24418,1,0,0:0:0:0:
160,96,24699,1,0,0:0:0:0:
352,96,24793,1,8,0:0:0:0:
160,96,24980,1,0,0:0:0:0:
352,96,25168,1,8,0:0:0:0:
352,96,25261,1,8,0:0:0:0:
160,96,25355,1,0,0:0:0:0:
352,96,25449,1,8,0:0:0:0:
160,96,25543,1,0,0:0:0:0:
352,96,25824,1,8,0:0:0:0:
160,96,25918,1,0,0:0:0:0:
160,96,26199,1,0,0:0:0:0:
352,96,26293,1,8,0:0:0:0:
352,96,26574,1,8,0:0:0:0:
352,96,26668,1,8,0:0:0:0:
160,96,26855,1,0,0:0:0:0:
160,288,27043,1,4,0:0:0:0:
352,96,27230,1,8,0:0:0:0:
160,96,27324,1,0,0:0:0:0:
352,96,27418,1,8,0:0:0:0:
352,96,27605,1,8,0:0:0:0:
352,96,27699,1,8,0:0:0:0:
160,96,27793,1,0,0:0:0:0:
160,96,27980,1,0,0:0:0:0:
352,96,28074,1,8,0:0:0:0:
352,96,28168,1,8,0:0:0:0:
160,96,28261,1,0,0:0:0:0:
352,96,28355,1,8,0:0:0:0:
352,96,28449,1,8,0:0:0:0:
160,96,28543,1,0,0:0:0:0:
160,96,28824,1,0,0:0:0:0:
352,96,28918,1,8,0:0:0:0:
160,96,29105,1,0,0:0:0:0:
352,96,29199,1,8,0:0:0:0:
352,96,29293,1,8,0:0:0:0:
352,96,29480,1,8,0:0:0:0:
160,96,29574,1,0,0:0:0:0:
352,96,29668,1,8,0:0:0:0:
160,96,29761,1,0,0:0:0:0:
352,96,29855,1,8,0:0:0:0:
352,96,29949,1,8,0:0:0:0:
160,96,30043,1,0,0:0:0:0:
352,96,30230,1,8,0:0:0:0:
352,96,30324,1,8,0:0:0:0:
160,96,30418,1,0,0:0:0:0:
160,96,30699,1,0,0:0:0:0:
352,96,30793,1,8,0:0:0:0:
160,96,30886,1,0,0:0:0:0:
352,96,30980,1,8,0:0:0:0:
352,96,31074,1,8,0:0:0:0:
160,96,31168,1,0,0:0:0:0:
160,96,31449,1,0,0:0:0:0:
352,96,31543,1,8,0:0:0:0:
352,96,31824,1,8,0:0:0:0:
160,96,31918,1,0,0:0:0:0:
160,96,32105,1,0,0:0:0:0:
352,96,32293,1,8,0:0:0:0:
352,96,32386,1,8,0:0:0:0:
160,96,32480,1,0,0:0:0:0:
352,96,32668,1,8,0:0:0:0:
160,96,32855,1,0,0:0:0:0:
352,96,32949,1,8,0:0:0:0:
352,96,33043,1,8,0:0:0:0:
352,96,33230,1,8,0:0:0:0:
160,96,33324,1,0,0:0:0:0:
352,96,33418,1,8,0:0:0:0:
160,96,33699,1,0,0:0:0:0:
352,96,33793,1,8,0:0:0:0:
352,96,33980,1,8,0:0:0:0:
160,96,34074,1,0,0:0:0:0:
352,96,34168,1,8,0:0:0:0:
160,96,34355,1,0,0:0:0:0:
352,96,34449,1,8,0:0:0:0:
352,96,34543,1,8,0:0:0:0:
352,96,34824,1,8,0:0:0:0:
160,96,34918,1,0,0:0:0:0:
352,96,35105,1,8,0:0:0:0:
160,96,35199,1,0,0:0:0:0:
352,96,35293,1,8,0:0:0:0:
160,96,35480,1,0,0:0:0:0:
160,96,35574,1,0,0:0:0:0:
352,96,35668,1,8,0:0:0:0:
352,96,35761,1,8,0:0:0:0:
160,96,35855,1,0,0:0:0:0:
352,96,35949,1,8,0:0:0:0:
160,96,36043,1,0,0:0:0:0:
160,96,36324,1,0,0:0:0:0:
352,96,36418,1,8,0:0:0:0:
352,96,36605,1,8,0:0:0:0:
160,96,36699,1,0,0:0:0:0:
352,96,36793,1,8,0:0:0:0:
160,96,37074,1,0,0:0:0:0:
352,96,37168,1,8,0:0:0:0:
160,96,37261,1,0,0:0:0:0:
352,96,37355,1,8,0:0:0:0:
352,96,37449,1,8,0:0:0:0:
160,96,37543,1,0,0:0:0:0:
352,96,37824,1,8,0:0:0:0:
160,96,37918,1,0,0:0:0:0:
160,96,38105,1,0,0:0:0:0:
352,96,38199,1,8,0:0:0:0:
160,96,38293,1,0,0:0:0:0:
160,96,38480,1,0,0:0:0:0:
352,96,38574,1,8,0:0:0:0:
352,96,38668,1,8,0:0:0:0:
352,96,38855,1,8,0:0:0:0:
352,96,38918,1,8,0:0:0:0:
160,96,38980,1,0,0:0:0:0:
160,96,39043,1,0,0:0:0:0:
160,96,39324,1,0,0:0:0:0:
352,96,39418,1,8,0:0:0:0:
160,96,39605,1,0,0:0:0:0:
160,96,39793,1,0,0:0:0:0:
352,96,39886,1,8,0:0:0:0:
352,96,39980,1,8,0:0:0:0:
160,96,40168,1,0,0:0:0:0:
352,96,40355,1,8,0:0:0:0:
352,96,40449,1,8,0:0:0:0:
160,96,40543,1,0,0:0:0:0:
160,96,40730,1,0,0:0:0:0:
160,96,40918,1,0,0:0:0:0:
352,96,41011,1,8,0:0:0:0:
352,96,41105,1,8,0:0:0:0:
160,96,41293,1,0,0:0:0:0:
352,96,41386,1,8,0:0:0:0:
352,96,41480,1,8,0:0:0:0:
160,96,41574,1,0,0:0:0:0:
352,96,41668,1,8,0:0:0:0:
352,96,41855,1,8,0:0:0:0:
160,96,42043,1,0,0:0:0:0:
160,96,42324,1,0,0:0:0:0:
352,96,42418,1,8,0:0:0:0:
160,96,42605,1,0,0:0:0:0:
160,96,42793,1,0,0:0:0:0:
352,96,42886,1,8,0:0:0:0:
352,96,42980,1,8,0:0:0:0:
160,96,43168,1,0,0:0:0:0:
352,96,43355,1,8,0:0:0:0:
352,96,43449,1,8,0:0:0:0:
160,96,43543,1,0,0:0:0:0:
160,96,43730,1,0,0:0:0:0:
160,96,43918,1,0,0:0:0:0:
352,96,44011,1,8,0:0:0:0:
352,96,44105,1,8,0:0:0:0:
352,96,44293,1,8,0:0:0:0:
352,96,44386,1,8,0:0:0:0:
352,96,44480,1,8,0:0:0:0:
160,96,44574,1,0,0:0:0:0:
352,96,44668,1,8,0:0:0:0:
160,96,44761,1,0,0:0:0:0:
352,96,44855,1,8,0:0:0:0:
352,96,44949,1,8,0:0:0:0:
160,96,45043,1,0,0:0:0:0:
160,96,45324,1,0,0:0:0:0:
352,96,45418,1,8,0:0:0:0:
160,96,45605,1,0,0:0:0:0:
160,96,45793,1,0,0:0:0:0:
352,96,45886,1,8,0:0:0:0:
352,96,45980,1,8,0:0:0:0:
160,96,46168,1,0,0:0:0:0:
352,96,46355,1,8,0:0:0:0:
352,96,46449,1,8,0:0:0:0:
160,96,46543,1,0,0:0:0:0:
160,96,46730,1,0,0:0:0:0:
160,96,46918,1,0,0:0:0:0:
352,96,47011,1,8,0:0:0:0:
352,96,47105,1,8,0:0:0:0:
160,96,47293,1,0,0:0:0:0:
352,96,47386,1,8,0:0:0:0:
352,96,47480,1,8,0:0:0:0:
160,96,47574,1,0,0:0:0:0:
352,96,47668,1,8,0:0:0:0:
352,96,47855,1,8,0:0:0:0:
160,96,48043,1,0,0:0:0:0:
160,96,48324,1,0,0:0:0:0:
352,96,48418,1,8,0:0:0:0:
352,96,48605,1,8,0:0:0:0:
160,96,48793,1,0,0:0:0:0:
352,96,48886,1,8,0:0:0:0:
352,96,48980,1,8,0:0:0:0:
160,96,49168,1,0,0:0:0:0:
352,96,49355,1,8,0:0:0:0:
352,96,49449,1,8,0:0:0:0:
160,96,49543,1,0,0:0:0:0:
352,96,49730,1,8,0:0:0:0:
160,96,49918,1,0,0:0:0:0:
352,96,50105,1,8,0:0:0:0:
352,96,50293,1,8,0:0:0:0:
160,96,50418,1,0,0:0:0:0:
352,96,50480,1,8,0:0:0:0:
160,96,50668,1,0,0:0:0:0:
160,96,50761,1,0,0:0:0:0:
352,96,50855,1,8,0:0:0:0:
352,96,50949,1,8,0:0:0:0:
160,96,51043,1,0,0:0:0:0:
160,96,51324,1,0,0:0:0:0:
352,96,51418,1,8,0:0:0:0:
352,96,51605,1,8,0:0:0:0:
352,96,51699,1,8,0:0:0:0:
160,96,51793,1,0,0:0:0:0:
160,96,51886,1,0,0:0:0:0:
352,96,51980,1,8,0:0:0:0:
352,96,52168,1,8,0:0:0:0:
160,96,52355,1,0,0:0:0:0:
352,96,52449,1,8,0:0:0:0:
352,96,52543,1,8,0:0:0:0:
160,96,52730,1,0,0:0:0:0:
352,96,52918,1,8,0:0:0:0:
160,96,53011,1,0,0:0:0:0:
352,96,53105,1,8,0:0:0:0:
160,96,53199,1,0,0:0:0:0:
352,96,53293,1,8,0:0:0:0:
352,96,53386,1,8,0:0:0:0:
160,96,53480,1,0,0:0:0:0:
160,96,53574,1,0,0:0:0:0:
352,96,53668,1,8,0:0:0:0:
352,96,53855,1,8,0:0:0:0:
352,96,53949,1,8,0:0:0:0:
160,96,54043,1,0,0:0:0:0:
160,96,54324,1,0,0:0:0:0:
352,96,54418,1,8,0:0:0:0:
352,96,54605,1,8,0:0:0:0:
160,96,54699,1,0,0:0:0:0:
352,96,54793,1,8,0:0:0:0:
352,96,54886,1,8,0:0:0:0:
160,96,54980,1,0,0:0:0:0:
160,96,55168,1,0,0:0:0:0:
352,96,55261,1,8,0:0:0:0:
160,96,55355,1,0,0:0:0:0:
352,96,55449,1,8,0:0:0:0:
352,96,55543,1,8,0:0:0:0:
160,96,55730,1,0,0:0:0:0:
160,96,55824,1,0,0:0:0:0:
352,96,55918,1,8,0:0:0:0:
160,96,56011,1,0,0:0:0:0:
352,96,56105,1,8,0:0:0:0:
352,96,56293,1,8,0:0:0:0:
160,96,56386,1,0,0:0:0:0:
352,96,56480,1,8,0:0:0:0:
160,96,56668,1,0,0:0:0:0:
352,96,56761,1,8,0:0:0:0:
352,96,56855,1,8,0:0:0:0:
160,96,57043,1,0,0:0:0:0:
160,96,57324,1,0,0:0:0:0:
352,96,57418,1,8,0:0:0:0:
352,96,57605,1,8,0:0:0:0:
352,96,57699,1,8,0:0:0:0:
160,96,57793,1,0,0:0:0:0:
160,96,57886,1,0,0:0:0:0:
352,96,57980,1,8,0:0:0:0:
160,96,58168,1,0,0:0:0:0:
160,96,58355,1,0,0:0:0:0:
352,96,58449,1,8,0:0:0:0:
352,96,58543,1,8,0:0:0:0:
160,96,58730,1,0,0:0:0:0:
352,96,58918,1,8,0:0:0:0:
160,96,59011,1,0,0:0:0:0:
352,96,59105,1,8,0:0:0:0:
160,96,59199,1,0,0:0:0:0:
352,96,59293,1,8,0:0:0:0:
352,96,59386,1,8,0:0:0:0:
160,96,59480,1,0,0:0:0:0:
160,96,59574,1,0,0:0:0:0:
352,96,59668,1,8,0:0:0:0:
160,96,59855,1,0,0:0:0:0:
352,96,59949,1,8,0:0:0:0:
160,96,60043,1,0,0:0:0:0:
160,96,60136,1,0,0:0:0:0:
352,96,60230,1,8,0:0:0:0:
352,96,60418,1,8,0:0:0:0:
160,96,60511,1,0,0:0:0:0:
352,96,60605,1,8,0:0:0:0:
160,96,60793,1,0,0:0:0:0:
352,96,60886,1,8,0:0:0:0:
352,96,60980,1,8,0:0:0:0:
160,96,61074,1,0,0:0:0:0:
352,96,61168,1,8,0:0:0:0:
352,96,61261,1,8,0:0:0:0:
160,96,61355,1,0,0:0:0:0:
160,96,61449,1,0,0:0:0:0:
352,288,61543,1,12,0:0:0:0:
160,288,61824,1,4,0:0:0:0:
352,288,62105,1,12,0:0:0:0:
352,288,62386,1,12,0:0:0:0:
352,96,62668,1,8,0:0:0:0:
352,96,62730,1,8,0:0:0:0:
352,96,62793,1,8,0:0:0:0:
352,96,62855,1,8,0:0:0:0:
352,96,62918,1,8,0:0:0:0:
352,96,62980,1,8,0:0:0:0:
160,96,63043,1,0,0:0:0:0:
160,96,63418,1,0,0:0:0:0:
352,96,63793,1,8,0:0:0:0:
160,96,64168,1,0,0:0:0:0:
352,96,64355,1,8,0:0:0:0:
352,96,64543,1,8,0:0:0:0:
352,96,64918,1,8,0:0:0:0:
160,96,65105,1,0,0:0:0:0:
352,96,65293,1,8,0:0:0:0:
352,96,65668,1,8,0:0:0:0:
160,96,66043,1,0,0:0:0:0:
160,96,66418,1,0,0:0:0:0:
160,96,66605,1,0,0:0:0:0:
352,96,66793,1,8,0:0:0:0:
160,96,67168,1,0,0:0:0:0:
352,96,67355,1,8,0:0:0:0:
352,96,67543,1,8,0:0:0:0:
160,96,68168,1,0,0:0:0:0:
352,96,68230,1,8,0:0:0:0:
352,96,68293,1,8,0:0:0:0:
352,96,69043,1,8,0:0:0:0:
160,96,69418,1,0,0:0:0:0:
160,96,69605,1,0,0:0:0:0:
352,96,69793,1,8,0:0:0:0:
352,96,70168,1,8,0:0:0:0:
352,96,70355,1,8,0:0:0:0:
160,96,70543,1,0,0:0:0:0:
160,96,70918,1,0,0:0:0:0:
352,96,71105,1,8,0:0:0:0:
160,96,71293,1,0,0:0:0:0:
160,96,71480,1,0,0:0:0:0:
352,96,71668,1,8,0:0:0:0:
352,96,71855,1,8,0:0:0:0:
160,96,72043,1,0,0:0:0:0:
160,96,72418,1,0,0:0:0:0:
352,96,72605,1,8,0:0:0:0:
352,96,72793,1,8,0:0:0:0:
160,96,73168,1,0,0:0:0:0:
352,96,73355,1,8,0:0:0:0:
160,96,73543,1,0,0:0:0:0:
160,96,73730,1,0,0:0:0:0:
160,96,73793,1,8,0:0:0:0:
160,96,73855,1,0,0:0:0:0:
352,96,73918,1,8,0:0:0:0:
352,96,73980,1,0,0:0:0:0:
352,96,74043,1,8,0:0:0:0:
160,96,74105,1,0,0:0:0:0:
352,96,74199,1,8,0:0:0:0:
160,96,74293,1,0,0:0:0:0:
160,96,74386,1,0,0:0:0:0:
352,96,74480,1,8,0:0:0:0:
160,96,74574,1,0,0:0:0:0:
352,96,74668,1,8,0:0:0:0:
352,96,74761,1,8,0:0:0:0:
160,96,74855,1,0,0:0:0:0:
352,96,74949,1,8,0:0:0:0:
160,288,75043,1,4,0:0:0:0:
160,96,75418,1,0,0:0:0:0:
160,96,75605,1,0,0:0:0:0:
352,96,75793,1,8,0:0:0:0:
352,96,76168,1,8,0:0:0:0:
160,96,76355,1,0,0:0:0:0:
352,96,76543,1,8,0:0:0:0:
160,96,76918,1,0,0:0:0:0:
160,96,77105,1,0,0:0:0:0:
352,96,77293,1,8,0:0:0:0:
352,96,77668,1,8,0:0:0:0:
160,96,78043,1,0,0:0:0:0:
352,96,78418,1,8,0:0:0:0:
160,96,78605,1,0,0:0:0:0:
352,96,78793,1,8,0:0:0:0:
352,96,78980,1,8,0:0:0:0:
160,96,79168,1,0,0:0:0:0:
352,96,79355,1,8,0:0:0:0:
160,96,79543,1,0,0:0:0:0:
352,96,79730,1,8,0:0:0:0:
352,96,79918,1,8,0:0:0:0:
160,96,80105,1,0,0:0:0:0:
160,96,80293,1,0,0:0:0:0:
352,96,80668,1,8,0:0:0:0:
160,96,80855,1,0,0:0:0:0:
352,96,81043,1,8,0:0:0:0:
160,96,81230,1,0,0:0:0:0:
352,96,81324,1,8,0:0:0:0:
352,96,81418,1,8,0:0:0:0:
352,96,81605,1,8,0:0:0:0:
160,96,81699,1,0,0:0:0:0:
352,96,81793,1,8,0:0:0:0:
352,96,81886,1,8,0:0:0:0:
160,96,81980,1,0,0:0:0:0:
160,96,82168,1,0,0:0:0:0:
160,96,82355,1,0,0:0:0:0:
352,96,82449,1,8,0:0:0:0:
352,96,82543,1,8,0:0:0:0:
352,96,82730,1,8,0:0:0:0:
352,96,82824,1,8,0:0:0:0:
160,96,82918,1,0,0:0:0:0:
352,96,83105,1,8,0:0:0:0:
352,96,83199,1,8,0:0:0:0:
160,96,83293,1,0,0:0:0:0:
160,96,83386,1,0,0:0:0:0:
352,96,83480,1,8,0:0:0:0:
160,96,83574,1,0,0:0:0:0:
352,96,83668,1,8,0:0:0:0:
160,96,83855,1,0,0:0:0:0:
352,96,84043,1,8,0:0:0:0:
352,96,84230,1,8,0:0:0:0:
352,96,84324,1,8,0:0:0:0:
160,96,84418,1,0,0:0:0:0:
352,96,84605,1,8,0:0:0:0:
160,96,84793,1,0,0:0:0:0:
160,96,84886,1,0,0:0:0:0:
352,96,84980,1,8,0:0:0:0:
352,96,85074,1,8,0:0:0:0:
160,96,85168,1,0,0:0:0:0:
352,96,85355,1,8,0:0:0:0:
160,96,85543,1,0,0:0:0:0:
352,96,85636,1,8,0:0:0:0:
352,96,85730,1,8,0:0:0:0:
160,96,85824,1,0,0:0:0:0:
352,96,85918,1,8,0:0:0:0:
352,96,86105,1,8,0:0:0:0:
160,96,86293,1,0,0:0:0:0:
352,96,86386,1,8,0:0:0:0:
352,96,86480,1,8,0:0:0:0:
160,96,86574,1,0,0:0:0:0:
352,96,86668,1,8,0:0:0:0:
160,96,86761,1,0,0:0:0:0:
352,96,86855,1,8,0:0:0:0:
352,96,86949,1,8,0:0:0:0:
160,96,87043,1,0,0:0:0:0:
160,96,87324,1,0,0:0:0:0:
352,96,87418,1,8,0:0:0:0:
160,96,87605,1,0,0:0:0:0:
352,96,87886,1,8,0:0:0:0:
160,96,87980,1,0,0:0:0:0:
352,96,88168,1,8,0:0:0:0:
352,96,88449,1,8,0:0:0:0:
160,96,88543,1,0,0:0:0:0:
352,96,88730,1,8,0:0:0:0:
352,96,89011,1,8,0:0:0:0:
160,96,89105,1,0,0:0:0:0:
352,96,89293,1,8,0:0:0:0:
160,96,89480,1,0,0:0:0:0:
352,96,89668,1,8,0:0:0:0:
160,96,89949,1,0,0:0:0:0:
160,96,90043,1,0,0:0:0:0:
352,96,90230,1,8,0:0:0:0:
352,96,90511,1,8,0:0:0:0:
160,96,90605,1,0,0:0:0:0:
352,96,90793,1,8,0:0:0:0:
352,96,91074,1,8,0:0:0:0:
160,96,91168,1,0,0:0:0:0:
352,96,91355,1,8,0:0:0:0:
352,96,91636,1,8,0:0:0:0:
352,96,91730,1,8,0:0:0:0:
352,96,91918,1,8,0:0:0:0:
160,96,92105,1,0,0:0:0:0:
160,96,92293,1,0,0:0:0:0:
352,96,92480,1,8,0:0:0:0:
160,96,92574,1,0,0:0:0:0:
160,96,92668,1,0,0:0:0:0:
352,96,92855,1,8,0:0:0:0:
352,96,93136,1,8,0:0:0:0:
160,96,93230,1,0,0:0:0:0:
352,96,93418,1,8,0:0:0:0:
352,96,93605,1,8,0:0:0:0:
160,96,93699,1,0,0:0:0:0:
352,96,93793,1,8,0:0:0:0:
352,96,93980,1,8,0:0:0:0:
352,96,94168,1,8,0:0:0:0:
352,96,94261,1,8,0:0:0:0:
160,96,94355,1,0,0:0:0:0:
160,96,94543,1,0,0:0:0:0:
160,96,94730,1,0,0:0:0:0:
160,96,94824,1,0,0:0:0:0:
352,96,94918,1,8,0:0:0:0:
352,96,95199,1,8,0:0:0:0:
160,96,95293,1,0,0:0:0:0:
352,96,95480,1,8,0:0:0:0:
352,96,95574,1,8,0:0:0:0:
352,96,95668,1,8,0:0:0:0:
352,96,95855,1,8,0:0:0:0:
352,96,96043,1,8,0:0:0:0:
352,96,96136,1,8,0:0:0:0:
160,96,96230,1,0,0:0:0:0:
160,96,96324,1,0,0:0:0:0:
352,96,96418,1,8,0:0:0:0:
160,96,96511,1,0,0:0:0:0:
160,96,96605,1,0,0:0:0:0:
352,96,96793,1,8,0:0:0:0:
160,96,96886,1,0,0:0:0:0:
352,96,96980,1,8,0:0:0:0:
352,96,97168,1,8,0:0:0:0:
160,96,97261,1,0,0:0:0:0:
352,96,97355,1,8,0:0:0:0:
352,96,97449,1,8,0:0:0:0:
160,96,97543,1,0,0:0:0:0:
160,96,97824,1,0,0:0:0:0:
352,96,97918,1,8,0:0:0:0:
160,96,98105,1,0,0:0:0:0:
160,96,98293,1,0,0:0:0:0:
352,96,98386,1,8,0:0:0:0:
352,96,98480,1,8,0:0:0:0:
160,96,98668,1,0,0:0:0:0:
352,96,98855,1,8,0:0:0:0:
352,96,98949,1,8,0:0:0:0:
160,96,99043,1,0,0:0:0:0:
160,96,99230,1,0,0:0:0:0:
160,96,99418,1,0,0:0:0:0:
352,96,99511,1,8,0:0:0:0:
352,96,99605,1,8,0:0:0:0:
160,96,99793,1,0,0:0:0:0:
352,96,99980,1,8,0:0:0:0:
160,96,100168,1,0,0:0:0:0:
160,96,100449,1,0,0:0:0:0:
352,96,100543,1,8,0:0:0:0:
160,96,100730,1,0,0:0:0:0:
160,96,100918,1,0,0:0:0:0:
352,96,101011,1,8,0:0:0:0:
352,96,101105,1,8,0:0:0:0:
160,96,101293,1,0,0:0:0:0:
352,96,101480,1,8,0:0:0:0:
352,96,101574,1,8,0:0:0:0:
160,96,101668,1,0,0:0:0:0:
160,96,101855,1,0,0:0:0:0:
160,96,102043,1,0,0:0:0:0:
352,96,102136,1,8,0:0:0:0:
352,96,102230,1,8,0:0:0:0:
352,96,102418,1,8,0:0:0:0:
160,96,102605,1,0,0:0:0:0:
160,96,102793,1,0,0:0:0:0:
160,96,103074,1,0,0:0:0:0:
352,96,103168,1,8,0:0:0:0:
160,96,103355,1,0,0:0:0:0:
160,96,103543,1,0,0:0:0:0:
352,96,103636,1,8,0:0:0:0:
352,96,103730,1,8,0:0:0:0:
352,96,103918,1,8,0:0:0:0:
352,96,104011,1,8,0:0:0:0:
160,96,104105,1,0,0:0:0:0:
352,96,104199,1,8,0:0:0:0:
352,96,104293,1,8,0:0:0:0:
160,96,104480,1,0,0:0:0:0:
160,96,104668,1,0,0:0:0:0:
352,96,104761,1,8,0:0:0:0:
352,96,104855,1,8,0:0:0:0:
160,96,105043,1,0,0:0:0:0:
160,96,105105,1,0,0:0:0:0:
352,96,105168,1,8,0:0:0:0:
352,96,105230,1,8,0:0:0:0:
160,96,105324,1,0,0:0:0:0:
352,96,105418,1,8,0:0:0:0:
160,96,105699,1,0,0:0:0:0:
352,96,105793,1,8,0:0:0:0:
160,96,105980,1,0,0:0:0:0:
160,96,106168,1,0,0:0:0:0:
352,96,106261,1,8,0:0:0:0:
352,96,106355,1,8,0:0:0:0:
352,96,106543,1,8,0:0:0:0:
352,96,106636,1,8,0:0:0:0:
160,96,106730,1,0,0:0:0:0:
352,96,106824,1,8,0:0:0:0:
160,96,106918,1,0,0:0:0:0:
160,96,107105,1,0,0:0:0:0:
352,96,107293,1,8,0:0:0:0:
352,96,107355,1,8,0:0:0:0:
352,96,107418,1,8,0:0:0:0:
160,96,107480,1,0,0:0:0:0:
160,96,107574,1,0,0:0:0:0:
352,96,107668,1,8,0:0:0:0:
352,96,107761,1,8,0:0:0:0:
160,96,107855,1,0,0:0:0:0:
352,96,108043,1,8,0:0:0:0:
352,96,108136,1,8,0:0:0:0:
352,96,108230,1,8,0:0:0:0:
160,96,108324,1,0,0:0:0:0:
160,96,108605,1,0,0:0:0:0:
160,96,108793,1,0,0:0:0:0:
352,96,108886,1,8,0:0:0:0:
352,96,108980,1,8,0:0:0:0:
160,96,109168,1,0,0:0:0:0:
352,96,109355,1,8,0:0:0:0:
352,96,109449,1,8,0:0:0:0:
160,96,109543,1,0,0:0:0:0:
160,96,109730,1,0,0:0:0:0:
160,96,110011,1,0,0:0:0:0:
352,96,110105,1,8,0:0:0:0:
160,96,110293,1,0,0:0:0:0:
352,96,110386,1,8,0:0:0:0:
160,96,110480,1,0,0:0:0:0:
352,96,110574,1,8,0:0:0:0:
352,96,110668,1,8,0:0:0:0:
160,96,110855,1,0,0:0:0:0:
352,96,110949,1,8,0:0:0:0:
352,96,111136,1,8,0:0:0:0:
160,96,111230,1,0,0:0:0:0:
352,96,111418,1,8,0:0:0:0:
160,96,111511,1,0,0:0:0:0:
352,96,111605,1,8,0:0:0:0:
352,96,111699,1,8,0:0:0:0:
160,96,111793,1,0,0:0:0:0:
160,96,111980,1,0,0:0:0:0:
352,96,112074,1,8,0:0:0:0:
352,96,112261,1,8,0:0:0:0:
160,96,112355,1,0,0:0:0:0:
352,96,112543,1,8,0:0:0:0:
352,96,112636,1,8,0:0:0:0:
160,96,112824,1,0,0:0:0:0:
352,96,112918,1,8,0:0:0:0:
352,96,113011,1,8,0:0:0:0:
160,96,113105,1,0,0:0:0:0:
352,96,113199,1,8,0:0:0:0:
352,96,113293,1,8,0:0:0:0:
160,96,113480,1,0,0:0:0:0:
352,96,113574,1,8,0:0:0:0:
352,96,113668,1,8,0:0:0:0:
160,96,113761,1,0,0:0:0:0:
352,96,113855,1,8,0:0:0:0:
160,96,114043,1,0,0:0:0:0:
352,96,114136,1,8,0:0:0:0:
160,96,114230,1,0,0:0:0:0:
160,96,114418,1,0,0:0:0:0:
352,96,114511,1,8,0:0:0:0:
160,96,114605,1,0,0:0:0:0:
352,96,114699,1,8,0:0:0:0:
352,96,114886,1,8,0:0:0:0:
160,96,114980,1,0,0:0:0:0:
352,96,115074,1,8,0:0:0:0:
352,96,115168,1,8,0:0:0:0:
160,96,115261,1,0,0:0:0:0:
160,96,115355,1,0,0:0:0:0:
352,96,115449,1,8,0:0:0:0:
352,96,115543,1,8,0:0:0:0:
160,96,115636,1,0,0:0:0:0:
352,96,115730,1,8,0:0:0:0:
160,96,115824,1,0,0:0:0:0:
352,96,115918,1,8,0:0:0:0:
352,96,115980,1,8,0:0:0:0:
352,96,116043,1,8,0:0:0:0:
352,96,116105,1,8,0:0:0:0:
352,96,116168,1,8,0:0:0:0:
352,96,116230,1,8,0:0:0:0:
352,96,116293,1,8,0:0:0:0:
160,96,116480,1,0,0:0:0:0:
352,96,116668,1,8,0:0:0:0:
352,96,116761,1,8,0:0:0:0:
160,96,116855,1,0,0:0:0:0:
160,96,116949,1,0,0:0:0:0:
160,96,117043,1,0,0:0:0:0:
160,96,117230,1,0,0:0:0:0:
352,288,117418,1,12,0:0:0:0:
160,288,117699,1,4,0:0:0:0:
352,288,117980,1,12,0:0:0:0:
352,288,118261,1,12,0:0:0:0:
160,96,118543,1,0,0:0:0:0:
160,288,118918,1,4,0:0:0:0:
160,96,119105,1,0,0:0:0:0:
352,96,119199,1,8,0:0:0:0:
160,96,119293,1,0,0:0:0:0:
160,96,119386,1,0,0:0:0:0:
352,96,119480,1,8,0:0:0:0:
160,96,119574,1,0,0:0:0:0:
352,96,119668,1,8,0:0:0:0:
160,96,119949,1,0,0:0:0:0:
352,96,120043,1,8,0:0:0:0:
160,96,120230,1,0,0:0:0:0:
352,96,120324,1,8,0:0:0:0:
352,96,120418,1,8,0:0:0:0:
160,96,120511,1,0,0:0:0:0:
352,96,120605,1,0,0:0:0:0:
352,96,120699,1,0,0:0:0:0:
160,96,120793,1,8,0:0:0:0:
160,96,120980,1,0,0:0:0:0:
352,96,121074,1,8,0:0:0:0:
352,96,121168,1,8,0:0:0:0:
160,96,121355,1,0,0:0:0:0:
352,96,121543,1,8,0:0:0:0:
160,96,121636,1,0,0:0:0:0:
352,96,121730,1,8,0:0:0:0:
352,96,121824,1,8,0:0:0:0:
160,96,121918,1,0,0:0:0:0:
160,96,122199,1,0,0:0:0:0:
352,96,122293,1,8,0:0:0:0:
160,96,122480,1,0,0:0:0:0:
352,96,122668,1,8,0:0:0:0:
160,96,122761,1,0,0:0:0:0:
352,96,122855,1,8,0:0:0:0:
352,96,122949,1,8,0:0:0:0:
160,96,123043,1,0,0:0:0:0:
160,96,123324,1,0,0:0:0:0:
352,96,123418,1,8,0:0:0:0:
352,96,123699,1,8,0:0:0:0:
160,96,123793,1,0,0:0:0:0:
160,96,123980,1,0,0:0:0:0:
160,96,124074,1,0,0:0:0:0:
352,96,124168,1,8,0:0:0:0:
160,96,124261,1,0,0:0:0:0:
352,96,124355,1,8,0:0:0:0:
352,96,124449,1,8,0:0:0:0:
160,96,124543,1,0,0:0:0:0:
352,96,124730,1,8,0:0:0:0:
352,96,124824,1,8,0:0:0:0:
160,96,124918,1,0,0:0:0:0:
160,96,125105,1,0,0:0:0:0:
352,96,125199,1,8,0:0:0:0:
352,96,125293,1,8,0:0:0:0:
160,96,125574,1,0,0:0:0:0:
352,96,125668,1,8,0:0:0:0:
160,96,125855,1,0,0:0:0:0:
352,96,125949,1,8,0:0:0:0:
352,96,126043,1,8,0:0:0:0:
160,96,126230,1,0,0:0:0:0:
352,96,126324,1,8,0:0:0:0:
160,96,126418,1,0,0:0:0:0:
160,96,126605,1,0,0:0:0:0:
160,96,126699,1,0,0:0:0:0:
352,96,126793,1,8,0:0:0:0:
352,96,126980,1,8,0:0:0:0:
160,96,127074,1,0,0:0:0:0:
352,96,127168,1,8,0:0:0:0:
352,96,127261,1,8,0:0:0:0:
160,96,127355,1,0,0:0:0:0:
352,96,127449,1,8,0:0:0:0:
352,96,127543,1,8,0:0:0:0:
160,96,127636,1,0,0:0:0:0:
352,96,127730,1,8,0:0:0:0:
352,96,127824,1,8,0:0:0:0:
160,96,127918,1,0,0:0:0:0:
160,96,128105,1,0,0:0:0:0:
352,96,128199,1,8,0:0:0:0:
352,96,128293,1,8,0:0:0:0:
352,96,128480,1,8,0:0:0:0:
352,96,128574,1,8,0:0:0:0:
160,96,128668,1,0,0:0:0:0:
160,96,128855,1,0,0:0:0:0:
352,96,129043,1,8,0:0:0:0:
160,96,129136,1,0,0:0:0:0:
352,96,129230,1,8,0:0:0:0:
352,96,129324,1,8,0:0:0:0:
160,288,129418,1,4,0:0:0:0:
160,288,129793,1,4,0:0:0:0:
160,288,130168,1,4,0:0:0:0:
160,96,130449,1,0,0:0:0:0:
352,96,130543,1,8,0:0:0:0:
160,96,130636,1,0,0:0:0:0:
160,96,130730,1,0,0:0:0:0:
160,288,130918,1,4,0:0:0:0:
352,96,131105,1,8,0:0:0:0:
160,96,131293,1,0,0:0:0:0:
352,96,131386,1,8,0:0:0:0:
352,96,131480,1,8,0:0:0:0:
352,96,131668,1,8,0:0:0:0:
352,96,131761,1,8,0:0:0:0:
160,96,131855,1,0,0:0:0:0:
352,96,132043,1,8,0:0:0:0:
160,96,132136,1,0,0:0:0:0:
352,96,132230,1,8,0:0:0:0:
352,96,132324,1,8,0:0:0:0:
160,96,132418,1,0,0:0:0:0:
160,96,132699,1,0,0:0:0:0:
352,96,132793,1,8,0:0:0:0:
352,96,132980,1,8,0:0:0:0:
352,96,133074,1,8,0:0:0:0:
160,96,133168,1,0,0:0:0:0:
160,96,133355,1,0,0:0:0:0:
352,96,133449,1,8,0:0:0:0:
352,96,133543,1,8,0:0:0:0:
160,96,133636,1,0,0:0:0:0:
352,96,133730,1,8,0:0:0:0:
160,96,133824,1,0,0:0:0:0:
352,96,133918,1,8,0:0:0:0:
160,96,134199,1,0,0:0:0:0:
352,96,134293,1,8,0:0:0:0:
160,96,134480,1,0,0:0:0:0:
352,96,134668,1,8,0:0:0:0:
160,96,134761,1,0,0:0:0:0:
352,96,134855,1,8,0:0:0:0:
352,96,135043,1,8,0:0:0:0:
160,96,135230,1,0,0:0:0:0:
352,96,135324,1,8,0:0:0:0:
352,96,135418,1,8,0:0:0:0:
160,96,135699,1,0,0:0:0:0:
352,96,135793,1,8,0:0:0:0:
160,96,135980,1,0,0:0:0:0:
160,96,136074,1,0,0:0:0:0:
352,96,136168,1,8,0:0:0:0:
160,96,136261,1,0,0:0:0:0:
352,96,136449,1,8,0:0:0:0:
352,96,136543,1,8,0:0:0:0:
160,96,136730,1,0,0:0:0:0:
160,96,136824,1,0,0:0:0:0:
352,96,136918,1,8,0:0:0:0:
160,96,137199,1,0,0:0:0:0:
352,96,137293,1,8,0:0:0:0:
352,96,137574,1,8,0:0:0:0:
160,96,137668,1,0,0:0:0:0:
160,96,137855,1,0,0:0:0:0:
160,96,137949,1,0,0:0:0:0:
352,96,138043,1,8,0:0:0:0:
352,96,138230,1,8,0:0:0:0:
160,96,138324,1,0,0:0:0:0:
352,96,138418,1,8,0:0:0:0:
160,96,138699,1,0,0:0:0:0:
352,96,138793,1,8,0:0:0:0:
352,96,138980,1,8,0:0:0:0:
160,96,139074,1,0,0:0:0:0:
352,96,139168,1,8,0:0:0:0:
352,96,139261,1,8,0:0:0:0:
160,96,139355,1,0,0:0:0:0:
352,96,139449,1,8,0:0:0:0:
160,96,139543,1,0,0:0:0:0:
160,96,139730,1,0,0:0:0:0:
352,288,139918,1,12,0:0:0:0:
160,96,140105,1,0,0:0:0:0:
160,96,140199,1,0,0:0:0:0:
352,96,140293,1,8,0:0:0:0:
352,96,140480,1,8,0:0:0:0:
160,96,140574,1,0,0:0:0:0:
352,96,140668,1,8,0:0:0:0:
352,96,140855,1,8,0:0:0:0:
160,96,140949,1,0,0:0:0:0:
352,96,141043,1,8,0:0:0:0:
352,96,141136,1,8,0:0:0:0:
160,96,141230,1,0,0:0:0:0:
352,96,141324,1,8,0:0:0:0:
160,288,141418,1,4,0:0:0:0:
160,96,141605,1,0,0:0:0:0:
160,96,141699,1,0,0:0:0:0:
352,96,141793,1,8,0:0:0:0:
160,96,141980,1,0,0:0:0:0:
352,96,142074,1,8,0:0:0:0:
160,96,142168,1,0,0:0:0:0:
352,96,142261,1,8,0:0:0:0:
352,96,142355,1,8,0:0:0:0:
160,96,142449,1,0,0:0:0:0:
352,96,142543,1,8,0:0:0:0:
352,96,142730,1,8,0:0:0:0:
352,96,142824,1,8,0:0:0:0:
160,96,142918,1,0,0:0:0:0:
160,96,143105,1,0,0:0:0:0:
352,96,143199,1,8,0:0:0:0:
352,96,143293,1,8,0:0:0:0:
160,96,143480,1,0,0:0:0:0:
160,96,143574,1,0,0:0:0:0:
352,96,143668,1,8,0:0:0:0:
160,96,143855,1,0,0:0:0:0:
160,96,143949,1,0,0:0:0:0:
352,96,144043,1,8,0:0:0:0:
160,96,144136,1,0,0:0:0:0:
352,96,144230,1,8,0:0:0:0:
160,96,144418,1,0,0:0:0:0:
352,96,144605,1,8,0:0:0:0:
352,96,144699,1,8,0:0:0:0:
160,96,144793,1,0,0:0:0:0:
352,96,144980,1,8,0:0:0:0:
160,96,145074,1,0,0:0:0:0:
352,96,145168,1,8,0:0:0:0:
160,96,145355,1,0,0:0:0:0:
352,96,145449,1,8,0:0:0:0:
352,96,145636,1,8,0:0:0:0:
160,96,145730,1,0,0:0:0:0:
352,96,145824,1,8,0:0:0:0:
352,96,145918,1,8,0:0:0:0:
160,96,146011,1,0,0:0:0:0:
352,96,146105,1,8,0:0:0:0:
160,96,146199,1,0,0:0:0:0:
352,96,146293,1,8,0:0:0:0:
352,96,146386,1,8,0:0:0:0:
160,96,146480,1,0,0:0:0:0:
160,96,146574,1,0,0:0:0:0:
352,96,146668,1,8,0:0:0:0:
160,96,146761,1,0,0:0:0:0:
352,96,146855,1,8,0:0:0:0:
352,96,146949,1,8,0:0:0:0:
160,96,147043,1,0,0:0:0:0:
352,96,147136,1,8,0:0:0:0:
352,96,147230,1,8,0:0:0:0:
160,96,147324,1,0,0:0:0:0:
160,96,147418,1,0,0:0:0:0:
