osu file format v14

[General]
AudioFilename: audio.mp3
AudioLeadIn: 0
PreviewTime: 118757
Countdown: 0
SampleSet: Normal
StackLeniency: 0.7
Mode: 1
LetterboxInBreaks: 0
WidescreenStoryboard: 1

[Editor]
DistanceSpacing: 1.4
BeatDivisor: 4
GridSize: 4
TimelineZoom: 1.5

[Metadata]
Title:conflict
TitleUnicode:conflict
Artist:siromaru + cranky
ArtistUnicode:siromaru + cranky
Creator:Midnaait
Version:Kantan
Source:osu!
Tags:komasy Nardoxyribonucleic Featured Artist FA SOUND VOLTEX III GRAVITY WARS pico
BeatmapID:1935851
BeatmapSetID:926839

[Difficulty]
HPDrainRate:7.5
CircleSize:5
OverallDifficulty:3
ApproachRate:5
SliderMultiplier:1.4
SliderTickRate:1

[Events]
//Background and Video events
0,0,"BG.jpg",0,30
//Break Periods
2,87181,91031
//Storyboard Layer 0 (Background)
//Storyboard Layer 1 (Fail)
//Storyboard Layer 2 (Pass)
//Storyboard Layer 3 (Foreground)
//Storyboard Sound Samples

[TimingPoints]
2981,375,4,1,0,80,1,0
14934,-100,4,1,0,90,0,0
14981,-100,4,1,0,90,0,1
38887,-100,4,1,0,80,0,1
38981,-100,4,1,0,80,0,0
49574,-100,4,1,0,60,0,0
50934,-100,4,1,0,80,0,0
63074,-100,4,1,0,50,0,0
74793,-100,4,1,0,65,0,0
80887,-100,4,1,0,80,0,0
86981,375,7,1,0,90,1,0
87074,-100,7,1,0,40,0,0
92137,-100,7,1,0,60,0,0
95137,-100,7,1,0,70,0,0
97574,-100,7,1,0,75,0,0
105356,375,4,1,0,75,1,0
108262,-100,4,1,0,25,0,0
108356,375,4,1,0,90,1,8
116512,-100,4,1,0,80,0,0
118856,375,4,1,0,90,1,1
118856,-100,4,1,0,90,0,1
143137,-100,4,1,0,50,0,1
147262,-100,4,1,0,90,0,1
147356,-100,4,1,0,90,0,0

[HitObjects]
181,150,2981,5,4,0:0:0:0:
183,154,3731,1,0,0:0:0:0:
183,154,4481,1,0,0:0:0:0:
175,160,5606,1,0,0:0:0:0:
183,154,5981,1,0,0:0:0:0:
183,154,6731,1,0,0:0:0:0:
183,154,7481,1,0,0:0:0:0:
183,154,8231,1,0,0:0:0:0:
183,154,8606,1,0,0:0:0:0:
183,154,8981,1,0,0:0:0:0:
182,164,10106,1,0,0:0:0:0:
183,154,10481,1,0,0:0:0:0:
171,161,11231,1,8,0:0:0:0:
171,161,11981,1,0,0:0:0:0:
135,160,12356,1,8,0:0:0:0:
171,161,12731,1,8,0:0:0:0:
171,161,13481,1,0,0:0:0:0:
171,161,13856,1,0,0:0:0:0:
171,161,14231,1,8,0:0:0:0:
171,161,14606,1,8,0:0:0:0:
171,161,14981,1,0,0:0:0:0:
171,162,15731,1,0,0:0:0:0:
171,162,16481,1,8,0:0:0:0:
168,155,16856,1,0,0:0:0:0:
171,162,17606,1,0,0:0:0:0:
171,162,17981,1,8,0:0:0:0:
171,162,18731,1,0,0:0:0:0:
171,162,19481,1,8,0:0:0:0:
171,162,19856,1,8,0:0:0:0:
167,169,20981,1,0,0:0:0:0:
167,169,21731,1,8,0:0:0:0:
167,169,22106,1,8,0:0:0:0:
167,169,22481,1,0,0:0:0:0:
167,169,22856,1,8,0:0:0:0:
165,167,23606,1,8,0:0:0:0:
165,167,23981,1,0,0:0:0:0:
165,167,24731,1,8,0:0:0:0:
165,167,25481,1,0,0:0:0:0:
164,165,26981,1,0,0:0:0:0:
164,165,27731,1,8,0:0:0:0:
164,165,28481,1,8,0:0:0:0:
164,165,28856,1,0,0:0:0:0:
164,165,29606,1,0,0:0:0:0:
164,165,29981,1,8,0:0:0:0:
164,165,30731,1,8,0:0:0:0:
164,165,31106,1,8,0:0:0:0:
164,165,31481,1,0,0:0:0:0:
164,165,31856,1,8,0:0:0:0:
164,165,32981,1,0,0:0:0:0:
164,165,33731,1,8,0:0:0:0:
164,165,34106,1,8,0:0:0:0:
164,165,34481,1,0,0:0:0:0:
164,165,35231,1,8,0:0:0:0:
164,165,35606,1,0,0:0:0:0:
164,165,35981,1,8,0:0:0:0:
164,165,36731,1,0,0:0:0:0:
164,165,37481,1,8,0:0:0:0:
164,165,37856,1,8,0:0:0:0:
164,165,38981,1,4,0:0:0:0:
171,162,39731,1,0,0:0:0:0:
171,162,40481,1,0,0:0:0:0:
171,162,41231,1,0,0:0:0:0:
171,162,41606,1,8,0:0:0:0:
171,162,41981,1,0,0:0:0:0:
171,162,42731,1,0,0:0:0:0:
171,162,43481,1,0,0:0:0:0:
171,162,44231,1,8,0:0:0:0:
171,162,44606,1,8,0:0:0:0:
171,162,44981,1,0,0:0:0:0:
169,162,46106,1,8,0:0:0:0:
169,162,46481,1,0,0:0:0:0:
169,162,47231,1,0,0:0:0:0:
169,162,47606,1,8,0:0:0:0:
169,162,47981,1,0,0:0:0:0:
169,162,48731,1,0,0:0:0:0:
169,162,49481,1,8,0:0:0:0:
172,162,50981,1,0,0:0:0:0:
172,162,51731,1,8,0:0:0:0:
172,162,52106,1,8,0:0:0:0:
172,162,52481,1,0,0:0:0:0:
172,162,52856,1,8,0:0:0:0:
172,162,53606,1,8,0:0:0:0:
172,162,53981,1,0,0:0:0:0:
172,162,54731,1,8,0:0:0:0:
172,162,55481,1,0,0:0:0:0:
172,162,56231,1,8,0:0:0:0:
172,162,56606,1,8,0:0:0:0:
171,168,56981,1,0,0:0:0:0:
176,168,58106,1,8,0:0:0:0:
176,168,58481,1,0,0:0:0:0:
176,168,58856,1,8,0:0:0:0:
176,168,59606,1,8,0:0:0:0:
176,168,59981,1,0,0:0:0:0:
176,168,60731,1,0,0:0:0:0:
176,168,61481,1,12,0:0:0:0:
169,174,62606,1,0,0:0:0:0:
170,162,62981,1,4,0:0:0:0:
168,168,64481,1,0,0:0:0:0:
168,168,65981,1,8,0:0:0:0:
168,168,66731,1,8,0:0:0:0:
168,168,67481,1,8,0:0:0:0:
168,168,68981,1,0,0:0:0:0:
168,168,70481,1,8,0:0:0:0:
168,168,71981,1,0,0:0:0:0:
168,168,72731,1,0,0:0:0:0:
168,168,73481,1,8,0:0:0:0:
205,177,74981,1,4,0:0:0:0:
208,185,75731,1,8,0:0:0:0:
205,178,76481,1,8,0:0:0:0:
210,185,77231,1,8,0:0:0:0:
210,185,77981,1,0,0:0:0:0:
210,185,78731,1,8,0:0:0:0:
210,185,79481,1,8,0:0:0:0:
210,185,80981,1,0,0:0:0:0:
210,185,81731,1,8,0:0:0:0:
210,185,82106,1,8,0:0:0:0:
210,185,82481,1,0,0:0:0:0:
210,185,83231,1,8,0:0:0:0:
210,185,83981,1,0,0:0:0:0:
210,185,84731,1,8,0:0:0:0:
215,190,85106,1,0,0:0:0:0:
210,185,85481,1,8,0:0:0:0:
210,185,86231,1,0,0:0:0:0:
210,185,86606,1,8,0:0:0:0:
210,185,86981,1,0,0:0:0:0:
209,185,92231,5,0,0:0:0:0:
209,185,92981,1,0,0:0:0:0:
209,185,93731,1,0,0:0:0:0:
209,185,94481,1,8,0:0:0:0:
209,185,94856,1,0,0:0:0:0:
209,185,95606,1,0,0:0:0:0:
209,185,96356,1,8,0:0:0:0:
209,185,96731,1,0,0:0:0:0:
209,185,97106,1,8,0:0:0:0:
209,185,97481,1,0,0:0:0:0:
212,182,98606,1,0,0:0:0:0:
212,182,98981,1,8,0:0:0:0:
212,182,99731,1,0,0:0:0:0:
212,182,100106,1,0,0:0:0:0:
212,182,100856,1,8,0:0:0:0:
212,182,101606,1,0,0:0:0:0:
212,182,102356,1,8,0:0:0:0:
212,182,102731,1,0,0:0:0:0:
212,182,103481,1,8,0:0:0:0:
212,182,104231,1,0,0:0:0:0:
212,182,104981,1,0,0:0:0:0:
212,182,105356,1,0,0:0:0:0:
212,182,106106,1,8,0:0:0:0:
212,182,106856,1,0,0:0:0:0:
212,182,107606,1,0,0:0:0:0:
212,182,107981,1,8,0:0:0:0:
256,192,108356,12,0,116231,0:0:0:0:
193,163,117356,5,12,0:0:0:0:
171,161,118856,1,0,0:0:0:0:
171,162,119606,1,0,0:0:0:0:
171,162,120356,1,8,0:0:0:0:
168,155,120731,1,0,0:0:0:0:
171,162,121481,1,0,0:0:0:0:
171,162,121856,1,8,0:0:0:0:
171,162,122606,1,0,0:0:0:0:
116,142,122981,1,0,0:0:0:0:
171,162,123356,1,8,0:0:0:0:
171,162,123731,1,8,0:0:0:0:
167,169,124856,1,0,0:0:0:0:
167,169,125606,1,8,0:0:0:0:
167,169,125981,1,8,0:0:0:0:
167,169,126356,1,0,0:0:0:0:
167,169,126731,1,8,0:0:0:0:
165,167,127481,1,8,0:0:0:0:
165,167,127856,1,0,0:0:0:0:
165,167,128606,1,8,0:0:0:0:
169,177,128981,1,8,0:0:0:0:
165,167,129356,1,0,0:0:0:0:
164,165,130856,1,0,0:0:0:0:
164,165,131606,1,8,0:0:0:0:
169,157,131981,1,0,0:0:0:0:
164,165,132356,1,8,0:0:0:0:
164,165,132731,1,0,0:0:0:0:
164,165,133481,1,0,0:0:0:0:
164,165,133856,1,8,0:0:0:0:
164,165,134606,1,8,0:0:0:0:
164,165,134981,1,8,0:0:0:0:
164,165,135356,1,0,0:0:0:0:
164,165,135731,1,8,0:0:0:0:
164,165,136856,1,0,0:0:0:0:
164,165,137606,1,8,0:0:0:0:
164,165,137981,1,8,0:0:0:0:
164,165,138356,1,0,0:0:0:0:
164,165,139106,1,8,0:0:0:0:
164,165,139481,1,0,0:0:0:0:
164,165,139856,1,12,0:0:0:0:
164,165,140606,1,0,0:0:0:0:
164,165,140981,1,0,0:0:0:0:
164,165,141356,1,12,0:0:0:0:
166,154,142106,1,8,0:0:0:0:
166,154,142481,1,0,0:0:0:0:
164,165,142856,1,12,0:0:0:0:
256,192,143231,12,0,146606,0:0:0:0:
246,157,147356,5,4,0:0:0:0:
