osu file format v14

[General]
AudioFilename: audio.mp3
AudioLeadIn: 0
PreviewTime: 14142
Countdown: 0
SampleSet: Normal
StackLeniency: 0.7
Mode: 2
LetterboxInBreaks: 0
WidescreenStoryboard: 1

[Editor]
DistanceSpacing: 1
BeatDivisor: 4
GridSize: 32
TimelineZoom: 1.8

[Metadata]
Title:conflict
TitleUnicode:conflict
Artist:siromaru + cranky
ArtistUnicode:siromaru + cranky
Creator:Bunnrei
Version:Salad
Source:osu!
Tags:bms of fighters 2011 bof2011 frenz2011 chunithm cytus dance rail deemo groove coaster maimai muse dash rhythmsia sound voltex superbeat xonic synchronica tapsonic top taiko no tatsujin tone sphere tsumamia! arcaea featured artist harmonic schranz pico electronic
BeatmapID:2055678
BeatmapSetID:981762

[Difficulty]
HPDrainRate:4
CircleSize:3
OverallDifficulty:7
ApproachRate:7
SliderMultiplier:1.48
SliderTickRate:1

[Events]
//Background and Video events
0,0,"abstract-2707939.jpg",0,0
//Break Periods
2,89811,91336
//Storyboard Layer 0 (Background)
//Storyboard Layer 1 (Fail)
//Storyboard Layer 2 (Pass)
//Storyboard Layer 3 (Foreground)
//Storyboard Layer 4 (Overlay)
//Storyboard Sound Samples

[TimingPoints]
2986,375,4,1,98,60,1,0
3079,-100,4,1,99,60,0,0
14986,-100,4,1,3,60,0,0
15079,-100,4,1,99,60,0,0
25486,-100,4,1,44,60,0,0
26986,-100,4,1,3,60,0,0
27079,-100,4,1,99,60,0,0
38236,-100,4,1,99,60,0,0
49673,-100,4,1,99,40,0,0
50986,-100,4,1,99,60,0,0
62986,-100,4,2,3,50,0,0
63736,-100,4,2,4,50,0,0
64486,-100,4,2,5,50,0,0
65236,-100,4,2,6,50,0,0
65986,-100,4,2,7,50,0,0
66736,-100,4,2,8,50,0,0
67486,-100,4,2,11,50,0,0
68986,-100,4,2,12,50,0,0
69736,-100,4,2,13,50,0,0
70486,-100,4,2,14,50,0,0
71236,-100,4,2,15,50,0,0
71986,-100,4,2,16,50,0,0
72736,-100,4,2,17,50,0,0
73111,-100,4,2,18,50,0,0
73486,-100,4,2,19,50,0,0
74986,-100,4,1,20,51,0,0
75736,-100,4,1,21,52,0,0
76486,-100,4,1,22,53,0,0
77236,-100,4,1,23,54,0,0
77986,-100,4,1,24,55,0,0
78736,-100,4,1,25,56,0,0
79486,-100,4,1,26,57,0,0
80236,-100,4,1,27,58,0,0
80986,-100,4,1,28,60,0,0
81736,-100,4,1,29,60,0,0
82486,-100,4,1,30,60,0,0
83236,-100,4,1,31,60,0,0
83986,-100,4,1,32,60,0,0
84736,-100,4,1,33,60,0,0
85486,-100,4,1,34,60,0,0
86236,-100,4,1,35,60,0,0
86611,-100,4,1,36,60,0,0
86986,375,7,1,37,60,1,0
86986,-100,7,1,37,60,0,0
87173,-100,7,1,37,40,0,0
89611,-100,7,1,37,30,0,0
92236,-100,7,1,99,40,0,0
97486,-100,7,1,99,50,0,0
108548,-100,7,1,99,35,0,0
110611,-100,7,1,99,42,0,0
111736,-100,7,1,99,49,0,0
113236,-100,7,1,99,55,0,0
115861,375,4,1,99,60,1,0
115907,-100,4,1,99,56,0,0
115954,-100,4,1,99,52,0,0
116001,-100,4,1,99,48,0,0
116048,-100,4,1,99,44,0,0
116095,-100,4,1,99,40,0,0
116142,-100,4,1,99,36,0,0
116189,-100,4,1,99,34,0,0
116236,-100,4,1,99,40,0,0
117173,-100,4,1,99,50,0,0
117361,-100,4,1,99,60,0,0
118861,375,4,1,99,60,1,0
129361,-100,4,1,44,60,0,0
130861,-100,4,1,3,60,0,0
130954,-100,4,1,99,60,0,0
139861,-100,4,1,3,60,0,0
139954,-100,4,1,99,60,0,0
141361,-100,4,1,44,60,0,0
141454,-100,4,1,99,60,0,0
147361,-100,4,1,98,60,0,0
147454,-100,4,1,97,40,0,0
148861,-100,4,1,97,30,0,0
149236,-100,4,1,97,20,0,0
149611,-100,4,1,97,10,0,0
150361,-100,4,1,97,5,0,0

[Colours]
Combo1 : 128,128,128
Combo2 : 128,0,0

[HitObjects]
478,270,2986,6,0,L|318:251,1,148,12|8,0:0|0:0,0:0:0:0:
178,149,3736,2,0,L|338:130,1,148,8|8,0:0|0:0,0:0:0:0:
478,270,4486,2,0,L|318:251,1,148,8|8,0:0|0:0,0:0:0:0:
178,149,5236,2,0,L|338:130,1,148,8|8,0:0|0:0,0:0:0:0:
180,252,5986,6,0,L|34:270,1,148,8|8,0:0|0:0,0:0:0:0:
187,131,6736,2,0,L|334:149,1,148,8|8,0:0|0:0,0:0:0:0:
180,252,7486,2,0,L|34:270,1,148,8|8,0:0|0:0,0:0:0:0:
187,131,8236,2,0,L|334:149,1,148,8|8,0:0|0:0,0:0:0:0:
236,226,8798,1,8,0:0:0:0:
53,269,8986,6,0,P|11:205|72:157,1,148,10|10,0:2|0:2,0:0:0:0:
182,45,9736,2,0,L|329:34,1,148,10|10,0:2|0:2,0:0:0:0:
460,159,10486,2,0,P|501:214|459:269,1,148,10|10,0:2|0:2,0:0:0:0:
330,45,11236,2,0,L|182:34,1,148,10|10,0:2|0:2,0:0:0:0:
340,115,11986,5,10,0:2:0:0:
183,179,12361,1,10,0:2:0:0:
329,179,12736,1,10,0:2:0:0:
172,115,13111,1,10,0:2:0:0:
335,109,13486,2,0,P|372:181|319:235,1,148,14|14,0:2|0:2,0:0:0:0:
175,286,14236,2,0,L|24:254,1,148,14|14,0:2|0:2,0:0:0:0:
376,322,14986,6,0,P|394:271|343:180,1,148,12|8,0:0|0:0,0:0:0:0:
181,121,15736,2,0,L|350:105,1,148,8|8,0:0|0:0,0:0:0:0:
426,124,16298,1,0,0:0:0:0:
328,107,16486,1,8,0:0:0:0:
165,136,16861,2,0,P|133:204|186:258,1,148,8|8,0:0|0:0,0:0:0:0:
273,288,17423,2,0,L|370:285,2,74,0|8|0,0:0|0:0|0:0,0:0:0:0:
73,290,17986,6,0,P|46:231|117:176,1,148,8|8,0:0|0:0,0:0:0:0:
271,157,18736,1,8,0:0:0:0:
368,134,18923,1,0,0:0:0:0:
380,28,19111,1,8,0:0:0:0:
190,112,19486,2,0,L|313:117,1,111,8|0,0:0|0:0,0:0:0:0:
340,119,19861,2,0,P|330:202|265:235,1,148,8|8,0:0|0:0,0:0:0:0:
125,245,20611,1,8,0:0:0:0:
475,282,20986,6,0,P|485:231|396:167,1,148,8|8,0:0|0:0,0:0:0:0:
251,203,21736,2,0,L|240:108,1,74,8|0,0:0|0:0,0:0:0:0:
331,101,22111,1,8,0:0:0:0:
482,71,22486,2,0,L|351:63,1,111,8|0,0:0|0:0,0:0:0:0:
333,67,22861,2,0,P|299:131|349:176,1,148,8|8,0:0|0:0,0:0:0:0:
485,179,23611,1,8,0:0:0:0:
137,328,23986,5,8,0:0:0:0:
124,189,24361,1,8,0:0:0:0:
247,123,24736,1,8,0:0:0:0:
110,45,25111,1,8,0:0:0:0:
428,58,25486,2,0,P|441:139|372:193,1,148,12|12,0:0|0:0,0:0:0:0:
82,236,26236,2,0,P|38:179|54:109,1,148,12|12,0:0|0:0,0:0:0:0:
130,90,26798,1,0,0:0:0:0:
335,80,26986,6,0,P|365:151|312:197,1,148,12|8,0:0|0:0,0:0:0:0:
128,272,27736,2,0,L|295:259,1,148,8|8,0:0|0:0,0:0:0:0:
201,266,28298,1,0,0:0:0:0:
128,272,28485,1,8,0:0:0:0:
303,331,28861,2,0,P|338:268|266:224,1,148,8|8,0:0|0:0,0:0:0:0:
203,204,29423,1,0,0:0:0:0:
146,167,29610,1,8,0:0:0:0:
176,107,29798,1,0,0:0:0:0:
366,77,29986,6,0,P|365:136|277:170,1,148,8|8,0:0|0:0,0:0:0:0:
89,189,30736,1,8,0:0:0:0:
111,282,30923,1,0,0:0:0:0:
202,291,31111,1,8,0:0:0:0:
373,293,31486,6,0,P|399:234|348:195,1,111,8|0,0:0|0:0,0:0:0:0:
332,194,31861,2,0,P|259:159|276:98,1,148,8|8,0:0|0:0,0:0:0:0:
444,58,32611,1,8,0:0:0:0:
110,294,32986,6,0,P|65:252|114:177,1,148,8|8,0:0|0:0,0:0:0:0:
240,153,33642,1,0,0:0:0:0:
274,144,33736,2,0,P|319:102|270:27,1,148,8|8,0:0|0:0,0:0:0:0:
167,104,34392,1,0,0:0:0:0:
164,161,34486,2,0,L|343:160,1,148,8|8,0:0|0:0,0:0:0:0:
71,349,35142,1,0,0:0:0:0:
14,335,35236,2,0,L|15:156,1,148,8|8,0:0|0:0,0:0:0:0:
121,173,35798,1,0,0:0:0:0:
327,140,35986,6,0,L|489:119,1,148,8|8,0:0|0:0,0:0:0:0:
313,217,36736,2,0,L|151:203,1,148,8|8,0:0|0:0,0:0:0:0:
58,235,37298,2,0,L|163:249,1,74,0|8,0:0|0:0,0:0:0:0:
408,314,37767,1,0,0:0:0:0:
447,314,37861,2,0,L|265:305,1,148,8|2,0:0|0:2,0:0:0:0:
137,162,38611,1,2,0:2:0:0:
409,44,38986,6,0,P|445:106|383:162,1,148,10|10,0:2|0:2,0:0:0:0:
327,194,39548,2,0,L|177:285,1,148,0|0,0:0|0:0,0:0:0:0:
124,100,40111,2,0,P|88:162|150:218,1,148,10|10,0:2|0:2,0:0:0:0:
206,250,40673,2,0,L|356:341,1,148,0|0,0:0|0:0,0:0:0:0:
409,243,41236,2,0,P|451:187|415:128,1,148,10|10,0:2|0:2,0:0:0:0:
103,44,41986,6,0,P|67:106|129:162,1,148,10|10,0:2|0:2,0:0:0:0:
185,194,42548,2,0,L|335:285,1,148,0|0,0:0|0:0,0:0:0:0:
388,100,43111,2,0,P|424:162|362:218,1,148,10|10,0:2|0:2,0:0:0:0:
306,250,43673,2,0,L|156:341,1,148,0|0,0:0|0:0,0:0:0:0:
100,343,44236,2,0,P|34:318|92:259,1,148,10|10,0:2|0:2,0:0:0:0:
408,250,44986,6,0,P|439:203|380:146,1,148,10|10,0:2|0:2,0:0:0:0:
307,184,45548,2,0,P|253:226|282:288,1,148,0|0,0:0|0:0,0:0:0:0:
368,282,46111,2,0,L|448:142,1,148,10|10,0:2|0:2,0:0:0:0:
365,114,46673,2,0,L|205:113,1,148,0|0,0:0|0:0,0:0:0:0:
293,190,47236,2,0,L|453:189,1,148,10|10,0:2|0:2,0:0:0:0:
104,250,47986,6,0,P|73:203|132:146,1,148,10|10,0:2|0:2,0:0:0:0:
205,184,48548,2,0,P|258:226|229:288,1,148,0|0,0:0|0:0,0:0:0:0:
144,282,49111,1,10,0:2:0:0:
425,108,49486,6,0,L|527:101,2,74,2|2|0,0:0|0:2|0:0,0:0:0:0:
136,166,50236,2,0,L|43:182,1,74,0|2,0:0|0:2,0:0:0:0:
136,166,50611,1,0,0:0:0:0:
225,139,50798,1,2,0:2:0:0:
425,108,50986,6,0,P|421:165|333:217,1,148,10|10,0:2|0:2,0:0:0:0:
262,223,51548,2,0,P|266:280|354:332,1,148
427,322,52111,2,0,L|271:309,1,148,10|10,0:2|0:2,0:0:0:0:
192,199,52673,2,0,L|348:186,1,148
434,188,53236,2,0,P|467:143|418:61,1,148,10|10,0:2|0:2,0:0:0:0:
87,108,53986,6,0,P|91:165|179:217,1,148,10|10,0:2|0:2,0:0:0:0:
250,223,54548,2,0,P|246:280|158:332,1,148
85,322,55111,2,0,L|241:309,1,148,10|10,0:2|0:2,0:0:0:0:
320,199,55673,2,0,L|164:186,1,148
78,188,56236,2,0,P|45:143|94:61,1,148,10|10,0:2|0:2,0:0:0:0:
412,34,56986,6,0,P|462:85|404:133,1,148,10|10,0:2|0:2,0:0:0:0:
335,148,57548,2,0,P|285:199|343:247,1,148
417,261,58111,2,0,L|260:268,1,148,10|10,0:2|0:2,0:0:0:0:
176,251,58673,2,0,P|137:207|188:146,1,148,0|0,0:0|0:0,0:0:0:0:
262,247,59236,2,0,L|410:241,1,148,10|10,0:2|0:2,0:0:0:0:
63,306,59986,6,0,L|52:222,1,74,10|8,0:2|0:0,0:0:0:0:
145,209,60361,2,0,L|156:125,1,74,10|8,0:2|0:0,0:0:0:0:
59,139,60736,1,10,0:2:0:0:
28,203,60923,1,8,0:0:0:0:
56,269,61111,1,10,0:2:0:0:
125,291,61298,1,8,0:0:0:0:
328,289,61486,6,0,L|457:266,3,111,12|12|12|12,0:2|0:2|0:2|0:2,0:0:0:0:
279,359,62611,2,0,L|217:292,1,74,12|8,0:2|0:0,0:0:0:0:
437,296,62986,6,0,P|474:226|402:176,1,148,8|0,0:0|0:0,0:0:0:0:
277,168,63736,1,8,0:0:0:0:
445,84,64111,2,0,L|357:72,1,74,0|2,0:0|0:0,0:0:0:0:
295,91,64486,2,0,P|255:118|290:208,1,148,8|0,0:0|0:0,0:0:0:0:
354,219,65048,1,2,0:0:0:0:
268,264,65236,1,8,0:0:0:0:
116,313,65611,1,2,0:0:0:0:
276,329,65986,6,0,L|434:307,1,148,8|0,0:0|0:0,0:0:0:0:
348,319,66548,1,2,0:0:0:0:
276,329,66736,1,8,0:0:0:0:
156,146,67111,1,0,0:0:0:0:
217,108,67298,1,2,0:0:0:0:
293,85,67486,6,0,P|292:147|143:227,1,222,8|2,0:0|0:0,0:0:0:0:
80,232,68236,2,0,L|55:144,1,74,2|2,0:0|0:0,0:0:0:0:
155,131,68611,1,2,0:0:0:0:
58,39,68986,6,0,L|213:16,1,148,8|2,0:0|0:0,0:0:0:0:
285,52,69548,1,2,0:0:0:0:
204,17,69736,2,0,P|146:65|156:157,1,148,8|2,0:0|0:0,0:0:0:0:
286,307,70486,6,0,L|450:280,1,148,8|2,0:0|0:0,0:0:0:0:
359,294,71049,1,2,0:0:0:0:
286,307,71236,2,0,P|211:253|243:197,1,148,8|0,0:0|0:0,0:0:0:0:
300,173,71798,1,2,0:0:0:0:
388,181,71986,6,0,L|415:32,1,148,8|2,0:0|0:0,0:0:0:0:
334,21,72548,1,2,0:0:0:0:
266,43,72736,2,0,L|165:57,1,74,8|0,0:0|0:0,0:0:0:0:
278,102,73111,2,0,L|379:116,1,74,8|2,0:0|0:0,0:0:0:0:
234,147,73486,6,0,P|127:176|168:342,1,296,8|2,0:0|0:0,0:0:0:0:
321,341,74611,2,0,L|407:295,1,74,2|2,0:0|0:0,0:0:0:0:
175,306,74986,6,0,P|123:253|181:223,1,148,10|2,0:2|0:2,0:0:0:0:
338,69,75736,2,0,P|400:110|346:178,1,148,10|2,0:2|0:2,0:0:0:0:
174,69,76486,2,0,P|112:110|166:178,1,148,10|2,0:2|0:2,0:0:0:0:
337,306,77236,2,0,P|414:283|401:197,1,148,10|2,0:2|0:2,0:0:0:0:
74,349,77986,6,0,P|33:291|90:215,1,148,10|2,0:2|0:2,0:0:0:0:
224,179,78736,2,0,L|62:170,1,148,10|2,0:2|0:2,0:0:0:0:
438,349,79486,2,0,P|479:291|422:215,1,148,10|2,0:2|0:2,0:0:0:0:
288,179,80236,2,0,L|450:170,1,148,10|2,0:2|0:2,0:0:0:0:
110,353,80986,6,0,P|63:321|80:219,1,148,10|2,0:2|0:2,0:0:0:0:
147,207,81548,1,0,0:0:0:0:
230,167,81736,2,0,L|78:163,1,148,10|2,0:2|0:2,0:0:0:0:
402,353,82486,6,0,P|449:321|432:219,1,148,10|2,0:2|0:2,0:0:0:0:
365,207,83048,1,0,0:0:0:0:
282,167,83236,2,0,L|434:163,1,148,10|2,0:2|0:2,0:0:0:0:
78,178,83986,6,0,P|29:229|44:299,1,148,10|2,0:2|0:2,0:0:0:0:
123,335,84548,1,0,0:0:0:0:
191,295,84736,2,0,L|44:299,1,148,10|8,0:2|0:2,0:0:0:0:
350,345,85486,2,0,P|405:283|360:229,1,148,10|2,0:2|0:2,0:0:0:0:
295,221,86048,1,0,0:0:0:0:
212,219,86236,2,0,L|40:198,1,148,10|10,0:2|0:2,0:0:0:0:
407,108,86986,5,14,0:2:0:0:
256,192,87361,12,0,89611,0:0:0:0:
213,357,92236,6,0,P|187:306|249:248,1,148,2|2,0:2|0:2,0:0:0:0:
322,239,92798,2,0,L|158:215,1,148,0|0,0:0|0:0,0:0:0:0:
100,207,93361,2,0,P|74:156|136:98,1,148,0|2,0:0|0:2,0:0:0:0:
209,89,93923,2,0,L|45:65,1,148,0|0,0:0|0:0,0:0:0:0:
146,40,94486,2,0,L|228:38,1,74,2|0,0:2|0:0,0:0:0:0:
327,34,94861,6,0,P|400:95|372:150,1,148,2|2,0:2|0:0,0:0:0:0:
192,199,95423,1,0,0:0:0:0:
99,253,95611,2,0,L|17:251,2,74,2|2|2,0:2|0:2|0:2,0:0:0:0:
192,199,96173,1,0,0:0:0:0:
390,174,96361,6,0,L|472:172,2,74,2|2|2,0:2|0:0|0:2,0:0:0:0:
220,276,97111,2,0,L|146:269,1,74,2|0,0:2|0:0,0:0:0:0:
330,258,97486,5,2,0:2:0:0:
344,95,97861,1,2,0:2:0:0:
188,314,98236,1,2,0:2:0:0:
174,151,98611,1,2,0:2:0:0:
14,256,98986,1,2,0:2:0:0:
28,93,99361,2,0,L|179:84,1,148,2|2,0:3|0:3,0:0:0:0:
386,234,100111,5,2,0:2:0:0:
400,71,100486,1,2,0:2:0:0:
244,290,100861,1,2,0:2:0:0:
230,127,101236,1,2,0:2:0:0:
70,232,101611,1,2,0:2:0:0:
84,69,101986,2,0,L|235:60,1,148,2|2,0:3|0:3,0:0:0:0:
15,298,102736,6,0,P|16:241|88:182,1,148,2|2,0:2|0:2,0:0:0:0:
232,82,103486,2,0,L|285:255,1,148,2|2,0:2|0:2,0:0:0:0:
431,183,104236,2,0,P|445:248|384:301,1,148,2|2,0:2|0:3,0:0:0:0:
205,320,104986,1,2,0:3:0:0:
25,321,105361,5,2,0:2:0:0:
20,248,105548,1,2,0:2:0:0:
59,187,105736,1,2,0:2:0:0:
127,161,105923,1,2,0:2:0:0:
217,198,106111,1,2,0:2:0:0:
221,125,106298,1,2,0:2:0:0:
182,64,106486,1,2,0:2:0:0:
114,38,106673,1,2,0:2:0:0:
42,39,106861,6,0,L|125:36,1,74,2|2,0:2|0:2,0:0:0:0:
320,31,107236,1,2,0:0:0:0:
396,55,107423,1,2,0:2:0:0:
490,120,107611,1,2,0:2:0:0:
453,125,107704,1,2,0:2:0:0:
416,131,107798,1,0,0:0:0:0:
191,241,107986,2,0,L|178:292,3,37,2|2|2|10,0:0|0:0|0:0|0:0,0:0:0:0:
317,284,108548,6,0,L|462:266,1,111,8|8,0:0|0:0,0:0:0:0:
297,207,109111,2,0,L|436:188,1,111,8|8,0:0|0:0,0:0:0:0:
251,324,109673,2,0,P|223:256|268:222,1,111,8|8,0:0|0:0,0:0:0:0:
393,141,110236,2,0,L|310:133,1,74,8|8,0:0|0:0,0:0:0:0:
137,191,110611,6,0,P|94:159|137:100,1,111,8|8,0:0|0:0,0:0:0:0:
246,139,111173,2,0,P|259:189|217:219,1,111,8|8,0:0|0:0,0:0:0:0:
58,285,111736,2,0,L|176:266,1,111,8|8,0:0|0:0,0:0:0:0:
311,180,112298,2,0,L|201:162,1,111,8|8,0:0|0:0,0:0:0:0:
87,89,112861,2,0,L|177:80,1,74,8|8,0:0|0:0,0:0:0:0:
355,69,113236,6,0,P|420:96|426:138,1,111,8|8,0:0|0:0,0:0:0:0:
301,227,113798,2,0,L|183:237,1,111,8|8,0:0|0:0,0:0:0:0:
338,176,114361,2,0,P|403:203|409:245,1,111,8|8,0:0|0:0,0:0:0:0:
284,334,114923,2,0,L|166:344,1,111,8|8,0:0|0:0,0:0:0:0:
327,351,115486,2,0,L|413:338,1,74,8|8,0:0|0:0,0:0:0:0:
213,333,115861,6,0,P|132:295|244:172,1,296,8|2,0:0|0:2,0:0:0:0:
320,184,116798,2,0,L|328:86,1,74,2|2,0:2|0:0,0:0:0:0:
239,92,117173,1,2,0:2:0:0:
41,55,117361,6,0,L|176:47,4,111,12|12|12|12|2,0:2|0:2|0:2|0:2|0:2,0:0:0:0:
374,72,118861,6,0,P|422:119|361:180,1,148,8|8,0:0|0:0,0:0:0:0:
201,277,119611,2,0,L|357:263,1,148,8|8,0:0|0:0,0:0:0:0:
451,262,120173,1,0,0:0:0:0:
348,263,120361,1,8,0:0:0:0:
195,354,120736,2,0,P|156:283|225:244,1,148,8|8,0:0|0:0,0:0:0:0:
296,206,121298,2,0,L|198:199,1,74,0|8,0:0|0:0,0:0:0:0:
132,185,121673,1,0,0:0:0:0:
346,120,121861,6,0,P|388:173|325:221,1,148,8|8,0:0|0:0,0:0:0:0:
160,209,122611,1,8,0:0:0:0:
72,223,122798,1,0,0:0:0:0:
45,306,122986,1,8,0:0:0:0:
192,340,123361,2,0,P|221:281|167:250,1,111,8|0,0:0|0:0,0:0:0:0:
154,236,123736,2,0,L|309:223,1,148,8|8,0:0|0:0,0:0:0:0:
468,220,124486,1,8,0:0:0:0:
141,345,124861,6,0,P|86:277|116:230,1,148,8|8,0:0|0:0,0:0:0:0:
289,205,125611,2,0,L|384:209,2,74,8|0|8,0:0|0:0|0:0,0:0:0:0:
147,214,126361,2,0,L|22:205,1,111,8|0,0:0|0:0,0:0:0:0:
75,195,126736,2,0,P|155:184|187:100,1,148,8|8,0:0|0:0,0:0:0:0:
48,79,127486,1,8,0:0:0:0:
385,269,127861,6,0,P|409:216|337:149,1,148,8|8,0:0|0:0,0:0:0:0:
199,90,128611,2,0,L|365:79,1,148,8|8,0:0|0:0,0:0:0:0:
19,241,129361,6,0,L|172:235,2,148,12|12|12,0:0|0:0|0:0,0:0:0:0:
112,286,130298,2,0,L|207:281,2,74,0|12|0,0:0|0:0|0:0,0:0:0:0:
297,350,130861,6,0,L|465:342,1,148,12|8,0:0|0:0,0:0:0:0:
274,353,131611,2,0,P|242:317|308:249,1,148,8|8,0:0|0:0,0:0:0:0:
382,192,132173,2,0,L|299:189,1,74,0|8,0:0|0:0,0:0:0:0:
129,144,132736,2,0,L|290:133,1,148,8|8,0:0|0:0,0:0:0:0:
380,121,133298,1,0,0:0:0:0:
413,181,133485,1,8,0:0:0:0:
364,229,133673,1,0,0:0:0:0:
151,297,133861,6,0,P|116:237|178:195,1,148,8|8,0:0|0:0,0:0:0:0:
366,168,134611,1,8,0:0:0:0:
343,69,134798,1,0,0:0:0:0:
243,56,134986,1,8,0:0:0:0:
85,97,135361,2,0,P|65:161|117:194,1,111,8|0,0:0|0:0,0:0:0:0:
140,204,135736,2,0,L|298:204,1,148,8|8,0:0|0:0,0:0:0:0:
441,204,136486,1,8,0:0:0:0:
114,340,136861,6,0,P|82:305|146:235,1,148,8|8,0:0|0:0,0:0:0:0:
254,233,137517,1,0,0:0:0:0:
294,223,137611,2,0,P|327:163|277:116,1,148,8|8,0:0|0:0,0:0:0:0:
155,125,138267,1,0,0:0:0:0:
117,133,138360,2,0,P|129:199|211:216,1,148,8|8,0:0|0:0,0:0:0:0:
437,220,139017,1,0,0:0:0:0:
475,228,139111,2,0,L|369:331,1,148,8|8,0:0|0:0,0:0:0:0:
266,355,139673,1,0,0:0:0:0:
58,306,139861,6,0,P|33:254|73:209,1,111,12|0,0:0|0:0,0:0:0:0:
97,204,140236,2,0,L|215:180,1,111,8|0,0:0|0:0,0:0:0:0:
244,175,140611,2,0,L|73:168,1,148,8|8,0:0|0:0,0:0:0:0:
356,260,141267,1,0,0:0:0:0:
396,250,141361,6,0,P|431:210|375:130,1,148,12|8,0:0|0:0,0:0:0:0:
91,147,142111,2,0,P|50:204|88:262,1,148,8|8,0:0|0:0,0:0:0:0:
417,326,142861,1,8,0:0:0:0:
477,236,143048,6,8,L|304:223,1,148,8|8,0:0|0:0,0:0:0:0:
164,220,143798,2,8,P|129:150|180:110,1,148,8|8,0:0|0:0,0:0:0:0:
339,110,144548,2,8,P|385:162|348:220,1,148,8|8,0:0|0:0,0:0:0:0:
182,224,145298,2,8,L|35:236,1,148,8|8,0:0|0:0,0:0:0:0:
236,319,145861,5,10,0:2:0:0:
307,314,146048,1,8,0:0:0:0:
346,254,146236,1,10,0:2:0:0:
323,187,146423,1,8,0:0:0:0:
124,216,146611,1,10,0:2:0:0:
59,244,146798,1,8,0:0:0:0:
54,314,146986,1,10,0:2:0:0:
114,351,147173,1,8,0:0:0:0:
323,187,147361,5,12,0:0:0:0:
256,192,147736,12,0,151861,0:0:0:0:
