osu file format v14

[General]
AudioFilename: audio.mp3
AudioLeadIn: 0
PreviewTime: 14142
Countdown: 0
SampleSet: Normal
StackLeniency: 0.7
Mode: 2
LetterboxInBreaks: 0
WidescreenStoryboard: 1

[Editor]
DistanceSpacing: 1
BeatDivisor: 4
GridSize: 32
TimelineZoom: 1.8

[Metadata]
Title:conflict
TitleUnicode:conflict
Artist:siromaru + cranky
ArtistUnicode:siromaru + cranky
Creator:Bunnrei
Version:Rain
Source:osu!
Tags:bms of fighters 2011 bof2011 frenz2011 chunithm cytus dance rail deemo groove coaster maimai muse dash rhythmsia sound voltex superbeat xonic synchronica tapsonic top taiko no tatsujin tone sphere tsumamia! arcaea featured artist harmonic schranz pico electronic
BeatmapID:2056299
BeatmapSetID:981762

[Difficulty]
HPDrainRate:6
CircleSize:4
OverallDifficulty:9
ApproachRate:9
SliderMultiplier:2.08
SliderTickRate:2

[Events]
//Background and Video events
0,0,"abstract-2707939.jpg",0,0
//Break Periods
2,89811,91636
//Storyboard Layer 0 (Background)
//Storyboard Layer 1 (Fail)
//Storyboard Layer 2 (Pass)
//Storyboard Layer 3 (Foreground)
//Storyboard Layer 4 (Overlay)
//Storyboard Sound Samples

[TimingPoints]
2986,375,4,1,98,60,1,0
3079,-100,4,1,99,60,0,0
14236,-100,4,1,1,60,0,0
14611,-100,4,1,2,60,0,0
14986,-90.9090909090909,4,1,3,60,0,0
15361,-90.9090909090909,4,1,4,60,0,0
15642,-90.9090909090909,4,1,5,60,0,0
15736,-90.9090909090909,4,1,6,60,0,0
16111,-90.9090909090909,4,1,7,60,0,0
16298,-90.9090909090909,4,1,8,60,0,0
16392,-90.9090909090909,4,1,9,60,0,0
16486,-90.9090909090909,4,1,10,60,0,0
16767,-90.9090909090909,4,1,11,60,0,0
16861,-90.9090909090909,4,1,12,60,0,0
17423,-90.9090909090909,4,1,13,60,0,0
17611,-90.9090909090909,4,1,14,60,0,0
17798,-90.9090909090909,4,1,15,60,0,0
17986,-90.9090909090909,4,1,16,60,0,0
18361,-90.9090909090909,4,1,17,60,0,0
18642,-90.9090909090909,4,1,18,60,0,0
18736,-90.9090909090909,4,1,19,60,0,0
18923,-90.9090909090909,4,1,20,60,0,0
19111,-90.9090909090909,4,1,21,60,0,0
19392,-90.9090909090909,4,1,22,60,0,0
19486,-90.9090909090909,4,1,23,60,0,0
19767,-90.9090909090909,4,1,24,60,0,0
19861,-90.9090909090909,4,1,25,60,0,0
20611,-90.9090909090909,4,1,26,60,0,0
20986,-90.9090909090909,4,1,27,60,0,0
21361,-90.9090909090909,4,1,28,60,0,0
21642,-90.9090909090909,4,1,29,60,0,0
21736,-90.9090909090909,4,1,30,60,0,0
21923,-90.9090909090909,4,1,31,60,0,0
22111,-90.9090909090909,4,1,32,60,0,0
22392,-90.9090909090909,4,1,33,60,0,0
22486,-90.9090909090909,4,1,34,60,0,0
22767,-90.9090909090909,4,1,35,60,0,0
22861,-90.9090909090909,4,1,36,60,0,0
23611,-90.9090909090909,4,1,37,60,0,0
23986,-90.9090909090909,4,1,38,60,0,0
24361,-90.9090909090909,4,1,39,60,0,0
24642,-90.9090909090909,4,1,40,60,0,0
24736,-90.9090909090909,4,1,41,60,0,0
25111,-90.9090909090909,4,1,42,60,0,0
25392,-90.9090909090909,4,1,43,60,0,0
25486,-66.6666666666667,4,1,44,60,0,0
25767,-66.6666666666667,4,1,45,60,0,0
25861,-66.6666666666667,4,1,46,60,0,0
26236,-83.3333333333333,4,1,46,60,0,0
26423,-83.3333333333333,4,1,47,55,0,0
26517,-83.3333333333333,4,1,47,60,0,0
26611,-83.3333333333333,4,1,48,60,0,0
26798,-83.3333333333333,4,1,49,55,0,0
26892,-83.3333333333333,4,1,49,60,0,0
26986,-90.9090909090909,4,1,3,60,0,0
27361,-90.9090909090909,4,1,4,60,0,0
27642,-90.9090909090909,4,1,5,60,0,0
27736,-90.9090909090909,4,1,6,60,0,0
28111,-90.9090909090909,4,1,7,60,0,0
28298,-90.9090909090909,4,1,8,60,0,0
28392,-90.9090909090909,4,1,9,60,0,0
28486,-90.9090909090909,4,1,10,60,0,0
28767,-90.9090909090909,4,1,11,60,0,0
28861,-90.9090909090909,4,1,12,60,0,0
29423,-90.9090909090909,4,1,13,60,0,0
29611,-90.9090909090909,4,1,14,60,0,0
29798,-90.9090909090909,4,1,15,60,0,0
29986,-90.9090909090909,4,1,50,60,0,0
30361,-90.9090909090909,4,1,51,60,0,0
30642,-90.9090909090909,4,1,52,60,0,0
30736,-90.9090909090909,4,1,53,60,0,0
30923,-90.9090909090909,4,1,54,60,0,0
31111,-90.9090909090909,4,1,55,60,0,0
31392,-90.9090909090909,4,1,56,60,0,0
31486,-90.9090909090909,4,1,57,60,0,0
31767,-90.9090909090909,4,1,58,60,0,0
31861,-90.9090909090909,4,1,59,60,0,0
32611,-90.9090909090909,4,1,60,60,0,0
32986,-90.9090909090909,4,1,61,60,0,0
33361,-90.9090909090909,4,1,62,60,0,0
33642,-90.9090909090909,4,1,63,60,0,0
33736,-90.9090909090909,4,1,64,60,0,0
33923,-90.9090909090909,4,1,65,60,0,0
34111,-90.9090909090909,4,1,66,60,0,0
34392,-90.9090909090909,4,1,67,60,0,0
34486,-90.9090909090909,4,1,68,60,0,0
34861,-90.9090909090909,4,1,69,60,0,0
35142,-90.9090909090909,4,1,70,60,0,0
35236,-90.9090909090909,4,1,71,60,0,0
35423,-90.9090909090909,4,1,72,60,0,0
35611,-90.9090909090909,4,1,73,60,0,0
35892,-90.9090909090909,4,1,74,60,0,0
35986,-90.9090909090909,4,1,75,60,0,0
36361,-90.9090909090909,4,1,76,60,0,0
36642,-90.9090909090909,4,1,77,60,0,0
36736,-90.9090909090909,4,1,78,60,0,0
37111,-90.9090909090909,4,1,79,60,0,0
37392,-90.9090909090909,4,1,80,60,0,0
37486,-90.9090909090909,4,1,81,60,0,0
37767,-90.9090909090909,4,1,82,60,0,0
37861,-90.9090909090909,4,1,83,60,0,0
38236,-90.9090909090909,4,1,99,60,0,0
38986,-100,4,1,99,60,0,0
49673,-100,4,1,99,40,0,0
50986,-100,4,1,99,60,0,0
61486,-66.6666666666667,4,1,99,60,0,0
62986,-117.647058823529,4,2,3,50,0,0
63736,-117.647058823529,4,2,4,50,0,0
64486,-117.647058823529,4,2,5,50,0,0
65236,-117.647058823529,4,2,6,50,0,0
65986,-117.647058823529,4,2,7,50,0,0
66736,-117.647058823529,4,2,8,50,0,0
67486,-117.647058823529,4,2,11,50,0,0
68986,-117.647058823529,4,2,12,50,0,0
69736,-117.647058823529,4,2,13,50,0,0
70486,-117.647058823529,4,2,14,50,0,0
71236,-117.647058823529,4,2,15,50,0,0
71986,-117.647058823529,4,2,16,50,0,0
72736,-117.647058823529,4,2,17,50,0,0
73111,-117.647058823529,4,2,18,50,0,0
73486,-117.647058823529,4,2,19,50,0,0
74986,-117.647058823529,4,1,20,51,0,0
75736,-117.647058823529,4,1,21,52,0,0
76486,-117.647058823529,4,1,22,53,0,0
77236,-117.647058823529,4,1,23,54,0,0
77986,-117.647058823529,4,1,24,55,0,0
78736,-117.647058823529,4,1,25,56,0,0
79486,-117.647058823529,4,1,26,57,0,0
80236,-117.647058823529,4,1,27,58,0,0
80986,-100,4,1,28,60,0,0
81736,-100,4,1,29,60,0,0
82486,-100,4,1,30,60,0,0
83236,-100,4,1,31,60,0,0
83986,-100,4,1,32,60,0,0
84736,-100,4,1,33,60,0,0
85486,-100,4,1,34,60,0,0
86236,-100,4,1,35,60,0,0
86611,-100,4,1,36,60,0,0
86986,375,7,1,37,60,1,0
86986,-100,7,1,37,60,0,0
87173,-100,7,1,37,40,0,0
89611,-100,7,1,37,30,0,0
92236,-125,7,1,99,40,0,0
95236,-40,7,1,99,40,0,0
95423,-100,7,1,99,40,0,0
96548,-40,7,1,99,40,0,0
96736,-100,7,1,99,40,0,0
97486,-117.647058823529,7,1,99,50,0,0
107236,-40,7,1,99,50,0,0
107423,-117.647058823529,7,1,99,50,0,0
108548,-100,7,1,99,35,0,0
110611,-100,7,1,99,42,0,0
111736,-100,7,1,99,49,0,0
113236,-100,7,1,99,55,0,0
115861,375,4,1,99,60,1,0
115907,-100,4,1,99,56,0,0
115954,-100,4,1,99,52,0,0
116001,-100,4,1,99,48,0,0
116048,-100,4,1,99,44,0,0
116095,-100,4,1,99,40,0,0
116142,-100,4,1,99,36,0,0
116189,-100,4,1,99,34,0,0
116236,-100,4,1,99,40,0,0
117173,-100,4,1,99,50,0,0
117361,-66.6666666666667,4,1,99,60,0,0
118861,375,4,1,3,60,1,0
118861,-90.9090909090909,4,1,3,60,0,0
119236,-90.9090909090909,4,1,4,60,0,0
119517,-90.9090909090909,4,1,5,60,0,0
119611,-90.9090909090909,4,1,6,60,0,0
119986,-90.9090909090909,4,1,7,60,0,0
120173,-90.9090909090909,4,1,8,60,0,0
120267,-90.9090909090909,4,1,9,60,0,0
120361,-90.9090909090909,4,1,10,60,0,0
120642,-90.9090909090909,4,1,11,60,0,0
120736,-90.9090909090909,4,1,12,60,0,0
121298,-90.9090909090909,4,1,13,60,0,0
121486,-90.9090909090909,4,1,14,60,0,0
121673,-90.9090909090909,4,1,15,60,0,0
121861,-90.9090909090909,4,1,16,60,0,0
122236,-90.9090909090909,4,1,17,60,0,0
122517,-90.9090909090909,4,1,18,60,0,0
122611,-90.9090909090909,4,1,19,60,0,0
122798,-90.9090909090909,4,1,20,60,0,0
122986,-90.9090909090909,4,1,21,60,0,0
123267,-90.9090909090909,4,1,22,60,0,0
123361,-90.9090909090909,4,1,23,60,0,0
123642,-90.9090909090909,4,1,24,60,0,0
123736,-90.9090909090909,4,1,25,60,0,0
124486,-90.9090909090909,4,1,26,60,0,0
124861,-90.9090909090909,4,1,27,60,0,0
125236,-90.9090909090909,4,1,28,60,0,0
125517,-90.9090909090909,4,1,29,60,0,0
125611,-90.9090909090909,4,1,30,60,0,0
125798,-90.9090909090909,4,1,31,60,0,0
125986,-90.9090909090909,4,1,32,60,0,0
126267,-90.9090909090909,4,1,33,60,0,0
126361,-90.9090909090909,4,1,34,60,0,0
126642,-90.9090909090909,4,1,35,60,0,0
126736,-90.9090909090909,4,1,36,60,0,0
127486,-90.9090909090909,4,1,37,60,0,0
127861,-90.9090909090909,4,1,38,60,0,0
128236,-90.9090909090909,4,1,39,60,0,0
128517,-90.9090909090909,4,1,40,60,0,0
128611,-90.9090909090909,4,1,41,60,0,0
128986,-90.9090909090909,4,1,42,60,0,0
129267,-90.9090909090909,4,1,43,60,0,0
129361,-66.6666666666667,4,1,44,60,0,0
129642,-66.6666666666667,4,1,45,60,0,0
129736,-66.6666666666667,4,1,46,60,0,0
130111,-90.9090909090909,4,1,46,60,0,0
130298,-90.9090909090909,4,1,47,55,0,0
130392,-90.9090909090909,4,1,47,60,0,0
130486,-90.9090909090909,4,1,48,60,0,0
130673,-90.9090909090909,4,1,49,55,0,0
130767,-90.9090909090909,4,1,49,60,0,0
130861,-90.9090909090909,4,1,3,60,0,0
131236,-90.9090909090909,4,1,4,60,0,0
131517,-90.9090909090909,4,1,5,60,0,0
131611,-90.9090909090909,4,1,6,60,0,0
131986,-90.9090909090909,4,1,7,60,0,0
132173,-90.9090909090909,4,1,8,60,0,0
132267,-90.9090909090909,4,1,9,60,0,0
132361,-90.9090909090909,4,1,10,60,0,0
132642,-90.9090909090909,4,1,11,60,0,0
132736,-90.9090909090909,4,1,12,60,0,0
133298,-90.9090909090909,4,1,13,60,0,0
133486,-90.9090909090909,4,1,14,60,0,0
133673,-90.9090909090909,4,1,15,60,0,0
133861,-90.9090909090909,4,1,50,60,0,0
134236,-90.9090909090909,4,1,51,60,0,0
134517,-90.9090909090909,4,1,52,60,0,0
134611,-90.9090909090909,4,1,53,60,0,0
134798,-90.9090909090909,4,1,54,60,0,0
134986,-90.9090909090909,4,1,55,60,0,0
135267,-90.9090909090909,4,1,56,60,0,0
135361,-90.9090909090909,4,1,57,60,0,0
135642,-90.9090909090909,4,1,58,60,0,0
135736,-90.9090909090909,4,1,59,60,0,0
136486,-90.9090909090909,4,1,60,60,0,0
136861,-90.9090909090909,4,1,61,60,0,0
137236,-90.9090909090909,4,1,62,60,0,0
137517,-90.9090909090909,4,1,63,60,0,0
137611,-90.9090909090909,4,1,64,60,0,0
137798,-90.9090909090909,4,1,65,60,0,0
137986,-90.9090909090909,4,1,66,60,0,0
138267,-90.9090909090909,4,1,67,60,0,0
138361,-90.9090909090909,4,1,68,60,0,0
138736,-90.9090909090909,4,1,69,60,0,0
139017,-90.9090909090909,4,1,70,60,0,0
139111,-90.9090909090909,4,1,71,60,0,0
139298,-90.9090909090909,4,1,72,60,0,0
139486,-90.9090909090909,4,1,73,60,0,0
139767,-90.9090909090909,4,1,74,60,0,0
139861,-90.9090909090909,4,1,75,60,0,0
140236,-90.9090909090909,4,1,76,60,0,0
140517,-90.9090909090909,4,1,77,60,0,0
140611,-90.9090909090909,4,1,78,60,0,0
140986,-90.9090909090909,4,1,79,60,0,0
141267,-90.9090909090909,4,1,80,60,0,0
141361,-90.9090909090909,4,1,84,60,0,0
141736,-90.9090909090909,4,1,85,60,0,0
142017,-90.9090909090909,4,1,86,60,0,0
142111,-90.9090909090909,4,1,87,60,0,0
142486,-90.9090909090909,4,1,88,60,0,0
142767,-90.9090909090909,4,1,89,60,0,0
142861,-90.9090909090909,4,1,90,60,0,0
143142,-90.9090909090909,4,1,91,60,0,0
143236,-90.9090909090909,4,1,92,60,0,0
143423,-90.9090909090909,4,1,99,60,0,0
147361,-100,4,1,98,60,0,0
147454,-100,4,1,98,40,0,0
148861,-100,4,1,98,30,0,0
149236,-100,4,1,98,20,0,0
149611,-100,4,1,98,10,0,0
150361,-100,4,1,97,5,0,0

[Colours]
Combo1 : 128,128,128
Combo2 : 128,0,0

[HitObjects]
20,347,2986,6,0,L|127:328,1,104,12|0,0:0|0:0,0:0:0:0:
301,213,3361,2,0,L|194:194,1,104,8|0,0:0|0:0,0:0:0:0:
20,347,3736,2,0,L|127:328,1,104,8|0,0:0|0:0,0:0:0:0:
301,213,4111,2,0,L|194:194,1,104,8|0,0:0|0:0,0:0:0:0:
20,347,4486,6,0,L|127:328,1,104,8|0,0:0|0:0,0:0:0:0:
301,213,4861,2,0,L|194:194,1,104,8|0,0:0|0:0,0:0:0:0:
20,347,5236,2,0,L|127:328,1,104,8|0,0:0|0:0,0:0:0:0:
301,213,5611,2,0,L|194:194,1,104,8|0,0:0|0:0,0:0:0:0:
389,328,5986,6,0,L|492:347,1,104,8|0,0:0|0:0,0:0:0:0:
313,194,6361,2,0,L|211:213,1,104,8|0,0:0|0:0,0:0:0:0:
389,328,6736,2,0,L|492:347,1,104,8|0,0:0|0:0,0:0:0:0:
313,194,7111,2,0,L|211:213,1,104,8|0,0:0|0:0,0:0:0:0:
389,328,7486,6,0,L|492:347,1,104,8|0,0:0|0:0,0:0:0:0:
313,194,7861,2,0,L|211:213,1,104,8|0,0:0|0:0,0:0:0:0:
389,328,8236,2,0,L|492:347,1,104,8|0,0:0|0:0,0:0:0:0:
297,340,8611,1,8,0:0:0:0:
249,322,8704,1,8,0:0:0:0:
234,274,8798,1,8,0:0:0:0:
262,233,8892,1,8,0:0:0:0:
460,209,8986,6,0,L|477:90,1,104,10|0,0:2|0:0,0:0:0:0:
308,51,9361,2,0,L|179:50,1,104,10|0,0:2|0:0,0:0:0:0:
52,209,9736,2,0,L|35:90,1,104,10|0,0:2|0:0,0:0:0:0:
204,51,10111,2,0,L|333:50,1,104,10|0,0:2|0:0,0:0:0:0:
460,209,10486,6,0,L|477:90,1,104,10|0,0:2|0:0,0:0:0:0:
308,51,10861,2,0,L|179:50,1,104,10|0,0:2|0:0,0:0:0:0:
52,209,11236,2,0,L|35:90,1,104,10|0,0:2|0:0,0:0:0:0:
204,51,11611,2,0,L|333:50,1,104,10|0,0:2|0:0,0:0:0:0:
460,209,11986,6,0,L|477:90,1,104,10|0,0:2|0:0,0:0:0:0:
293,66,12361,2,0,L|436:51,1,104,10|0,0:2|0:0,0:0:0:0:
220,336,12736,2,0,L|203:217,1,104,10|0,0:2|0:0,0:0:0:0:
387,193,13111,2,0,L|244:178,1,104,10|0,0:2|0:0,0:0:0:0:
24,126,13486,5,14,0:2:0:0:
75,119,13579,1,0,0:0:0:0:
127,112,13673,1,0,0:0:0:0:
376,113,13861,1,14,0:2:0:0:
406,151,13954,1,0,0:0:0:0:
388,197,14048,1,0,0:0:0:0:
111,308,14236,6,0,L|44:304,2,52,14|8|8,0:0|0:0|0:0,0:0:0:0:
368,324,14611,1,14,0:0:0:0:
416,315,14704,1,8,0:0:0:0:
429,268,14798,1,8,0:0:0:0:
392,236,14892,1,8,0:0:0:0:
212,191,14986,6,0,L|69:170,1,114.400003491211,14|0,0:0|0:0,0:0:0:0:
181,137,15267,1,0,0:0:0:0:
258,158,15361,2,0,P|277:230|229:246,1,114.400003491211,10|0,0:0|0:0,0:0:0:0:
49,311,15736,2,0,L|61:190,1,114.400003491211,10|0,0:0|0:0,0:0:0:0:
235,92,16111,2,0,L|67:84,1,114.400003491211,10|2,0:0|0:0,0:0:0:0:
196,34,16392,1,2,0:0:0:0:
363,67,16486,6,0,P|379:143|336:187,1,114.400003491211,10|0,0:0|0:0,0:0:0:0:
302,198,16767,1,2,0:0:0:0:
228,238,16861,2,0,L|348:254,1,114.400003491211,10|0,0:0|0:0,0:0:0:0:
464,269,17236,1,8,0:0:0:0:
183,341,17423,2,0,P|163:275|210:252,1,114.400003491211,2|10,0:0|0:0,0:0:0:0:
320,242,17798,1,2,0:0:0:0:
45,208,17986,6,0,L|184:179,1,114.400003491211,10|0,0:0|0:0,0:0:0:0:
228,168,18267,1,0,0:0:0:0:
311,133,18361,2,0,L|172:104,1,114.400003491211,10|0,0:0|0:0,0:0:0:0:
463,96,18736,2,0,P|487:162|432:200,1,114.400003491211,10|2,0:0|0:0,0:0:0:0:
395,200,19017,1,0,0:0:0:0:
329,223,19111,2,0,L|456:235,1,114.400003491211,10|0,0:0|0:0,0:0:0:0:
137,309,19486,6,0,P|79:262|137:214,1,171.600005236817,10|2,0:0|0:0,0:0:0:0:
205,222,19861,2,0,L|76:211,1,114.400003491211,10|0,0:0|0:0,0:0:0:0:
148,217,20143,1,0,0:0:0:0:
205,222,20236,1,8,0:0:0:0:
80,312,20423,2,0,L|3:305,2,57.2000017456055,0|0|10,0:0|0:0|0:0,0:0:0:0:
201,319,20798,1,0,0:0:0:0:
458,337,20986,6,0,P|485:269|437:217,1,114.400003491211,10|0,0:0|0:0,0:0:0:0:
393,223,21267,1,0,0:0:0:0:
320,210,21361,2,0,L|199:200,1,114.400003491211,10|0,0:0|0:0,0:0:0:0:
408,83,21736,2,0,P|424:139|362:174,1,114.400003491211,10|2,0:0|0:0,0:0:0:0:
213,240,22111,2,0,L|386:227,1,171.600005236817,10|2,0:0|0:0,0:0:0:0:
179,320,22486,6,0,P|125:254|187:215,1,171.600005236817,10|2,0:0|0:0,0:0:0:0:
251,217,22861,2,0,L|374:207,1,114.400003491211,10|0,0:0|0:0,0:0:0:0:
299,160,23142,2,0,L|195:156,1,57.2000017456055,0|8,0:0|0:0,0:0:0:0:
52,164,23423,2,0,L|64:109,1,57.2000017456055,0|0,0:0|0:0,0:0:0:0:
145,125,23611,1,10,0:0:0:0:
200,124,23704,1,0,0:0:0:0:
238,84,23798,1,0,0:0:0:0:
236,28,23892,1,0,0:0:0:0:
60,46,23986,6,0,L|21:130,3,57.2000017456055,10|0|0|0,0:0|0:0|0:0|0:0,0:0:0:0:
122,145,24361,2,0,L|161:229,3,57.2000017456055,10|0|0|2,0:0|0:0|0:0|0:0,0:0:0:0:
69,248,24736,5,10,0:0:0:0:
36,292,24829,1,0,0:0:0:0:
51,345,24923,1,0,0:0:0:0:
103,365,25017,1,0,0:0:0:0:
175,354,25111,1,10,0:0:0:0:
162,299,25204,1,0,0:0:0:0:
120,261,25298,1,0,0:0:0:0:
64,253,25392,1,2,0:0:0:0:
282,242,25486,6,0,P|365:205|290:99,1,234.000008926392,14|2,0:0|0:0,0:0:0:0:
230,242,25861,2,0,P|147:205|222:99,1,234.000008926392,14|0,0:0|0:0,0:0:0:0:
410,56,26236,6,0,P|396:129|272:168,1,187.19999428711,12|0,0:0|0:0,0:0:0:0:
210,175,26611,2,0,P|126:142|102:56,1,187.19999428711,14|0,0:0|0:0,0:0:0:0:
301,34,26986,6,0,L|468:26,1,114.400003491211,14|0,0:0|0:0,0:0:0:0:
357,71,27267,1,0,0:0:0:0:
293,147,27361,2,0,L|126:139,1,114.400003491211,10|0,0:0|0:0,0:0:0:0:
375,300,27736,2,0,P|394:226|351:205,1,114.400003491211,10|0,0:0|0:0,0:0:0:0:
302,205,28017,1,0,0:0:0:0:
226,197,28111,2,0,L|368:184,1,114.400003491211,10|2,0:0|0:0,0:0:0:0:
279,143,28392,1,2,0:0:0:0:
100,168,28486,6,0,P|58:106|111:79,1,114.400003491211,10|0,0:0|0:0,0:0:0:0:
133,72,28767,1,2,0:0:0:0:
197,65,28861,2,0,L|41:52,1,114.400003491211,10|0,0:0|0:0,0:0:0:0:
139,60,29142,1,0,0:0:0:0:
197,65,29235,1,8,0:0:0:0:
405,158,29423,2,0,L|464:162,2,57.2000017456055,2|0|10,0:0|0:0|0:0,0:0:0:0:
267,268,29798,2,0,L|256:205,1,57.2000017456055,2|0,0:0|0:0,0:0:0:0:
450,145,29986,6,0,P|482:93|439:62,1,114.400003491211,10|0,0:0|0:0,0:0:0:0:
389,50,30267,1,0,0:0:0:0:
335,37,30361,2,0,L|482:28,1,114.400003491211,10|0,0:0|0:0,0:0:0:0:
159,240,30736,2,0,L|12:231,1,114.400003491211,10|2,0:0|0:0,0:0:0:0:
244,333,31111,2,0,L|391:324,1,114.400003491211,10|0,0:0|0:0,0:0:0:0:
287,261,31392,1,2,0:0:0:0:
117,252,31486,6,0,P|77:201|170:143,1,171.600005236817,10|2,0:0|0:0,0:0:0:0:
198,121,31861,2,0,L|32:113,1,114.400003491211,10|0,0:0|0:0,0:0:0:0:
140,118,32143,1,0,0:0:0:0:
198,121,32236,1,8,0:0:0:0:
363,145,32423,2,0,L|371:84,1,57.2000017456055,0|0,0:0|0:0,0:0:0:0:
288,44,32611,2,0,L|163:46,1,114.400003491211,10|0,0:0|0:0,0:0:0:0:
432,273,32986,6,0,L|442:159,1,114.400003491211,10|0,0:0|0:0,0:0:0:0:
244,106,33361,2,0,L|431:90,1,171.600005236817,10|2,0:0|0:0,0:0:0:0:
255,232,33736,2,0,L|128:247,1,114.400003491211,10|2,0:0|0:0,0:0:0:0:
297,308,34111,2,0,P|366:221|337:192,1,171.600005236817,10|2,0:0|0:0,0:0:0:0:
240,337,34486,6,0,L|230:223,1,114.400003491211,10|0,0:0|0:0,0:0:0:0:
428,170,34861,2,0,L|241:154,1,171.600005236817,10|2,0:0|0:0,0:0:0:0:
425,339,35236,2,0,L|449:214,1,114.400003491211,10|2,0:0|0:0,0:0:0:0:
289,357,35611,2,0,P|220:270|249:241,1,171.600005236817,10|2,0:0|0:0,0:0:0:0:
418,160,35986,6,0,L|234:136,1,171.600005236817,10|0,0:0|0:0,0:0:0:0:
177,131,36361,2,0,P|122:74|194:31,1,171.600005236817,10|2,0:0|0:0,0:0:0:0:
333,27,36736,2,0,P|390:78|335:131,1,171.600005236817,10|0,0:0|0:0,0:0:0:0:
264,137,37111,2,0,L|94:160,1,171.600005236817,10|2,0:0|0:0,0:0:0:0:
282,243,37486,5,10,0:0:0:0:
405,251,37673,1,0,0:0:0:0:
425,200,37766,1,2,0:0:0:0:
388,162,37860,1,10,0:0:0:0:
210,125,38048,2,0,L|145:117,1,57.2000017456055,0|0,0:0|0:0,0:0:0:0:
241,101,38236,5,2,0:2:0:0:
288,73,38329,1,0,0:0:0:0:
283,19,38423,1,2,0:2:0:0:
233,0,38517,1,0,0:0:0:0:
68,39,38611,2,0,P|39:99|77:136,1,114.400003491211,2|0,0:2|0:0,0:0:0:0:
128,146,38892,1,0,0:0:0:0:
308,161,38986,6,0,P|343:224|255:270,1,156,10|0,0:2|0:0,0:0:0:0:
213,285,39361,1,10,0:2:0:0:
359,361,39548,2,0,L|474:351,1,104,0|10,0:0|0:2,0:0:0:0:
410,356,39829,1,0,0:0:0:0:
359,361,39922,1,0,0:0:0:0:
188,134,40111,6,0,L|73:124,1,104,10|0,0:2|0:0,0:0:0:0:
136,129,40392,1,0,0:0:0:0:
188,134,40485,1,10,0:2:0:0:
359,361,40673,2,0,L|474:351,1,104,0|10,0:0|0:2,0:0:0:0:
410,356,40954,1,0,0:0:0:0:
359,361,41047,1,0,0:0:0:0:
196,357,41236,5,10,0:2:0:0:
169,314,41329,1,0,0:0:0:0:
184,266,41423,1,0,0:0:0:0:
231,247,41517,1,0,0:0:0:0:
405,242,41611,2,0,L|480:151,1,104,10|0,0:2|0:0,0:0:0:0:
204,161,41986,6,0,P|169:224|257:270,1,156,10|0,0:2|0:0,0:0:0:0:
299,285,42361,1,10,0:2:0:0:
153,361,42548,2,0,L|38:351,1,104,0|10,0:0|0:2,0:0:0:0:
101,356,42829,1,0,0:0:0:0:
153,361,42922,1,0,0:0:0:0:
324,134,43111,6,0,L|439:124,1,104,10|0,0:2|0:0,0:0:0:0:
376,129,43392,1,0,0:0:0:0:
324,134,43485,1,10,0:2:0:0:
153,361,43673,2,0,L|38:351,1,104,0|10,0:0|0:2,0:0:0:0:
101,356,43954,1,0,0:0:0:0:
153,361,44047,1,0,0:0:0:0:
428,362,44236,5,10,0:2:0:0:
455,320,44329,1,8,0:0:0:0:
429,279,44423,1,8,0:0:0:0:
262,216,44611,2,0,L|249:137,1,52,10|8,0:2|0:0,0:0:0:0:
330,154,44798,2,0,L|356:82,1,52,8|8,0:0|0:0,0:0:0:0:
189,45,44986,6,0,P|122:78|117:184,1,156,10|0,0:2|0:0,0:0:0:0:
156,215,45361,1,10,0:2:0:0:
314,269,45548,2,0,L|202:243,1,104,0|10,0:0|0:2,0:0:0:0:
191,197,45829,1,0,0:0:0:0:
170,150,45923,1,0,0:0:0:0:
338,155,46111,6,0,L|450:129,1,104,10|0,0:2|0:0,0:0:0:0:
460,83,46392,1,0,0:0:0:0:
481,36,46486,1,10,0:2:0:0:
314,269,46673,2,0,L|202:243,1,104,0|10,0:0|0:2,0:0:0:0:
191,197,46954,1,0,0:0:0:0:
170,150,47048,1,0,0:0:0:0:
338,155,47236,5,10,0:2:0:0:
386,141,47329,1,0,0:0:0:0:
405,95,47423,1,0,0:0:0:0:
381,51,47517,1,0,0:0:0:0:
179,56,47611,2,0,L|56:45,1,104,10|0,0:2|0:0,0:0:0:0:
323,45,47986,6,0,P|390:78|395:184,1,156,10|0,0:2|0:0,0:0:0:0:
356,215,48361,1,10,0:2:0:0:
198,269,48548,2,0,L|310:243,1,104,0|10,0:0|0:2,0:0:0:0:
320,197,48829,1,0,0:0:0:0:
341,150,48923,1,0,0:0:0:0:
174,155,49111,6,0,L|62:129,1,104,10|0,0:2|0:0,0:0:0:0:
52,83,49392,1,0,0:0:0:0:
237,50,49486,5,10,0:0:0:0:
369,142,49673,2,0,L|254:156,1,104,2|0,0:2|0:0,0:0:0:0:
113,265,50048,2,0,L|38:276,2,52,2|0|0,0:2|0:0|0:0,0:0:0:0:
268,314,50423,1,2,0:2:0:0:
113,318,50611,1,0,0:0:0:0:
67,297,50704,1,0,0:0:0:0:
59,247,50798,1,2,0:2:0:0:
95,213,50892,1,0,0:0:0:0:
261,147,50986,6,0,P|257:69|181:40,1,156,10|0,0:2|0:0,0:0:0:0:
132,50,51361,1,10,0:2:0:0:
293,231,51548,2,0,L|423:221,1,104,0|10,0:0|0:2,0:0:0:0:
412,173,51829,1,0,0:0:0:0:
428,123,51923,1,0,0:0:0:0:
252,172,52111,6,0,L|382:162,1,104,10|0,0:2|0:0,0:0:0:0:
371,114,52392,1,0,0:0:0:0:
387,64,52486,1,10,0:2:0:0:
212,193,52673,2,0,L|342:183,1,104,0|10,0:0|0:2,0:0:0:0:
331,135,52954,1,0,0:0:0:0:
347,85,53048,1,0,0:0:0:0:
168,58,53236,5,10,0:2:0:0:
219,55,53329,1,0,0:0:0:0:
271,53,53423,1,0,0:0:0:0:
442,56,53611,1,10,0:2:0:0:
476,93,53704,1,0,0:0:0:0:
472,143,53798,1,0,0:0:0:0:
433,176,53892,1,0,0:0:0:0:
251,147,53986,6,0,P|255:69|331:40,1,156,10|0,0:2|0:0,0:0:0:0:
380,50,54361,1,10,0:2:0:0:
219,231,54548,2,0,L|89:221,1,104,0|10,0:0|0:2,0:0:0:0:
100,173,54829,1,0,0:0:0:0:
84,123,54923,1,0,0:0:0:0:
260,172,55111,6,0,L|130:162,1,104,10|0,0:2|0:0,0:0:0:0:
141,114,55392,1,0,0:0:0:0:
125,64,55486,1,10,0:2:0:0:
300,193,55673,2,0,L|170:183,1,104,2|10,0:2|0:2,0:0:0:0:
181,135,55954,1,0,0:0:0:0:
165,85,56048,1,2,0:2:0:0:
344,58,56236,5,10,0:2:0:0:
292,55,56329,1,0,0:0:0:0:
240,53,56423,1,2,0:2:0:0:
70,56,56611,2,0,L|176:61,1,104,10|2,0:2|0:2,0:0:0:0:
437,98,56986,6,0,P|442:163|365:205,1,156,10|0,0:2|0:0,0:0:0:0:
304,208,57361,1,10,0:2:0:0:
141,260,57548,2,0,L|131:151,1,104,0|10,0:0|0:2,0:0:0:0:
183,150,57829,1,0,0:0:0:0:
234,143,57923,1,0,0:0:0:0:
407,158,58111,6,0,L|417:49,1,104,10|0,0:2|0:0,0:0:0:0:
365,48,58392,1,0,0:0:0:0:
314,41,58486,1,10,0:2:0:0:
134,285,58673,2,0,L|124:176,1,104,0|10,0:0|0:2,0:0:0:0:
176,175,58954,1,0,0:0:0:0:
227,168,59048,1,0,0:0:0:0:
406,203,59236,5,10,0:2:0:0:
444,171,59329,1,0,0:0:0:0:
441,121,59423,1,0,0:0:0:0:
398,95,59517,1,0,0:0:0:0:
224,78,59611,2,0,L|175:195,1,104,10|0,0:2|0:0,0:0:0:0:
432,285,59986,5,10,0:2:0:0:
464,248,60079,1,8,0:0:0:0:
442,204,60173,1,8,0:0:0:0:
273,190,60361,2,0,L|185:186,2,52,10|8|8,0:2|0:0|0:0,0:0:0:0:
442,204,60736,1,10,0:2:0:0:
477,167,60829,1,8,0:0:0:0:
470,118,60923,1,8,0:0:0:0:
428,91,61017,1,8,0:0:0:0:
265,84,61111,2,0,L|203:76,1,52,10|8,0:2|0:0,0:0:0:0:
265,84,61298,2,0,L|327:76,1,52,8|8,0:0|0:0,0:0:0:0:
133,275,61486,6,0,P|60:208|164:141,1,234.000008926392,12|12,0:2|0:2,0:0:0:0:
380,125,62048,1,12,0:2:0:0:
132,125,62329,1,12,0:2:0:0:
379,275,62611,5,12,0:2:0:0:
416,265,62657,1,8,0:0:0:0:
443,238,62704,1,8,0:0:0:0:
451,200,62751,1,8,0:0:0:0:
439,164,62798,1,8,0:0:0:0:
410,139,62845,1,8,0:0:0:0:
372,133,62892,1,8,0:0:0:0:
197,156,62986,6,0,P|149:108|232:50,1,176.800003372192,8|0,0:0|0:0,0:0:0:0:
323,43,63548,1,2,0:0:0:0:
463,32,63736,2,0,L|274:27,1,176.800003372192,8|0,0:0|0:0,0:0:0:0:
389,135,64298,1,2,0:0:0:0:
234,235,64486,6,0,P|175:178|250:125,1,176.800003372192,8|0,0:0|0:0,0:0:0:0:
332,119,65048,1,2,0:0:0:0:
181,176,65236,2,0,L|73:167,1,88.4000016860962,8|0,0:0|0:0,0:0:0:0:
254,292,65611,2,0,L|362:283,1,88.4000016860962,2|0,0:0|0:0,0:0:0:0:
162,336,65986,6,0,P|98:277|178:232,1,176.800003372192,8|0,0:0|0:0,0:0:0:0:
258,216,66548,1,2,0:0:0:0:
417,210,66736,1,8,0:0:0:0:
481,157,66923,1,0,0:0:0:0:
455,78,67111,1,0,0:0:0:0:
372,75,67298,1,2,0:0:0:0:
205,79,67486,6,0,L|410:101,1,176.800003372192,8|0,0:0|0:0,0:0:0:0:
205,300,68048,1,2,0:0:0:0:
199,271,68110,1,2,0:0:0:0:
194,242,68173,1,2,0:0:0:0:
189,213,68236,2,0,L|284:202,1,88.4000016860962,2|2,0:0|0:0,0:0:0:0:
371,146,68611,2,0,L|276:135,1,88.4000016860962,2|2,0:0|0:0,0:0:0:0:
85,133,68986,5,8,0:0:0:0:
41,205,69173,1,0,0:0:0:0:
82,279,69361,1,2,0:0:0:0:
167,279,69548,1,2,0:0:0:0:
331,57,69736,1,8,0:0:0:0:
374,129,69923,1,0,0:0:0:0:
333,203,70111,1,2,0:0:0:0:
248,203,70298,1,2,0:0:0:0:
413,324,70486,6,0,P|421:215|354:186,1,176.800003372192,8|2,0:0|0:0,0:0:0:0:
256,163,71048,1,2,0:0:0:0:
96,233,71236,2,0,L|82:131,1,88.4000016860962,8|0,0:0|0:0,0:0:0:0:
180,111,71611,2,0,L|55:109,1,88.4000016860962,2|2,0:0|0:0,0:0:0:0:
280,224,71986,5,8,0:0:0:0:
364,231,72173,1,0,0:0:0:0:
413,162,72361,1,2,0:0:0:0:
380,84,72548,1,2,0:0:0:0:
201,172,72736,2,0,L|191:285,1,88.4000016860962,8|0,0:0|0:0,0:0:0:0:
319,260,73111,1,8,0:0:0:0:
193,260,73298,1,2,0:0:0:0:
384,332,73486,5,8,0:0:0:0:
280,326,73642,1,2,0:0:0:0:
256,308,73735,1,0,0:0:0:0:
250,280,73798,1,0,0:0:0:0:
264,255,73861,1,2,0:0:0:0:
304,240,73954,1,2,0:0:0:0:
324,202,74048,1,2,0:0:0:0:
311,161,74142,1,2,0:0:0:0:
273,140,74236,6,0,L|199:130,1,44.2000008430481,2|0,0:0|0:0,0:0:0:0:
165,196,74423,2,0,L|239:185,1,44.2000008430481,2|0,0:0|0:0,0:0:0:0:
284,197,74611,1,2,0:0:0:0:
316,242,74704,1,0,0:0:0:0:
294,294,74798,1,2,0:0:0:0:
239,303,74892,1,0,0:0:0:0:
74,307,74986,6,0,P|41:218|66:140,1,176.800003372192,10|2,0:2|0:2,0:0:0:0:
343,84,75736,2,0,L|151:88,1,176.800003372192,10|2,0:2|0:2,0:0:0:0:
438,307,76486,2,0,P|471:218|446:140,1,176.800003372192,10|2,0:2|0:2,0:0:0:0:
169,84,77236,2,0,L|361:88,1,176.800003372192,10|2,0:2|0:2,0:0:0:0:
41,242,77986,6,0,L|237:227,1,176.800003372192,10|2,0:2|0:2,0:0:0:0:
471,242,78736,2,0,L|275:227,1,176.800003372192,10|2,0:2|0:2,0:0:0:0:
25,336,79486,2,0,P|61:272|183:247,1,176.800003372192,10|2,0:2|0:2,0:0:0:0:
487,336,80236,2,0,P|451:272|329:247,1,176.800003372192,10|2,0:2|0:2,0:0:0:0:
207,238,80798,1,0,0:0:0:0:
475,188,80986,6,0,P|488:120|472:87,1,104,10|0,0:2|0:0,0:0:0:0:
422,85,81267,1,0,0:0:0:0:
370,81,81361,2,0,L|231:71,1,104,2|0,0:2|0:0,0:0:0:0:
96,229,81736,6,0,P|83:161|99:128,1,104,10|0,0:2|0:0,0:0:0:0:
148,126,82017,1,0,0:0:0:0:
200,122,82111,2,0,L|340:112,1,104,2|0,0:2|0:0,0:0:0:0:
489,64,82486,6,0,P|466:123|393:157,1,104,10|0,0:2|0:0,0:0:0:0:
383,153,82767,1,0,0:0:0:0:
331,159,82861,2,0,L|468:189,1,104,2|0,0:2|0:0,0:0:0:0:
370,232,83142,1,0,0:0:0:0:
296,261,83236,5,10,0:2:0:0:
254,233,83329,1,0,0:0:0:0:
253,183,83423,1,0,0:0:0:0:
294,155,83517,1,0,0:0:0:0:
460,133,83611,2,0,L|431:29,1,104,2|0,0:2|0:0,0:0:0:0:
148,335,83986,6,0,P|130:266|170:234,1,104,10|0,0:2|0:0,0:0:0:0:
198,239,84266,1,0,0:0:0:0:
249,234,84361,2,0,P|267:165|227:133,1,104,2|0,0:2|0:0,0:0:0:0:
76,194,84736,6,0,P|58:125|98:93,1,104,10|0,0:2|0:0,0:0:0:0:
126,98,85016,1,0,0:0:0:0:
177,93,85111,2,0,L|62:87,1,104,2|0,0:2|0:0,0:0:0:0:
327,199,85486,6,0,L|450:186,1,104,10|0,0:2|0:0,0:0:0:0:
362,147,85767,1,0,0:0:0:0:
279,133,85861,2,0,P|252:77|307:39,1,104,2|0,0:2|0:0,0:0:0:0:
460,47,86236,6,0,L|341:45,1,104,10|0,0:2|0:0,0:0:0:0:
183,76,86611,2,0,P|151:139|223:176,1,156,10|0,0:2|0:0,0:0:0:0:
407,176,86986,1,14,0:2:0:0:
256,192,87173,12,0,89611,0:0:0:0:
359,272,92236,5,2,0:2:0:0:
322,105,92611,1,2,0:2:0:0:
153,272,92986,1,2,0:2:0:0:
190,105,93267,1,2,0:2:0:0:
272,153,93361,1,0,0:0:0:0:
275,193,93454,1,2,0:2:0:0:
252,227,93548,1,0,0:0:0:0:
213,238,93642,1,0,0:0:0:0:
127,256,93736,5,2,0:2:0:0:
322,105,94111,1,2,0:2:0:0:
359,272,94486,1,2,0:2:0:0:
172,343,94861,2,0,P|149:290|197:270,1,83.2,2|0,0:2|0:0,0:0:0:0:
461,228,95236,5,2,0:0:0:0:
353,289,95423,2,0,L|270:285,1,52,0|0,0:0|0:0,0:0:0:0:
215,343,95611,2,0,L|335:348,1,104,2|2,0:2|0:2,0:0:0:0:
188,365,95986,1,2,0:2:0:0:
146,337,96079,1,0,0:0:0:0:
146,288,96173,1,0,0:0:0:0:
189,262,96267,1,0,0:0:0:0:
266,255,96361,6,0,L|277:191,1,52,2|0,0:2|0:0,0:0:0:0:
88,202,96548,1,2,0:0:0:0:
211,178,96736,2,0,L|225:45,1,104,2|0,0:2|0:0,0:0:0:0:
85,58,97111,2,0,L|217:47,1,104,2|0,0:2|0:0,0:0:0:0:
256,40,97392,1,0,0:0:0:0:
413,34,97486,6,0,P|431:87|384:118,1,88.4000016860962,2|0,0:2|0:0,0:0:0:0:
307,210,97861,2,0,L|195:224,1,88.4000016860962,2|0,0:2|0:0,0:0:0:0:
41,322,98236,2,0,P|34:260|74:248,1,88.4000016860962,2|0,0:2|0:0,0:0:0:0:
165,223,98611,2,0,L|53:222,1,88.4000016860962,2|0,0:2|0:0,0:0:0:0:
247,104,98986,6,0,L|351:95,1,88.4000016860962,2|0,0:2|0:0,0:0:0:0:
166,211,99361,2,0,L|58:216,1,88.4000016860962,2|0,0:3|0:0,0:0:0:0:
254,339,99736,2,0,L|146:344,1,88.4000016860962,2|0,0:3|0:0,0:0:0:0:
442,300,100111,6,0,P|462:255|431:235,1,88.4000016860962,2|0,0:2|0:0,0:0:0:0:
330,239,100486,2,0,L|210:235,1,88.4000016860962,2|0,0:2|0:0,0:0:0:0:
70,154,100861,2,0,L|186:142,1,88.4000016860962,2|0,0:2|0:0,0:0:0:0:
270,227,101236,2,0,L|154:215,1,88.4000016860962,2|0,0:2|0:0,0:0:0:0:
355,151,101611,6,0,L|370:250,1,88.4000016860962,2|0,0:2|0:0,0:0:0:0:
204,315,101986,2,0,L|316:328,1,88.4000016860962,2|0,0:3|0:0,0:0:0:0:
454,149,102361,2,0,L|342:162,1,88.4000016860962,2|0,0:3|0:0,0:0:0:0:
114,202,102736,6,0,L|93:77,1,88.4000016860962,2|0,0:2|0:0,0:0:0:0:
201,86,103111,2,0,L|311:82,1,88.4000016860962,2|0,0:2|0:0,0:0:0:0:
128,289,103486,2,0,L|107:164,1,88.4000016860962,2|0,0:2|0:0,0:0:0:0:
215,173,103861,2,0,L|325:169,1,88.4000016860962,2|0,0:2|0:0,0:0:0:0:
122,168,104236,6,0,P|113:107|157:85,1,88.4000016860962,2|0,0:2|0:0,0:0:0:0:
283,58,104611,2,0,L|154:42,1,88.4000016860962,2|0,0:3|0:0,0:0:0:0:
345,239,104986,1,2,0:3:0:0:
348,209,105048,1,0,0:0:0:0:
352,180,105111,1,0,0:0:0:0:
355,151,105173,1,0,0:0:0:0:
97,351,105361,5,2,0:2:0:0:
34,294,105548,1,2,0:2:0:0:
55,213,105736,1,2,0:2:0:0:
137,194,105923,1,2,0:2:0:0:
304,242,106111,1,2,0:2:0:0:
366,185,106298,1,2,0:2:0:0:
345,104,106486,1,2,0:2:0:0:
263,85,106673,1,2,0:2:0:0:
100,130,106861,2,0,L|84:26,1,88.4000016860962,2|2,0:2|0:2,0:0:0:0:
354,53,107236,5,2,0:0:0:0:
452,27,107423,2,0,L|380:24,1,44.2000008430481,2|0,0:2|0:0,0:0:0:0:
249,53,107611,1,2,0:2:0:0:
217,81,107704,1,0,0:0:0:0:
224,122,107798,1,2,0:2:0:0:
404,172,107986,5,2,0:0:0:0:
425,225,108079,1,2,0:0:0:0:
402,278,108173,1,2,0:0:0:0:
349,299,108267,1,10,0:0:0:0:
173,325,108361,5,0,0:0:0:0:
71,322,108548,2,0,P|28:258|85:205,1,156,8|8,0:0|0:0,0:0:0:0:
339,133,109111,6,0,L|171:117,1,156,8|8,0:0|0:0,0:0:0:0:
441,322,109673,2,0,P|484:258|427:205,1,156,8|8,0:0|0:0,0:0:0:0:
173,133,110236,5,8,0:0:0:0:
224,128,110329,1,8,0:0:0:0:
276,123,110423,1,8,0:0:0:0:
328,118,110517,1,8,0:0:0:0:
133,338,110611,6,0,P|63:295|69:209,1,156,8|8,0:0|0:0,0:0:0:0:
332,67,111173,2,0,L|142:71,1,156,8|8,0:0|0:0,0:0:0:0:
453,227,111736,6,0,P|444:301|379:338,1,156,8|8,0:0|0:0,0:0:0:0:
133,338,112298,2,0,P|67:301|58:227,1,156,8|8,0:0|0:0,0:0:0:0:
316,236,112861,5,8,0:0:0:0:
364,218,112954,1,8,0:0:0:0:
392,176,113048,1,8,0:0:0:0:
390,125,113142,1,8,0:0:0:0:
203,77,113236,6,0,P|153:142|208:181,1,156,8|8,0:0|0:0,0:0:0:0:
499,245,113798,2,0,P|477:332|422:371,1,156,8|8,0:0|0:0,0:0:0:0:
174,318,114361,5,8,0:0:0:0:
447,259,114642,1,8,0:0:0:0:
174,318,114923,2,0,P|129:263|180:214,1,156,8|8,0:0|0:0,0:0:0:0:
457,191,115486,5,8,0:0:0:0:
470,141,115579,1,8,0:0:0:0:
447,96,115673,1,8,0:0:0:0:
400,77,115767,1,8,0:0:0:0:
214,116,115861,5,8,0:0:0:0:
199,147,115907,1,8,0:0:0:0:
197,181,115954,1,8,0:0:0:0:
208,214,116001,1,8,0:0:0:0:
230,240,116048,1,8,0:0:0:0:
261,257,116095,1,8,0:0:0:0:
295,261,116142,1,8,0:0:0:0:
450,252,116236,6,0,L|480:258,6,26,2|0|0|0|0|0|0,0:2|0:0|0:0|0:0|0:0|0:0|0:0,0:0:0:0:
394,244,116611,1,2,0:2:0:0:
361,204,116704,1,2,0:2:0:0:
363,153,116798,1,2,0:2:0:0:
397,116,116892,1,2,0:2:0:0:
448,111,116986,1,2,0:0:0:0:
344,89,117173,1,2,0:2:0:0:
91,87,117361,6,0,P|42:174|162:248,1,234.000008926392,12|12,0:2|0:2,0:0:0:0:
385,254,117923,1,12,0:2:0:0:
127,254,118204,1,12,0:2:0:0:
385,254,118486,2,0,P|453:197|364:106,1,234.000008926392,2|0,0:2|0:0,0:0:0:0:
199,105,118861,6,0,P|180:180|224:218,1,114.400003491211,10|0,0:0|0:0,0:0:0:0:
261,237,119142,1,0,0:0:0:0:
327,271,119236,2,0,L|187:282,1,114.400003491211,10|0,0:0|0:0,0:0:0:0:
23,205,119611,2,0,L|163:216,1,114.400003491211,10|0,0:0|0:0,0:0:0:0:
330,232,119986,2,0,P|349:166|300:127,1,114.400003491211,10|2,0:0|0:0,0:0:0:0:
244,124,120267,1,2,0:0:0:0:
92,117,120361,6,0,P|65:188|111:212,1,114.400003491211,10|0,0:0|0:0,0:0:0:0:
157,221,120642,1,2,0:0:0:0:
224,239,120736,2,0,L|376:223,1,114.400003491211,10|0,0:0|0:0,0:0:0:0:
177,332,121111,1,8,0:0:0:0:
472,356,121298,2,0,L|483:212,1,114.400003491211,2|10,0:0|0:0,0:0:0:0:
354,220,121673,1,2,0:0:0:0:
84,171,121861,6,0,L|235:155,1,114.400003491211,10|0,0:0|0:0,0:0:0:0:
271,148,122142,1,0,0:0:0:0:
341,138,122236,2,0,P|364:81|314:40,1,114.400003491211,10|0,0:0|0:0,0:0:0:0:
42,300,122611,2,0,L|193:284,1,114.400003491211,10|2,0:0|0:0,0:0:0:0:
223,278,122892,1,0,0:0:0:0:
294,234,122986,2,0,L|143:218,1,114.400003491211,10|0,0:0|0:0,0:0:0:0:
449,204,123361,6,0,P|477:135|378:105,1,171.600005236817,10|2,0:0|0:0,0:0:0:0:
334,90,123736,2,0,L|452:79,1,114.400003491211,10|0,0:0|0:0,0:0:0:0:
390,84,124017,1,0,0:0:0:0:
334,90,124110,1,8,0:0:0:0:
147,185,124298,2,0,L|49:195,2,57.2000017456055,0|0|10,0:0|0:0|0:0,0:0:0:0:
278,247,124673,2,0,L|346:236,1,57.2000017456055,0|0,0:0|0:0,0:0:0:0:
137,103,124861,6,0,P|114:168|164:215,1,114.400003491211,10|0,0:0|0:0,0:0:0:0:
194,221,125142,1,0,0:0:0:0:
268,237,125236,2,0,L|116:258,1,114.400003491211,10|0,0:0|0:0,0:0:0:0:
7,351,125611,2,0,L|128:372,1,114.400003491211,10|2,0:0|0:0,0:0:0:0:
293,354,125986,2,0,P|346:287|263:276,1,171.600005236817,10|2,0:0|0:0,0:0:0:0:
124,218,126361,6,0,P|105:150|144:129,1,114.400003491211,10|0,0:0|0:0,0:0:0:0:
202,124,126642,1,2,0:0:0:0:
277,113,126736,1,10,0:0:0:0:
114,261,126923,2,0,L|12:252,2,57.2000017456055,0|0|8,0:0|0:0|0:0,0:0:0:0:
298,287,127298,2,0,L|309:212,1,57.2000017456055,0|0,0:0|0:0,0:0:0:0:
229,218,127486,1,10,0:0:0:0:
187,182,127579,1,0,0:0:0:0:
203,130,127673,1,0,0:0:0:0:
257,124,127767,1,0,0:0:0:0:
426,127,127861,6,0,P|444:57|388:20,1,114.400003491211,10|0,0:0|0:0,0:0:0:0:
119,136,128236,2,0,P|94:208|145:240,1,114.400003491211,10|0,0:0|0:0,0:0:0:0:
393,136,128611,2,0,P|418:208|367:240,1,114.400003491211,10|0,0:0|0:0,0:0:0:0:
86,127,128986,2,0,P|68:57|124:20,1,114.400003491211,10|0,0:0|0:0,0:0:0:0:
388,269,129361,6,0,P|418:173|287:129,1,234.000008926392,14|0,0:0|0:0,0:0:0:0:
230,112,129736,6,0,P|133:160|159:265,1,234.000008926392,14|0,0:0|0:0,0:0:0:0:
339,164,130111,6,0,P|349:76|262:60,1,171.600005236817,12|0,0:0|0:0,0:0:0:0:
228,51,130486,6,0,P|156:85|173:164,1,171.600005236817,14|0,0:0|0:0,0:0:0:0:
394,41,130861,6,0,P|386:108|329:127,1,114.400003491211,14|0,0:0|0:0,0:0:0:0:
279,138,131142,1,0,0:0:0:0:
204,154,131236,2,0,L|362:167,1,114.400003491211,10|0,0:0|0:0,0:0:0:0:
140,363,131611,6,0,L|130:238,1,114.400003491211,10|0,0:0|0:0,0:0:0:0:
323,223,131986,2,0,L|170:214,1,114.400003491211,10|2,0:0|0:0,0:0:0:0:
279,183,132267,1,2,0:0:0:0:
436,152,132361,6,0,P|464:77|412:49,1,114.400003491211,10|0,0:0|0:0,0:0:0:0:
391,59,132641,1,2,0:0:0:0:
333,60,132735,1,10,0:0:0:0:
148,156,132923,2,0,L|133:65,1,57.2000017456055,0|0,0:0|0:0,0:0:0:0:
327,110,133111,2,0,P|341:168|271:211,1,114.400003491211,8|2,0:0|0:0,0:0:0:0:
131,247,133392,2,0,L|32:257,1,57.2000017456055,0|10,0:0|0:0,0:0:0:0:
230,162,133673,2,0,L|329:172,1,57.2000017456055,2|0,0:0|0:0,0:0:0:0:
117,167,133861,6,0,P|84:93|122:68,1,114.400003491211,10|0,0:0|0:0,0:0:0:0:
164,69,134142,1,0,0:0:0:0:
225,56,134236,2,0,L|95:45,1,114.400003491211,10|0,0:0|0:0,0:0:0:0:
374,267,134611,2,0,L|508:254,1,114.400003491211,10|2,0:0|0:0,0:0:0:0:
407,214,134892,1,0,0:0:0:0:
330,174,134986,2,0,L|196:161,1,114.400003491211,10|0,0:0|0:0,0:0:0:0:
483,37,135361,6,0,P|486:99|403:165,1,171.600005236817,10|2,0:0|0:0,0:0:0:0:
325,183,135736,2,0,L|449:200,1,114.400003491211,10|0,0:0|0:0,0:0:0:0:
381,190,136017,1,0,0:0:0:0:
325,183,136110,1,8,0:0:0:0:
133,270,136298,1,0,0:0:0:0:
189,262,136391,1,0,0:0:0:0:
246,254,136485,1,10,0:0:0:0:
381,294,136673,2,0,L|397:229,1,57.2000017456055,0|0,0:0|0:0,0:0:0:0:
240,194,136861,6,0,L|112:170,1,114.400003491211,10|0,0:0|0:0,0:0:0:0:
305,139,137236,2,0,P|366:84|299:46,1,171.600005236817,10|2,0:0|0:0,0:0:0:0:
160,65,137611,2,0,L|288:41,1,114.400003491211,10|2,0:0|0:0,0:0:0:0:
432,196,137986,2,0,P|493:141|426:103,1,171.600005236817,10|2,0:0|0:0,0:0:0:0:
352,58,138361,6,0,L|503:48,1,114.400003491211,10|0,0:0|0:0,0:0:0:0:
286,150,138736,2,0,L|92:156,1,171.600005236817,10|2,0:0|0:0,0:0:0:0:
266,214,139111,2,0,P|295:153|250:129,1,114.400003491211,10|2,0:0|0:0,0:0:0:0:
114,155,139486,2,0,P|115:98|224:68,1,171.600005236817,10|2,0:0|0:0,0:0:0:0:
416,89,139861,6,0,P|432:173|319:218,1,171.600005236817,14|0,0:0|0:0,0:0:0:0:
281,266,140236,2,0,L|465:294,1,171.600005236817,10|2,0:0|0:0,0:0:0:0:
234,175,140611,2,0,P|218:259|331:304,1,171.600005236817,10|0,0:0|0:0,0:0:0:0:
369,352,140986,2,0,L|185:380,1,171.600005236817,10|2,0:0|0:0,0:0:0:0:
26,283,141361,6,0,P|43:191|130:155,1,171.600005236817,14|0,0:0|0:0,0:0:0:0:
276,129,141736,2,0,L|447:114,1,171.600005236817,10|2,0:0|0:0,0:0:0:0:
236,129,142111,2,0,L|65:114,1,171.600005236817,10|0,0:0|0:0,0:0:0:0:
276,199,142486,2,0,P|340:127|281:91,1,171.600005236817,10|2,0:0|0:0,0:0:0:0:
127,107,142861,5,10,0:0:0:0:
31,46,143048,1,8,0:0:0:0:
88,46,143141,1,2,0:0:0:0:
145,46,143235,1,2,0:0:0:0:
315,199,143423,2,0,L|192:199,1,114.400003491211,8|2,0:0|0:2,0:0:0:0:
366,46,143798,2,0,L|481:46,1,114.400003491211,8|2,0:0|0:2,0:0:0:0:
126,313,144173,5,8,0:0:0:0:
87,276,144266,1,8,0:0:0:0:
115,231,144360,1,10,0:2:0:0:
283,93,144548,1,8,0:0:0:0:
311,137,144642,1,8,0:0:0:0:
272,174,144735,1,10,0:2:0:0:
122,185,144923,6,0,L|50:180,2,57.2000017456055,8|8|10,0:0|0:0|0:2,0:0:0:0:
266,244,145298,2,0,L|338:239,1,57.2000017456055,8|8,0:0|0:0,0:0:0:0:
137,311,145486,1,10,0:2:0:0:
97,272,145579,1,0,0:0:0:0:
104,217,145673,1,8,0:0:0:0:
152,190,145767,1,8,0:0:0:0:
340,168,145861,5,10,0:2:0:0:
392,149,145954,1,8,0:0:0:0:
415,98,146048,1,8,0:0:0:0:
395,46,146142,1,8,0:0:0:0:
172,168,146236,5,10,0:2:0:0:
119,149,146329,1,8,0:0:0:0:
96,98,146423,1,8,0:0:0:0:
116,46,146517,1,8,0:0:0:0:
299,94,146611,6,0,L|369:82,1,57.2000017456055,10|8,0:2|0:0,0:0:0:0:
433,176,146798,2,0,L|363:164,1,57.2000017456055,8|8,0:0|0:0,0:0:0:0:
182,285,146986,6,0,L|112:273,1,57.2000017456055,10|8,0:2|0:0,0:0:0:0:
318,167,147173,2,0,L|388:155,1,57.2000017456055,8|8,0:0|0:0,0:0:0:0:
194,108,147361,5,12,0:0:0:0:
256,192,147548,12,0,151861,0:0:0:0:
