osu file format v14

[General]
AudioFilename: audio.mp3
AudioLeadIn: 0
PreviewTime: 14142
Countdown: 0
SampleSet: Normal
StackLeniency: 0.7
Mode: 2
LetterboxInBreaks: 0
WidescreenStoryboard: 1

[Editor]
DistanceSpacing: 1
BeatDivisor: 4
GridSize: 32
TimelineZoom: 1.8

[Metadata]
Title:conflict
TitleUnicode:conflict
Artist:siromaru + cranky
ArtistUnicode:siromaru + cranky
Creator:Bunnrei
Version:Platter
Source:osu!
Tags:bms of fighters 2011 bof2011 frenz2011 chunithm cytus dance rail deemo groove coaster maimai muse dash rhythmsia sound voltex superbeat xonic synchronica tapsonic top taiko no tatsujin tone sphere tsumamia! arcaea featured artist harmonic schranz pico electronic
BeatmapID:2055786
BeatmapSetID:981762

[Difficulty]
HPDrainRate:5
CircleSize:3.8
OverallDifficulty:8
ApproachRate:8
SliderMultiplier:1.68
SliderTickRate:2

[Events]
//Background and Video events
0,0,"abstract-2707939.jpg",0,0
//Break Periods
2,89811,91486
//Storyboard Layer 0 (Background)
//Storyboard Layer 1 (Fail)
//Storyboard Layer 2 (Pass)
//Storyboard Layer 3 (Foreground)
//Storyboard Layer 4 (Overlay)
//Storyboard Sound Samples

[TimingPoints]
2986,375,4,1,98,60,1,0
3079,-100,4,1,99,60,0,0
14236,-100,4,1,1,60,0,0
14611,-100,4,1,2,60,0,0
14986,-90.9090909090909,4,1,3,60,0,0
15361,-90.9090909090909,4,1,4,60,0,0
15642,-90.9090909090909,4,1,5,60,0,0
15736,-90.9090909090909,4,1,6,60,0,0
16111,-90.9090909090909,4,1,7,60,0,0
16298,-90.9090909090909,4,1,8,60,0,0
16392,-90.9090909090909,4,1,9,60,0,0
16486,-90.9090909090909,4,1,10,60,0,0
16767,-90.9090909090909,4,1,11,60,0,0
16861,-90.9090909090909,4,1,12,60,0,0
17423,-90.9090909090909,4,1,13,60,0,0
17611,-90.9090909090909,4,1,14,60,0,0
17798,-90.9090909090909,4,1,15,60,0,0
17986,-90.9090909090909,4,1,16,60,0,0
18361,-90.9090909090909,4,1,17,60,0,0
18642,-90.9090909090909,4,1,18,60,0,0
18736,-90.9090909090909,4,1,19,60,0,0
18923,-90.9090909090909,4,1,20,60,0,0
19111,-90.9090909090909,4,1,21,60,0,0
19392,-90.9090909090909,4,1,22,60,0,0
19486,-90.9090909090909,4,1,23,60,0,0
19767,-90.9090909090909,4,1,24,60,0,0
19861,-90.9090909090909,4,1,25,60,0,0
20611,-90.9090909090909,4,1,26,60,0,0
20986,-90.9090909090909,4,1,27,60,0,0
21361,-90.9090909090909,4,1,28,60,0,0
21642,-90.9090909090909,4,1,29,60,0,0
21736,-90.9090909090909,4,1,30,60,0,0
21923,-90.9090909090909,4,1,31,60,0,0
22111,-90.9090909090909,4,1,32,60,0,0
22392,-90.9090909090909,4,1,33,60,0,0
22486,-90.9090909090909,4,1,34,60,0,0
22767,-90.9090909090909,4,1,35,60,0,0
22861,-90.9090909090909,4,1,36,60,0,0
23611,-90.9090909090909,4,1,37,60,0,0
23986,-90.9090909090909,4,1,38,60,0,0
24361,-90.9090909090909,4,1,39,60,0,0
24642,-90.9090909090909,4,1,40,60,0,0
24736,-90.9090909090909,4,1,41,60,0,0
25111,-90.9090909090909,4,1,42,60,0,0
25392,-90.9090909090909,4,1,43,60,0,0
25486,-66.6666666666667,4,1,44,60,0,0
25767,-66.6666666666667,4,1,45,60,0,0
25861,-66.6666666666667,4,1,46,60,0,0
26236,-83.3333333333333,4,1,46,60,0,0
26423,-83.3333333333333,4,1,47,55,0,0
26517,-83.3333333333333,4,1,47,60,0,0
26611,-83.3333333333333,4,1,48,60,0,0
26798,-83.3333333333333,4,1,49,55,0,0
26892,-83.3333333333333,4,1,49,60,0,0
26986,-90.9090909090909,4,1,3,60,0,0
27361,-90.9090909090909,4,1,4,60,0,0
27642,-90.9090909090909,4,1,5,60,0,0
27736,-90.9090909090909,4,1,6,60,0,0
28111,-90.9090909090909,4,1,7,60,0,0
28298,-90.9090909090909,4,1,8,60,0,0
28392,-90.9090909090909,4,1,9,60,0,0
28486,-90.9090909090909,4,1,10,60,0,0
28767,-90.9090909090909,4,1,11,60,0,0
28861,-90.9090909090909,4,1,12,60,0,0
29423,-90.9090909090909,4,1,13,60,0,0
29611,-90.9090909090909,4,1,14,60,0,0
29798,-90.9090909090909,4,1,15,60,0,0
29986,-90.9090909090909,4,1,50,60,0,0
30361,-90.9090909090909,4,1,51,60,0,0
30642,-90.9090909090909,4,1,52,60,0,0
30736,-90.9090909090909,4,1,53,60,0,0
30923,-90.9090909090909,4,1,54,60,0,0
31111,-90.9090909090909,4,1,55,60,0,0
31392,-90.9090909090909,4,1,56,60,0,0
31486,-90.9090909090909,4,1,57,60,0,0
31767,-90.9090909090909,4,1,58,60,0,0
31861,-90.9090909090909,4,1,59,60,0,0
32611,-90.9090909090909,4,1,60,60,0,0
32986,-90.9090909090909,4,1,61,60,0,0
33361,-90.9090909090909,4,1,62,60,0,0
33642,-90.9090909090909,4,1,63,60,0,0
33736,-90.9090909090909,4,1,64,60,0,0
33923,-90.9090909090909,4,1,65,60,0,0
34111,-90.9090909090909,4,1,66,60,0,0
34392,-90.9090909090909,4,1,67,60,0,0
34486,-90.9090909090909,4,1,68,60,0,0
34861,-90.9090909090909,4,1,69,60,0,0
35142,-90.9090909090909,4,1,70,60,0,0
35236,-90.9090909090909,4,1,71,60,0,0
35423,-90.9090909090909,4,1,72,60,0,0
35611,-90.9090909090909,4,1,73,60,0,0
35892,-90.9090909090909,4,1,74,60,0,0
35986,-90.9090909090909,4,1,75,60,0,0
36361,-90.9090909090909,4,1,76,60,0,0
36642,-90.9090909090909,4,1,77,60,0,0
36736,-90.9090909090909,4,1,78,60,0,0
37111,-90.9090909090909,4,1,79,60,0,0
37392,-90.9090909090909,4,1,80,60,0,0
37486,-90.9090909090909,4,1,81,60,0,0
37767,-90.9090909090909,4,1,82,60,0,0
37861,-90.9090909090909,4,1,83,60,0,0
38236,-90.9090909090909,4,1,99,60,0,0
38986,-100,4,1,99,60,0,0
49673,-100,4,1,99,40,0,0
50986,-100,4,1,99,60,0,0
61486,-66.6666666666667,4,1,99,60,0,0
62986,-100,4,2,3,50,0,0
63736,-100,4,2,4,50,0,0
64486,-100,4,2,5,50,0,0
65236,-100,4,2,6,50,0,0
65986,-100,4,2,7,50,0,0
66736,-100,4,2,8,50,0,0
67486,-100,4,2,11,50,0,0
68986,-100,4,2,12,50,0,0
69736,-100,4,2,13,50,0,0
70486,-100,4,2,14,50,0,0
71236,-100,4,2,15,50,0,0
71986,-100,4,2,16,50,0,0
72736,-100,4,2,17,50,0,0
73111,-100,4,2,18,50,0,0
73486,-100,4,2,19,50,0,0
74986,-100,4,1,20,51,0,0
75736,-100,4,1,21,52,0,0
76486,-100,4,1,22,53,0,0
77236,-100,4,1,23,54,0,0
77986,-100,4,1,24,55,0,0
78736,-100,4,1,25,56,0,0
79486,-100,4,1,26,57,0,0
80236,-100,4,1,27,58,0,0
80986,-100,4,1,28,60,0,0
81736,-100,4,1,29,60,0,0
82486,-100,4,1,30,60,0,0
83236,-100,4,1,31,60,0,0
83986,-100,4,1,32,60,0,0
84736,-100,4,1,33,60,0,0
85486,-100,4,1,34,60,0,0
86236,-100,4,1,35,60,0,0
86611,-100,4,1,36,60,0,0
86986,375,7,1,37,60,1,0
86986,-100,7,1,37,60,0,0
87173,-100,7,1,37,40,0,0
89611,-100,7,1,37,30,0,0
92236,-125,7,1,99,40,0,0
95236,-40,7,1,99,40,0,0
95423,-100,7,1,99,40,0,0
96548,-40,7,1,99,40,0,0
96736,-100,7,1,99,40,0,0
97486,-100,7,1,99,50,0,0
107236,-40,7,1,99,50,0,0
107423,-100,7,1,99,50,0,0
108548,-100,7,1,99,35,0,0
110611,-100,7,1,99,42,0,0
111736,-100,7,1,99,49,0,0
113236,-100,7,1,99,55,0,0
115861,375,4,1,99,60,1,0
115907,-100,4,1,99,56,0,0
115954,-100,4,1,99,52,0,0
116001,-100,4,1,99,48,0,0
116048,-100,4,1,99,44,0,0
116095,-100,4,1,99,40,0,0
116142,-100,4,1,99,36,0,0
116189,-100,4,1,99,34,0,0
116236,-100,4,1,99,40,0,0
117173,-100,4,1,99,50,0,0
117361,-66.6666666666667,4,1,99,60,0,0
118861,375,4,1,3,60,1,0
118861,-90.9090909090909,4,1,3,60,0,0
119236,-90.9090909090909,4,1,4,60,0,0
119517,-90.9090909090909,4,1,5,60,0,0
119611,-90.9090909090909,4,1,6,60,0,0
119986,-90.9090909090909,4,1,7,60,0,0
120173,-90.9090909090909,4,1,8,60,0,0
120267,-90.9090909090909,4,1,9,60,0,0
120361,-90.9090909090909,4,1,10,60,0,0
120642,-90.9090909090909,4,1,11,60,0,0
120736,-90.9090909090909,4,1,12,60,0,0
121298,-90.9090909090909,4,1,13,60,0,0
121486,-90.9090909090909,4,1,14,60,0,0
121673,-90.9090909090909,4,1,15,60,0,0
121861,-90.9090909090909,4,1,16,60,0,0
122236,-90.9090909090909,4,1,17,60,0,0
122517,-90.9090909090909,4,1,18,60,0,0
122611,-90.9090909090909,4,1,19,60,0,0
122798,-90.9090909090909,4,1,20,60,0,0
122986,-90.9090909090909,4,1,21,60,0,0
123267,-90.9090909090909,4,1,22,60,0,0
123361,-90.9090909090909,4,1,23,60,0,0
123642,-90.9090909090909,4,1,24,60,0,0
123736,-90.9090909090909,4,1,25,60,0,0
124486,-90.9090909090909,4,1,26,60,0,0
124861,-90.9090909090909,4,1,27,60,0,0
125236,-90.9090909090909,4,1,28,60,0,0
125517,-90.9090909090909,4,1,29,60,0,0
125611,-90.9090909090909,4,1,30,60,0,0
125798,-90.9090909090909,4,1,31,60,0,0
125986,-90.9090909090909,4,1,32,60,0,0
126267,-90.9090909090909,4,1,33,60,0,0
126361,-90.9090909090909,4,1,34,60,0,0
126642,-90.9090909090909,4,1,35,60,0,0
126736,-90.9090909090909,4,1,36,60,0,0
127486,-90.9090909090909,4,1,37,60,0,0
127861,-90.9090909090909,4,1,38,60,0,0
128236,-90.9090909090909,4,1,39,60,0,0
128517,-90.9090909090909,4,1,40,60,0,0
128611,-90.9090909090909,4,1,41,60,0,0
128986,-90.9090909090909,4,1,42,60,0,0
129267,-90.9090909090909,4,1,43,60,0,0
129361,-90.9090909090909,4,1,44,60,0,0
129642,-90.9090909090909,4,1,45,60,0,0
129736,-90.9090909090909,4,1,46,60,0,0
130111,-90.9090909090909,4,1,46,60,0,0
130298,-90.9090909090909,4,1,47,55,0,0
130392,-90.9090909090909,4,1,47,60,0,0
130486,-90.9090909090909,4,1,48,60,0,0
130673,-90.9090909090909,4,1,49,55,0,0
130767,-90.9090909090909,4,1,49,60,0,0
130861,-90.9090909090909,4,1,3,60,0,0
131236,-90.9090909090909,4,1,4,60,0,0
131517,-90.9090909090909,4,1,5,60,0,0
131611,-90.9090909090909,4,1,6,60,0,0
131986,-90.9090909090909,4,1,7,60,0,0
132173,-90.9090909090909,4,1,8,60,0,0
132267,-90.9090909090909,4,1,9,60,0,0
132361,-90.9090909090909,4,1,10,60,0,0
132642,-90.9090909090909,4,1,11,60,0,0
132736,-90.9090909090909,4,1,12,60,0,0
133298,-90.9090909090909,4,1,13,60,0,0
133486,-90.9090909090909,4,1,14,60,0,0
133673,-90.9090909090909,4,1,15,60,0,0
133861,-90.9090909090909,4,1,50,60,0,0
134236,-90.9090909090909,4,1,51,60,0,0
134517,-90.9090909090909,4,1,52,60,0,0
134611,-90.9090909090909,4,1,53,60,0,0
134798,-90.9090909090909,4,1,54,60,0,0
134986,-90.9090909090909,4,1,55,60,0,0
135267,-90.9090909090909,4,1,56,60,0,0
135361,-90.9090909090909,4,1,57,60,0,0
135642,-90.9090909090909,4,1,58,60,0,0
135736,-90.9090909090909,4,1,59,60,0,0
136486,-90.9090909090909,4,1,60,60,0,0
136861,-90.9090909090909,4,1,61,60,0,0
137236,-90.9090909090909,4,1,62,60,0,0
137517,-90.9090909090909,4,1,63,60,0,0
137611,-90.9090909090909,4,1,64,60,0,0
137798,-90.9090909090909,4,1,65,60,0,0
137986,-90.9090909090909,4,1,66,60,0,0
138267,-90.9090909090909,4,1,67,60,0,0
138361,-90.9090909090909,4,1,68,60,0,0
138736,-90.9090909090909,4,1,69,60,0,0
139017,-90.9090909090909,4,1,70,60,0,0
139111,-90.9090909090909,4,1,71,60,0,0
139298,-90.9090909090909,4,1,72,60,0,0
139486,-90.9090909090909,4,1,73,60,0,0
139767,-90.9090909090909,4,1,74,60,0,0
139861,-90.9090909090909,4,1,75,60,0,0
140236,-90.9090909090909,4,1,76,60,0,0
140517,-90.9090909090909,4,1,77,60,0,0
140611,-90.9090909090909,4,1,78,60,0,0
140986,-90.9090909090909,4,1,79,60,0,0
141267,-90.9090909090909,4,1,80,60,0,0
141361,-90.9090909090909,4,1,84,60,0,0
141736,-90.9090909090909,4,1,85,60,0,0
142017,-90.9090909090909,4,1,86,60,0,0
142111,-90.9090909090909,4,1,87,60,0,0
142486,-90.9090909090909,4,1,88,60,0,0
142767,-90.9090909090909,4,1,89,60,0,0
142861,-90.9090909090909,4,1,90,60,0,0
143142,-90.9090909090909,4,1,91,60,0,0
143236,-90.9090909090909,4,1,92,60,0,0
143423,-90.9090909090909,4,1,99,60,0,0
147361,-100,4,1,98,60,0,0
147454,-100,4,1,97,40,0,0
148861,-100,4,1,97,30,0,0
149236,-100,4,1,97,20,0,0
149611,-100,4,1,97,10,0,0
150361,-100,4,1,97,5,0,0

[Colours]
Combo1 : 128,128,128
Combo2 : 128,0,0

[HitObjects]
133,348,2986,6,0,L|42:328,1,84,12|0,0:0|0:0,0:0:0:0:
38,262,3361,2,0,L|129:242,1,84,8|0,0:0|0:0,0:0:0:0:
313,205,3736,2,0,L|404:185,1,84,8|0,0:0|0:0,0:0:0:0:
408,119,4111,2,0,L|317:99,1,84,8|0,0:0|0:0,0:0:0:0:
133,348,4486,6,0,L|42:328,1,84,8|0,0:0|0:0,0:0:0:0:
38,262,4861,2,0,L|129:242,1,84,8|0,0:0|0:0,0:0:0:0:
313,205,5236,2,0,L|404:185,1,84,8|0,0:0|0:0,0:0:0:0:
408,119,5611,2,0,L|317:99,1,84,8|0,0:0|0:0,0:0:0:0:
132,138,5986,6,0,L|32:159,1,84,8|0,0:0|0:0,0:0:0:0:
150,190,6361,2,0,L|250:211,1,84,8|0,0:0|0:0,0:0:0:0:
423,257,6736,2,0,L|523:278,1,84,8|0,0:0|0:0,0:0:0:0:
405,309,7111,2,0,L|305:330,1,84,8|0,0:0|0:0,0:0:0:0:
132,138,7486,6,0,L|32:159,1,84,8|0,0:0|0:0,0:0:0:0:
150,190,7861,2,0,L|250:211,1,84,8|0,0:0|0:0,0:0:0:0:
423,257,8236,2,0,L|523:278,1,84,8|0,0:0|0:0,0:0:0:0:
405,309,8611,1,8,0:0:0:0:
363,317,8704,1,8,0:0:0:0:
322,326,8798,1,8,0:0:0:0:
21,331,8986,6,0,L|46:217,1,84,10|0,0:2|0:0,0:0:0:0:
136,142,9361,2,0,L|254:120,1,84,10|0,0:2|0:0,0:0:0:0:
423,242,9736,2,0,L|398:128,1,84,10|0,0:2|0:0,0:0:0:0:
308,53,10111,2,0,L|190:31,1,84,10|0,0:2|0:0,0:0:0:0:
21,331,10486,6,0,L|46:217,1,84,10|0,0:2|0:0,0:0:0:0:
136,142,10861,2,0,L|254:120,1,84,10|0,0:2|0:0,0:0:0:0:
423,242,11236,2,0,L|398:128,1,84,10|0,0:2|0:0,0:0:0:0:
308,53,11611,2,0,L|190:31,1,84,10|0,0:2|0:0,0:0:0:0:
20,139,11986,6,0,L|48:250,1,84,10|0,0:2|0:0,0:0:0:0:
148,257,12361,1,10,0:2:0:0:
255,272,12548,1,0,0:0:0:0:
468,274,12736,2,0,P|480:216|439:173,1,84,10|0,0:2|0:0,0:0:0:0:
369,229,13111,5,10,0:2:0:0:
468,274,13298,1,0,0:0:0:0:
173,338,13486,1,14,0:2:0:0:
131,338,13579,1,0,0:0:0:0:
89,339,13673,1,0,0:0:0:0:
177,290,13861,1,14,0:2:0:0:
219,290,13954,1,0,0:0:0:0:
261,291,14048,1,0,0:0:0:0:
59,249,14236,5,14,0:0:0:0:
36,215,14329,1,8,0:0:0:0:
50,177,14423,1,8,0:0:0:0:
141,156,14611,1,14,0:0:0:0:
99,156,14704,1,8,0:0:0:0:
57,156,14798,1,8,0:0:0:0:
346,105,14986,6,0,L|453:110,1,92.4000028198243,14|0,0:0|0:0,0:0:0:0:
345,104,15361,2,0,P|287:132|325:181,1,138.600004229736,10|2,0:0|0:0,0:0:0:0:
396,104,15736,2,0,L|292:98,1,92.4000028198243,10|0,0:0|0:0,0:0:0:0:
196,191,16111,2,0,L|349:197,1,138.600004229736,10|2,0:0|0:0,0:0:0:0:
388,200,16486,6,0,L|271:194,1,92.4000028198243,10|0,0:0|0:0,0:0:0:0:
90,229,16861,2,0,P|55:162|85:135,1,92.4000028198243,10|0,0:0|0:0,0:0:0:0:
172,120,17236,1,8,0:0:0:0:
384,111,17423,2,0,L|499:93,2,92.4000028198243,2|10|2,0:0|0:0|0:0,0:0:0:0:
89,317,17986,6,0,L|68:215,1,92.4000028198243,10|0,0:0|0:0,0:0:0:0:
163,118,18361,2,0,L|280:102,1,92.4000028198243,10|0,0:0|0:0,0:0:0:0:
471,226,18736,2,0,L|492:124,1,92.4000028198243,10|2,0:0|0:0,0:0:0:0:
383,93,19111,2,0,P|346:149|412:189,1,138.600004229736,10|2,0:0|0:0,0:0:0:0:
444,192,19486,6,0,L|289:208,1,138.600004229736,10|2,0:0|0:0,0:0:0:0:
356,246,19861,2,0,L|482:228,1,92.4000028198243,10|0,0:0|0:0,0:0:0:0:
229,226,20236,2,0,P|218:168|243:131,1,92.4000028198243,8|0,0:0|0:0,0:0:0:0:
326,104,20611,1,10,0:0:0:0:
419,74,20798,1,0,0:0:0:0:
125,62,20986,6,0,L|109:179,1,92.4000028198243,10|0,0:0|0:0,0:0:0:0:
221,200,21361,2,0,L|268:311,1,92.4000028198243,10|0,0:0|0:0,0:0:0:0:
48,327,21736,1,10,0:0:0:0:
21,241,21923,1,2,0:0:0:0:
68,164,22111,1,10,0:0:0:0:
157,149,22298,1,0,0:0:0:0:
370,141,22486,6,0,P|373:213|290:239,1,138.600004229736,10|2,0:0|0:0,0:0:0:0:
257,247,22861,2,0,L|364:263,1,92.4000028198243,10|0,0:0|0:0,0:0:0:0:
461,261,23236,2,0,P|490:196|455:165,1,92.4000028198243,8|0,0:0|0:0,0:0:0:0:
367,151,23611,1,10,0:0:0:0:
418,132,23704,1,0,0:0:0:0:
467,115,23798,1,0,0:0:0:0:
164,234,23986,5,10,0:0:0:0:
136,200,24079,1,0,0:0:0:0:
157,162,24173,1,0,0:0:0:0:
271,139,24361,1,10,0:0:0:0:
299,105,24454,1,0,0:0:0:0:
278,67,24548,1,0,0:0:0:0:
66,349,24736,5,10,0:0:0:0:
38,315,24829,1,0,0:0:0:0:
59,277,24923,1,0,0:0:0:0:
173,254,25111,1,10,0:0:0:0:
126,252,25204,1,0,0:0:0:0:
80,250,25298,1,0,0:0:0:0:
354,224,25486,6,0,P|431:186|398:31,1,252.000009613037,14|14,0:0|0:0,0:0:0:0:
105,45,26236,6,0,P|53:101|112:214,1,201.599993847656,12|14,0:0|0:0,0:0:0:0:
198,215,26798,1,2,0:0:0:0:
471,212,26986,6,0,P|495:148|450:116,1,92.4000028198243,14|0,0:0|0:0,0:0:0:0:
386,123,27361,2,0,L|266:106,1,92.4000028198243,10|0,0:0|0:0,0:0:0:0:
401,64,27736,2,0,P|421:126|322:187,1,184.800005639649,10|10,0:0|0:0,0:0:0:0:
231,179,28298,1,2,0:0:0:0:
34,70,28486,6,0,L|11:160,1,92.4000028198243,10|0,0:0|0:0,0:0:0:0:
96,241,28861,2,0,L|203:239,1,92.4000028198243,10|0,0:0|0:0,0:0:0:0:
275,126,29236,1,8,0:0:0:0:
463,127,29423,1,2,0:0:0:0:
452,214,29610,1,10,0:0:0:0:
370,245,29798,1,2,0:0:0:0:
111,319,29986,6,0,P|95:265|130:230,1,92.4000028198243,10|0,0:0|0:0,0:0:0:0:
235,206,30361,2,0,P|251:152|216:117,1,92.4000028198243,10|0,0:0|0:0,0:0:0:0:
24,117,30736,2,0,L|39:250,1,92.4000028198243,10|2,0:0|0:0,0:0:0:0:
136,255,31111,2,0,L|290:234,1,138.600004229736,10|2,0:0|0:0,0:0:0:0:
224,236,31486,6,0,P|183:196|231:137,1,138.600004229736,10|2,0:0|0:0,0:0:0:0:
271,131,31861,2,0,L|400:123,1,92.4000028198243,10|0,0:0|0:0,0:0:0:0:
152,357,32236,2,0,L|140:237,1,92.4000028198243,8|0,0:0|0:0,0:0:0:0:
240,226,32611,2,0,P|309:177|288:111,1,138.600004229736,10|0,0:0|0:0,0:0:0:0:
257,103,32986,6,0,L|120:114,1,92.4000028198243,10|0,0:0|0:0,0:0:0:0:
372,237,33361,2,0,P|413:189|347:147,1,138.600004229736,10|2,0:0|0:0,0:0:0:0:
322,139,33736,2,0,L|186:141,1,92.4000028198243,10|2,0:0|0:0,0:0:0:0:
20,136,34111,2,0,P|31:82|109:37,1,138.600004229736,10|2,0:0|0:0,0:0:0:0:
145,38,34486,6,0,L|37:32,1,92.4000028198243,10|0,0:0|0:0,0:0:0:0:
255,261,34861,2,0,P|296:213|230:171,1,138.600004229736,10|2,0:0|0:0,0:0:0:0:
218,165,35236,2,0,L|82:167,1,92.4000028198243,10|2,0:0|0:0,0:0:0:0:
334,110,35611,2,0,P|353:36|332:16,1,92.4000028198243,10|0,0:0|0:0,0:0:0:0:
82,66,35986,6,0,P|53:152|109:168,1,138.600004229736,10|0,0:0|0:0,0:0:0:0:
126,183,36361,2,0,L|292:221,1,138.600004229736,10|2,0:0|0:0,0:0:0:0:
208,209,36736,2,0,L|74:221,1,92.4000028198243,10|0,0:0|0:0,0:0:0:0:
274,333,37111,2,0,L|440:371,1,138.600004229736,10|2,0:0|0:0,0:0:0:0:
445,360,37486,6,0,P|463:302|426:272,1,92.4000028198243,10|0,0:0|0:0,0:0:0:0:
241,180,37861,2,0,P|223:122|260:92,1,92.4000028198243,10|0,0:0|0:0,0:0:0:0:
447,32,38236,1,2,0:2:0:0:
456,76,38329,1,0,0:0:0:0:
441,119,38423,1,2,0:2:0:0:
406,148,38517,1,0,0:0:0:0:
361,155,38611,1,2,0:2:0:0:
32,206,38986,6,0,P|37:147|116:104,1,126,10|0,0:2|0:0,0:0:0:0:
140,96,39361,1,10,0:2:0:0:
244,94,39548,2,0,P|306:87|335:30,1,126
325,7,39923,1,0,0:0:0:0:
132,275,40111,6,0,P|97:245|146:187,1,126,10|0,0:2|0:0,0:0:0:0:
175,183,40486,1,10,0:2:0:0:
286,175,40673,2,0,P|321:145|272:87,1,126,0|0,0:0|0:0,0:0:0:0:
243,83,41048,1,0,0:0:0:0:
49,88,41236,2,0,L|5:83,2,42,10|0|0,0:2|0:0|0:0,0:0:0:0:
138,119,41611,2,0,L|255:128,1,84,10|0,0:2|0:0,0:0:0:0:
480,206,41986,6,0,P|475:147|396:104,1,126,10|0,0:2|0:0,0:0:0:0:
372,96,42361,1,10,0:2:0:0:
268,94,42548,2,0,P|206:87|177:30,1,126
187,7,42923,1,0,0:0:0:0:
380,275,43111,6,0,P|415:245|366:187,1,126,10|0,0:2|0:0,0:0:0:0:
337,183,43486,1,10,0:2:0:0:
226,175,43673,2,0,P|191:145|240:87,1,126
269,83,44048,1,0,0:0:0:0:
463,33,44236,1,10,0:2:0:0:
479,69,44329,1,8,0:0:0:0:
458,104,44423,1,8,0:0:0:0:
385,168,44611,1,10,0:2:0:0:
343,172,44704,1,8,0:0:0:0:
301,176,44798,1,8,0:0:0:0:
50,210,44986,6,0,P|30:158|96:122,1,126,10|0,0:2|0:0,0:0:0:0:
121,118,45361,1,10,0:2:0:0:
227,79,45548,2,0,L|92:76,1,126
55,77,45923,1,0,0:0:0:0:
245,288,46111,6,0,P|265:236|199:200,1,126,10|0,0:2|0:0,0:0:0:0:
174,196,46486,1,10,0:2:0:0:
82,156,46673,2,0,L|217:153,1,126
254,154,47048,1,0,0:0:0:0:
60,72,47236,2,0,L|-9:72,2,42,10|0|0,0:2|0:0|0:0,0:0:0:0:
142,125,47611,2,0,L|212:57,1,84,10|0,0:2|0:0,0:0:0:0:
462,210,47986,6,0,P|482:158|416:122,1,126,10|0,0:2|0:0,0:0:0:0:
391,118,48361,1,10,0:2:0:0:
285,79,48548,2,0,L|420:76,1,126,0|0,0:0|0:0,0:0:0:0:
457,77,48923,1,0,0:0:0:0:
284,286,49111,6,0,P|264:234|330:198,1,126,10|0,0:2|0:0,0:0:0:0:
355,194,49486,1,10,0:2:0:0:
104,87,49673,2,0,L|-10:87,2,84,2|0|2,0:2|0:0|0:2,0:0:0:0:
150,87,50142,1,0,0:0:0:0:
200,87,50236,6,0,P|217:45|193:13,1,84,0|2,0:0|0:2,0:0:0:0:
20,87,50611,1,0,0:0:0:0:
1,50,50704,1,0,0:0:0:0:
19,14,50798,1,2,0:2:0:0:
286,20,50986,6,0,P|343:34|357:101,1,126,10|0,0:2|0:0,0:0:0:0:
334,138,51361,1,10,0:2:0:0:
231,135,51548,2,0,P|174:149|160:216,1,126,0|0,0:0|0:0,0:0:0:0:
183,253,51923,1,0,0:0:0:0:
380,269,52111,6,0,P|367:194|305:175,1,126,10|0,0:2|0:0,0:0:0:0:
274,170,52486,1,10,0:2:0:0:
174,205,52673,2,0,P|187:130|249:111,1,126,0|0,0:0|0:0,0:0:0:0:
280,106,53048,1,0,0:0:0:0:
482,103,53236,6,0,L|494:46,2,42,10|0|0,0:2|0:0|0:0,0:0:0:0:
399,118,53611,2,0,L|497:99,1,84,10|0,0:2|0:0,0:0:0:0:
226,20,53986,6,0,P|169:34|155:101,1,126,10|0,0:2|0:0,0:0:0:0:
178,138,54361,1,10,0:2:0:0:
281,135,54548,2,0,P|338:149|352:216,1,126,0|0,0:0|0:0,0:0:0:0:
329,253,54923,1,0,0:0:0:0:
132,269,55111,6,0,P|145:194|207:175,1,126,10|0,0:2|0:0,0:0:0:0:
238,170,55486,1,10,0:2:0:0:
338,205,55673,2,0,P|325:130|263:111,1,126,2|0,0:2|0:0,0:0:0:0:
232,106,56048,1,2,0:2:0:0:
30,103,56236,6,0,L|18:46,2,42,10|0|2,0:2|0:0|0:2,0:0:0:0:
113,118,56611,2,0,L|15:99,1,84,10|2,0:2|0:2,0:0:0:0:
290,178,56986,6,0,P|329:122|270:95,1,126,10|0,0:2|0:0,0:0:0:0:
246,84,57361,1,10,0:2:0:0:
149,253,57548,2,0,P|110:197|169:170,1,126,0|0,0:0|0:0,0:0:0:0:
193,159,57923,1,0,0:0:0:0:
383,262,58111,6,0,P|422:206|363:179,1,126,10|0,0:2|0:0,0:0:0:0:
339,168,58486,1,10,0:2:0:0:
253,340,58673,2,0,P|214:284|273:257,1,126,0|0,0:0|0:0,0:0:0:0:
297,246,59048,1,0,0:0:0:0:
487,242,59236,5,10,0:2:0:0:
494,201,59329,1,0,0:0:0:0:
470,168,59423,1,0,0:0:0:0:
379,142,59611,2,0,L|280:122,1,84,10|0,0:2|0:0,0:0:0:0:
34,138,59986,5,10,0:2:0:0:
25,97,60079,1,8,0:0:0:0:
44,61,60173,1,8,0:0:0:0:
139,49,60361,1,10,0:2:0:0:
97,46,60454,1,8,0:0:0:0:
55,43,60548,1,8,0:0:0:0:
308,124,60736,5,10,0:2:0:0:
328,159,60829,1,8,0:0:0:0:
323,200,60923,1,8,0:0:0:0:
293,228,61017,1,8,0:0:0:0:
252,233,61111,1,10,0:2:0:0:
231,268,61204,1,8,0:0:0:0:
236,309,61298,1,8,0:0:0:0:
490,286,61486,6,0,P|506:203|405:166,1,189.000007209778,12|12,0:2|0:2,0:0:0:0:
139,187,62048,2,0,P|123:104|224:67,1,189.000007209778,12|12,0:2|0:2,0:0:0:0:
469,66,62611,2,0,L|389:199,1,126.000004806519,12|8,0:2|0:0,0:0:0:0:
127,328,62986,6,0,P|80:280|148:187,1,168,8|0,0:0|0:0,0:0:0:0:
201,164,63548,1,2,0:0:0:0:
285,121,63736,2,0,L|79:107,1,168,8|0,0:0|0:0,0:0:0:0:
202,47,64298,1,2,0:0:0:0:
314,90,64486,6,0,P|313:177|229:201,1,168,8|0,0:0|0:0,0:0:0:0:
154,203,65048,1,2,0:0:0:0:
254,273,65236,2,0,L|351:258,1,84,8|0,0:0|0:0,0:0:0:0:
242,332,65611,2,0,L|145:317,1,84,2|0,0:0|0:0,0:0:0:0:
352,323,65986,6,0,P|415:272|348:217,1,168,8|0,0:0|0:0,0:0:0:0:
261,203,66548,1,2,0:0:0:0:
172,200,66736,2,0,L|159:95,1,84,8|0,0:0|0:0,0:0:0:0:
283,107,67111,2,0,L|296:2,1,84,0|2,0:0|0:0,0:0:0:0:
92,104,67486,6,0,P|20:155|78:233,1,168,8|0,0:0|0:0,0:0:0:0:
148,255,68048,1,2,0:0:0:0:
169,237,68110,1,2,0:0:0:0:
174,210,68173,1,2,0:0:0:0:
161,186,68235,1,2,0:0:0:0:
52,190,68423,2,0,L|31:78,1,84,2|2,0:0|0:0,0:0:0:0:
149,95,68798,1,2,0:0:0:0:
346,60,68986,5,8,0:0:0:0:
399,120,69173,1,0,0:0:0:0:
381,199,69361,1,2,0:0:0:0:
306,231,69548,1,2,0:0:0:0:
217,143,69736,1,8,0:0:0:0:
163,203,69923,1,0,0:0:0:0:
181,282,70111,1,2,0:0:0:0:
256,314,70298,1,2,0:0:0:0:
352,292,70486,6,0,P|400:246|319:193,1,168,8|2,0:0|0:0,0:0:0:0:
250,176,71048,1,2,0:0:0:0:
159,169,71236,2,0,L|145:59,1,84,8|0,0:0|0:0,0:0:0:0:
245,53,71611,2,0,L|318:-8,1,84,2|2,0:0|0:0,0:0:0:0:
115,249,71986,6,0,L|25:244,2,84,8|0|2,0:0|0:0|0:0,0:0:0:0:
200,255,72548,1,2,0:0:0:0:
292,260,72736,2,0,P|303:209|261:175,1,84,8|0,0:0|0:0,0:0:0:0:
191,149,73111,2,0,P|180:98|222:64,1,84,8|2,0:0|0:0,0:0:0:0:
399,44,73486,5,8,0:0:0:0:
315,89,73642,1,2,0:0:0:0:
301,113,73735,1,0,0:0:0:0:
295,140,73798,1,0,0:0:0:0:
300,168,73861,1,2,0:0:0:0:
313,207,73954,1,2,0:0:0:0:
338,241,74048,1,2,0:0:0:0:
373,263,74142,1,2,0:0:0:0:
414,273,74236,6,0,L|309:284,1,84,2|2,0:0|0:0,0:0:0:0:
217,326,74611,1,2,0:0:0:0:
317,351,74798,1,2,0:0:0:0:
70,353,74986,6,2,P|33:297|116:248,1,168,10|2,0:2|0:2,0:0:0:0:
256,268,75736,2,2,L|67:239,1,168,10|2,0:2|0:2,0:0:0:0:
442,353,76486,6,2,P|479:297|396:248,1,168,10|2,0:2|0:2,0:0:0:0:
256,268,77236,2,2,L|445:239,1,168,10|2,0:2|0:2,0:0:0:0:
71,275,77986,6,2,P|54:182|120:151,1,168,10|2,0:2|0:2,0:0:0:0:
280,128,78736,2,2,L|87:102,1,168,10|2,0:2|0:2,0:0:0:0:
441,275,79486,6,2,P|458:182|392:151,1,168,10|2,0:2|0:2,0:0:0:0:
224,184,80236,2,2,L|417:158,1,168,10|2,0:2|0:2,0:0:0:0:
64,289,80986,6,0,L|57:193,1,84,10|0,0:2|0:0,0:0:0:0:
171,158,81361,2,0,L|266:144,1,84,2|0,0:2|0:0,0:0:0:0:
450,329,81736,2,0,L|457:233,1,84,10|0,0:2|0:0,0:0:0:0:
343,198,82111,2,0,L|248:184,1,84,2|0,0:2|0:0,0:0:0:0:
455,105,82486,5,10,0:2:0:0:
464,186,82673,1,0,0:0:0:0:
416,252,82861,1,2,0:2:0:0:
336,269,83048,1,0,0:0:0:0:
135,270,83236,1,10,0:2:0:0:
93,266,83329,1,0,0:0:0:0:
61,239,83423,1,0,0:0:0:0:
49,200,83517,1,0,0:0:0:0:
62,160,83611,2,0,L|170:146,1,84,2|0,0:2|0:0,0:0:0:0:
415,121,83986,6,0,P|416:192|383:213,1,84,10|0,0:2|0:0,0:0:0:0:
316,266,84361,2,0,L|204:279,1,84,2|0,0:2|0:0,0:0:0:0:
37,201,84736,2,0,P|36:272|69:293,1,84,10|0,0:2|0:0,0:0:0:0:
136,346,85111,2,0,L|248:359,1,84,2|0,0:2|0:0,0:0:0:0:
413,357,85486,6,0,P|436:290|347:247,1,168,10|2,0:2|0:2,0:0:0:0:
270,242,86048,1,0,0:0:0:0:
73,209,86236,2,0,L|253:191,1,168,10|10,0:2|0:2,0:0:0:0:
340,183,86798,1,0,0:0:0:0:
79,53,86986,5,14,0:2:0:0:
256,192,87173,12,0,89611,0:0:0:0:
165,323,92236,5,2,0:2:0:0:
149,208,92611,1,2,0:2:0:0:
331,194,92986,1,2,0:2:0:0:
347,79,93267,1,2,0:2:0:0:
297,83,93361,1,0,0:0:0:0:
268,98,93454,1,2,0:2:0:0:
255,129,93548,1,0,0:0:0:0:
265,160,93642,1,0,0:0:0:0:
292,179,93736,5,2,0:2:0:0:
443,210,94111,1,2,0:2:0:0:
427,325,94486,1,2,0:2:0:0:
153,357,94861,6,0,P|116:299|157:256,1,134.4,2|2,0:2|0:0,0:0:0:0:
413,242,95423,2,0,L|456:243,2,42,0|0|2,0:0|0:0|0:2,0:0:0:0:
324,283,95798,1,2,0:2:0:0:
413,243,95986,1,2,0:2:0:0:
452,230,96079,1,0,0:0:0:0:
473,195,96173,1,0,0:0:0:0:
261,104,96361,5,2,0:2:0:0:
221,91,96454,1,0,0:0:0:0:
200,56,96548,1,2,0:0:0:0:
361,10,96736,2,0,L|350:113,1,84,2|0,0:2|0:0,0:0:0:0:
248,107,97111,1,0,0:0:0:0:
144,123,97298,1,2,0:2:0:0:
448,292,97486,6,0,P|463:225|370:165,1,168,2|2,0:2|0:2,0:0:0:0:
309,182,98048,1,0,0:0:0:0:
223,216,98236,2,0,L|201:134,1,84,2|0,0:2|0:0,0:0:0:0:
308,126,98611,2,0,L|330:44,1,84,2|0,0:2|0:0,0:0:0:0:
239,30,98986,6,0,L|143:41,1,84,2|0,0:2|0:0,0:0:0:0:
350,211,99361,2,0,P|364:270|346:291,1,84,2|0,0:3|0:0,0:0:0:0:
254,323,99736,2,0,L|356:318,1,84,2|0,0:3|0:0,0:0:0:0:
132,358,100111,6,0,P|50:316|75:230,1,168,2|2,0:2|0:2,0:0:0:0:
149,201,100673,1,0,0:0:0:0:
257,159,100861,2,0,L|153:150,1,84,2|0,0:2|0:0,0:0:0:0:
59,69,101236,2,0,L|163:60,1,84,2|0,0:2|0:0,0:0:0:0:
235,140,101611,6,0,L|339:131,1,84,2|0,0:2|0:0,0:0:0:0:
124,308,101986,2,0,P|110:260|137:236,1,84,2|0,0:3|0:0,0:0:0:0:
223,210,102361,2,0,L|108:207,1,84,2|0,0:3|0:0,0:0:0:0:
346,190,102736,6,0,P|410:159|373:60,1,168,2|2,0:2|0:2,0:0:0:0:
298,43,103298,1,0,0:0:0:0:
201,73,103486,2,0,L|186:175,1,84,2|0,0:2|0:0,0:0:0:0:
280,242,103861,2,0,L|382:257,1,84,2|0,0:2|0:0,0:0:0:0:
454,320,104236,6,0,L|352:335,1,84,2|0,0:2|0:0,0:0:0:0:
175,342,104611,2,0,P|154:289|199:262,1,84,2|0,0:3|0:0,0:0:0:0:
265,265,104986,1,2,0:3:0:0:
284,245,105048,1,0,0:0:0:0:
287,218,105111,1,0,0:0:0:0:
273,194,105173,1,0,0:0:0:0:
80,241,105361,5,2,0:2:0:0:
35,173,105548,1,2,0:2:0:0:
64,97,105736,1,2,0:2:0:0:
142,76,105923,1,2,0:2:0:0:
231,311,106111,1,2,0:2:0:0:
275,243,106298,1,2,0:2:0:0:
246,167,106486,1,2,0:2:0:0:
168,146,106673,1,2,0:2:0:0:
52,115,106861,2,0,L|166:112,1,84,2|2,0:2|0:2,0:0:0:0:
335,85,107236,5,2,0:0:0:0:
451,82,107423,1,2,0:2:0:0:
447,123,107516,1,0,0:0:0:0:
426,159,107610,1,2,0:2:0:0:
391,181,107704,1,0,0:0:0:0:
350,185,107798,1,2,0:2:0:0:
101,310,107986,6,0,L|92:254,3,42,2|2|2|10,0:0|0:0|0:0|0:0,0:0:0:0:
242,226,108548,2,0,P|308:194|322:143,1,126,8|8,0:0|0:0,0:0:0:0:
179,118,109111,6,0,P|113:86|99:35,1,126,8|8,0:0|0:0,0:0:0:0:
389,61,109673,2,0,P|418:128|367:154,1,126,8|8,0:0|0:0,0:0:0:0:
246,234,110236,5,8,0:0:0:0:
204,236,110329,1,8,0:0:0:0:
162,239,110423,1,8,0:0:0:0:
415,333,110611,6,0,P|458:282|409:231,1,126,8|8,0:0|0:0,0:0:0:0:
294,175,111173,2,0,L|422:164,1,126,8|8,0:0|0:0,0:0:0:0:
137,350,111736,6,0,P|94:299|143:248,1,126,8|8,0:0|0:0,0:0:0:0:
258,192,112298,2,0,L|130:181,1,126,8|8,0:0|0:0,0:0:0:0:
425,142,112861,1,8,0:0:0:0:
447,109,112954,1,8,0:0:0:0:
423,78,113048,1,8,0:0:0:0:
155,50,113236,6,0,L|-2:39,1,126,8|8,0:0|0:0,0:0:0:0:
169,143,113798,2,0,L|326:132,1,126,8|8,0:0|0:0,0:0:0:0:
57,326,114361,2,0,P|21:277|87:231,1,126,8|8,0:0|0:0,0:0:0:0:
224,200,114923,2,0,L|71:191,1,126,8|8,0:0|0:0,0:0:0:0:
342,93,115486,1,8,0:0:0:0:
383,87,115579,1,8,0:0:0:0:
425,82,115673,1,8,0:0:0:0:
165,296,115861,6,0,P|97:236|199:141,1,252,8|0,0:0|0:0,0:0:0:0:
384,177,116611,2,0,L|395:134,4,42,2|2|2|2|2,0:2|0:2|0:2|0:2|0:0,0:0:0:0:
293,226,117173,1,2,0:2:0:0:
38,205,117361,6,0,P|41:119|125:68,1,189.000007209778,12|12,0:2|0:2,0:0:0:0:
372,300,117923,2,0,P|355:214|268:173,1,189.000007209778,12|12,0:2|0:2,0:0:0:0:
20,217,118486,1,2,0:2:0:0:
458,231,118861,6,0,L|379:153,1,92.4000028198243,10|0,0:0|0:0,0:0:0:0:
298,181,119236,2,0,L|450:163,1,138.600004229736,10|2,0:0|0:0,0:0:0:0:
484,161,119611,2,0,L|363:150,1,92.4000028198243,10|0,0:0|0:0,0:0:0:0:
285,235,119986,2,0,P|232:175|280:141,1,138.600004229736,10|2,0:0|0:0,0:0:0:0:
307,130,120361,6,0,L|417:116,1,92.4000028198243,10|0,0:0|0:0,0:0:0:0:
197,247,120736,2,0,L|87:233,1,92.4000028198243,10|0,0:0|0:0,0:0:0:0:
215,175,121111,1,8,0:0:0:0:
432,156,121298,1,2,0:0:0:0:
471,80,121485,1,10,0:0:0:0:
404,28,121673,1,2,0:0:0:0:
119,360,121861,6,0,L|109:263,1,92.4000028198243,10|0,0:0|0:0,0:0:0:0:
224,256,122236,2,0,L|234:159,1,92.4000028198243,10|0,0:0|0:0,0:0:0:0:
20,230,122611,2,0,L|10:133,1,92.4000028198243,10|2,0:0|0:0,0:0:0:0:
117,110,122986,2,0,L|286:94,1,138.600004229736,10|2,0:0|0:0,0:0:0:0:
208,147,123361,6,0,P|185:190|247:254,1,138.600004229736,10|2,0:0|0:0,0:0:0:0:
284,251,123736,2,0,L|410:258,1,92.4000028198243,10|0,0:0|0:0,0:0:0:0:
164,342,124111,2,0,P|148:274|192:242,1,92.4000028198243,8|0,0:0|0:0,0:0:0:0:
267,229,124486,2,0,L|149:219,1,92.4000028198243,10|0,0:0|0:0,0:0:0:0:
455,203,124861,6,0,L|473:96,1,92.4000028198243,10|0,0:0|0:0,0:0:0:0:
351,89,125236,2,0,L|228:64,1,92.4000028198243,10|0,0:0|0:0,0:0:0:0:
48,151,125611,1,10,0:0:0:0:
33,239,125798,1,2,0:0:0:0:
84,313,125986,1,10,0:0:0:0:
173,330,126173,1,0,0:0:0:0:
373,347,126361,6,0,P|405:289|332:244,1,138.600004229736,10|2,0:0|0:0,0:0:0:0:
308,232,126736,2,0,L|209:242,1,92.4000028198243,10|0,0:0|0:0,0:0:0:0:
308,232,127111,2,0,L|407:242,1,92.4000028198243,8|0,0:0|0:0,0:0:0:0:
490,246,127486,1,10,0:0:0:0:
498,201,127579,1,0,0:0:0:0:
473,164,127673,1,0,0:0:0:0:
193,281,127861,6,0,L|159:169,1,92.4000028198243,10|0,0:0|0:0,0:0:0:0:
276,149,128236,2,0,L|396:130,1,92.4000028198243,10|0,0:0|0:0,0:0:0:0:
155,100,128611,2,0,L|35:81,1,92.4000028198243,10|0,0:0|0:0,0:0:0:0:
38,215,128986,2,0,L|158:196,1,92.4000028198243,10|0,0:0|0:0,0:0:0:0:
415,173,129361,6,0,P|460:113|378:73,1,184.800005639649,14|14,0:0|0:0,0:0:0:0:
128,70,130111,2,0,P|54:103|97:173,1,184.800005639649,12|14,0:0|0:0,0:0:0:0:
191,197,130673,1,2,0:0:0:0:
469,199,130861,6,0,L|450:295,1,92.4000028198243,14|0,0:0|0:0,0:0:0:0:
353,276,131236,2,0,P|342:195|379:179,1,92.4000028198243,10|0,0:0|0:0,0:0:0:0:
467,156,131611,2,0,L|282:147,1,184.800005639649,10|10,0:0|0:0,0:0:0:0:
183,143,132173,1,2,0:0:0:0:
396,287,132361,6,0,L|492:277,1,92.4000028198243,10|0,0:0|0:0,0:0:0:0:
378,210,132736,1,10,0:0:0:0:
99,264,132923,2,0,L|37:264,1,46.2000014099122
106,286,133111,2,0,L|270:285,2,138.600004229736,8|0|2,0:0|0:0|0:0,0:0:0:0:
377,350,133861,6,0,L|478:346,1,92.4000028198243,10|0,0:0|0:0,0:0:0:0:
480,224,134236,2,0,L|379:220,1,92.4000028198243,10|0,0:0|0:0,0:0:0:0:
170,203,134611,1,10,0:0:0:0:
69,187,134798,1,2,0:0:0:0:
170,203,134986,2,0,L|309:216,1,138.600004229736,10|2,0:0|0:0,0:0:0:0:
258,285,135361,6,0,L|119:298,1,138.600004229736,10|2,0:0|0:0,0:0:0:0:
181,334,135736,2,0,L|295:323,1,92.4000028198243,10|0,0:0|0:0,0:0:0:0:
477,306,136111,2,0,P|485:250|445:224,1,92.4000028198243,8|0,0:0|0:0,0:0:0:0:
365,201,136486,2,0,L|208:189,1,138.600004229736,10|0,0:0|0:0,0:0:0:0:
280,132,136861,6,0,L|382:112,1,92.4000028198243,10|0,0:0|0:0,0:0:0:0:
163,322,137236,2,0,L|6:310,1,138.600004229736,10|2,0:0|0:0,0:0:0:0:
78,253,137611,2,0,L|180:233,1,92.4000028198243,10|2,0:0|0:0,0:0:0:0:
345,208,137986,2,0,P|367:146|307:111,1,138.600004229736,10|2,0:0|0:0,0:0:0:0:
262,87,138361,6,0,L|374:76,1,92.4000028198243,10|0,0:0|0:0,0:0:0:0:
161,262,138736,2,0,P|139:200|199:165,1,138.600004229736,10|2,0:0|0:0,0:0:0:0:
244,141,139111,2,0,L|132:130,1,92.4000028198243,10|2,0:0|0:0,0:0:0:0:
353,238,139486,2,0,P|376:193|344:169,1,92.4000028198243,10|0,0:0|0:0,0:0:0:0:
98,189,139861,6,0,P|52:131|101:93,1,138.600004229736,14|0,0:0|0:0,0:0:0:0:
144,69,140236,2,0,L|285:58,1,138.600004229736,10|2,0:0|0:0,0:0:0:0:
228,149,140611,2,0,L|18:136,1,184.800005639649,10|10,0:0|0:0,0:0:0:0:
153,201,141173,1,0,0:0:0:0:
434,210,141361,6,0,P|434:139|333:93,1,184.800005639649,14|10,0:0|0:0,0:0:0:0:
39,112,142111,2,0,L|256:98,1,184.800005639649,10|10,0:0|0:0,0:0:0:0:
327,91,142673,1,0,0:0:0:0:
33,107,142861,5,10,0:0:0:0:
37,155,143048,1,8,0:0:0:0:
41,200,143141,1,2,0:0:0:0:
46,246,143235,1,2,0:0:0:0:
139,302,143423,2,0,L|254:317,1,92.4000028198243,8|2,0:0|0:2,0:0:0:0:
450,211,143798,2,0,L|438:331,1,92.4000028198243,8|2,0:0|0:2,0:0:0:0:
348,358,144173,2,0,L|233:373,1,92.4000028198243,8|2,0:0|0:2,0:0:0:0:
43,328,144548,5,8,0:0:0:0:
31,285,144641,1,8,0:0:0:0:
56,248,144735,1,10,0:2:0:0:
151,206,144923,1,8,0:0:0:0:
196,197,145016,1,8,0:0:0:0:
241,188,145110,1,10,0:2:0:0:
452,137,145298,1,8,0:0:0:0:
477,174,145392,1,8,0:0:0:0:
465,217,145485,1,10,0:2:0:0:
172,329,145673,2,0,L|111:320,1,46.2000014099122,8|8,0:0|0:0,0:0:0:0:
203,302,145861,5,10,0:2:0:0:
248,306,145954,1,8,0:0:0:0:
288,284,146048,1,8,0:0:0:0:
309,244,146142,1,8,0:0:0:0:
303,199,146236,1,10,0:2:0:0:
273,165,146329,1,8,0:0:0:0:
229,154,146423,1,8,0:0:0:0:
24,206,146611,5,10,0:2:0:0:
13,161,146704,1,8,0:0:0:0:
19,115,146798,1,8,0:0:0:0:
41,75,146892,1,8,0:0:0:0:
75,44,146986,1,10,0:2:0:0:
118,27,147079,1,8,0:0:0:0:
164,27,147173,1,8,0:0:0:0:
448,26,147361,5,12,0:0:0:0:
256,192,147548,12,0,151861,0:0:0:0:
