osu file format v14

[General]
AudioFilename: audio.mp3
AudioLeadIn: 0
PreviewTime: 14142
Countdown: 0
SampleSet: Normal
StackLeniency: 0.7
Mode: 2
LetterboxInBreaks: 0
WidescreenStoryboard: 1

[Editor]
DistanceSpacing: 1
BeatDivisor: 4
GridSize: 32
TimelineZoom: 1.8

[Metadata]
Title:conflict
TitleUnicode:conflict
Artist:siromaru + cranky
ArtistUnicode:siromaru + cranky
Creator:Bunnrei
Version:Overdose
Source:osu!
Tags:bms of fighters 2011 bof2011 frenz2011 chunithm cytus dance rail deemo groove coaster maimai muse dash rhythmsia sound voltex superbeat xonic synchronica tapsonic top taiko no tatsujin tone sphere tsumamia! arcaea featured artist harmonic schranz pico electronic
BeatmapID:2055785
BeatmapSetID:981762

[Difficulty]
HPDrainRate:7
CircleSize:4.2
OverallDifficulty:9.5
ApproachRate:9.5
SliderMultiplier:2.28
SliderTickRate:2

[Events]
//Background and Video events
0,0,"abstract-2707939.jpg",0,0
//Break Periods
2,89811,91696
//Storyboard Layer 0 (Background)
//Storyboard Layer 1 (Fail)
//Storyboard Layer 2 (Pass)
//Storyboard Layer 3 (Foreground)
//Storyboard Layer 4 (Overlay)
//Storyboard Sound Samples

[TimingPoints]
2986,375,4,1,98,60,1,0
3079,-100,4,1,99,60,0,0
14236,-100,4,1,1,60,0,0
14611,-100,4,1,2,60,0,0
14986,-90.9090909090909,4,1,3,60,0,0
15361,-90.9090909090909,4,1,4,60,0,0
15642,-90.9090909090909,4,1,5,60,0,0
15736,-90.9090909090909,4,1,6,60,0,0
16111,-90.9090909090909,4,1,7,60,0,0
16298,-90.9090909090909,4,1,8,60,0,0
16392,-90.9090909090909,4,1,9,60,0,0
16486,-90.9090909090909,4,1,10,60,0,0
16767,-90.9090909090909,4,1,11,60,0,0
16861,-90.9090909090909,4,1,12,60,0,0
17423,-90.9090909090909,4,1,13,60,0,0
17611,-90.9090909090909,4,1,14,60,0,0
17798,-90.9090909090909,4,1,15,60,0,0
17986,-90.9090909090909,4,1,16,60,0,0
18361,-90.9090909090909,4,1,17,60,0,0
18642,-90.9090909090909,4,1,18,60,0,0
18736,-90.9090909090909,4,1,19,60,0,0
18923,-90.9090909090909,4,1,20,60,0,0
19111,-90.9090909090909,4,1,21,60,0,0
19392,-90.9090909090909,4,1,22,60,0,0
19486,-90.9090909090909,4,1,23,60,0,0
19767,-90.9090909090909,4,1,24,60,0,0
19861,-90.9090909090909,4,1,25,60,0,0
20611,-90.9090909090909,4,1,26,60,0,0
20986,-90.9090909090909,4,1,27,60,0,0
21361,-90.9090909090909,4,1,28,60,0,0
21642,-90.9090909090909,4,1,29,60,0,0
21736,-90.9090909090909,4,1,30,60,0,0
21923,-90.9090909090909,4,1,31,60,0,0
22111,-90.9090909090909,4,1,32,60,0,0
22392,-90.9090909090909,4,1,33,60,0,0
22486,-90.9090909090909,4,1,34,60,0,0
22767,-90.9090909090909,4,1,35,60,0,0
22861,-90.9090909090909,4,1,36,60,0,0
23611,-90.9090909090909,4,1,37,60,0,0
23986,-90.9090909090909,4,1,38,60,0,0
24361,-90.9090909090909,4,1,39,60,0,0
24642,-90.9090909090909,4,1,40,60,0,0
24736,-90.9090909090909,4,1,41,60,0,0
25111,-90.9090909090909,4,1,42,60,0,0
25392,-90.9090909090909,4,1,43,60,0,0
25486,-66.6666666666667,4,1,44,60,0,0
25767,-66.6666666666667,4,1,45,60,0,0
25861,-66.6666666666667,4,1,46,60,0,0
26236,-83.3333333333333,4,1,46,60,0,0
26423,-83.3333333333333,4,1,47,55,0,0
26517,-83.3333333333333,4,1,47,60,0,0
26611,-83.3333333333333,4,1,48,60,0,0
26798,-83.3333333333333,4,1,49,55,0,0
26892,-83.3333333333333,4,1,49,60,0,0
26986,-90.9090909090909,4,1,3,60,0,0
27361,-90.9090909090909,4,1,4,60,0,0
27642,-90.9090909090909,4,1,5,60,0,0
27736,-90.9090909090909,4,1,6,60,0,0
28111,-90.9090909090909,4,1,7,60,0,0
28298,-90.9090909090909,4,1,8,60,0,0
28392,-90.9090909090909,4,1,9,60,0,0
28486,-90.9090909090909,4,1,10,60,0,0
28767,-90.9090909090909,4,1,11,60,0,0
28861,-90.9090909090909,4,1,12,60,0,0
29423,-90.9090909090909,4,1,13,60,0,0
29611,-90.9090909090909,4,1,14,60,0,0
29798,-90.9090909090909,4,1,15,60,0,0
29986,-90.9090909090909,4,1,50,60,0,0
30361,-90.9090909090909,4,1,51,60,0,0
30642,-90.9090909090909,4,1,52,60,0,0
30736,-90.9090909090909,4,1,53,60,0,0
30923,-90.9090909090909,4,1,54,60,0,0
31111,-90.9090909090909,4,1,55,60,0,0
31392,-90.9090909090909,4,1,56,60,0,0
31486,-90.9090909090909,4,1,57,60,0,0
31767,-90.9090909090909,4,1,58,60,0,0
31861,-90.9090909090909,4,1,59,60,0,0
32611,-90.9090909090909,4,1,60,60,0,0
32986,-90.9090909090909,4,1,61,60,0,0
33361,-90.9090909090909,4,1,62,60,0,0
33642,-90.9090909090909,4,1,63,60,0,0
33736,-90.9090909090909,4,1,64,60,0,0
33923,-90.9090909090909,4,1,65,60,0,0
34111,-90.9090909090909,4,1,66,60,0,0
34392,-90.9090909090909,4,1,67,60,0,0
34486,-90.9090909090909,4,1,68,60,0,0
34861,-90.9090909090909,4,1,69,60,0,0
35142,-90.9090909090909,4,1,70,60,0,0
35236,-90.9090909090909,4,1,71,60,0,0
35423,-90.9090909090909,4,1,72,60,0,0
35611,-90.9090909090909,4,1,73,60,0,0
35892,-90.9090909090909,4,1,74,60,0,0
35986,-90.9090909090909,4,1,75,60,0,0
36361,-90.9090909090909,4,1,76,60,0,0
36642,-90.9090909090909,4,1,77,60,0,0
36736,-90.9090909090909,4,1,78,60,0,0
37111,-90.9090909090909,4,1,79,60,0,0
37392,-90.9090909090909,4,1,80,60,0,0
37486,-90.9090909090909,4,1,81,60,0,0
37767,-90.9090909090909,4,1,82,60,0,0
37861,-90.9090909090909,4,1,83,60,0,0
38236,-90.9090909090909,4,1,99,60,0,0
38986,-100,4,1,99,60,0,0
49673,-100,4,1,99,40,0,0
50986,-100,4,1,99,60,0,0
61486,-66.6666666666667,4,1,99,60,0,0
62986,-133.333333333333,4,2,3,50,0,0
63736,-133.333333333333,4,2,4,50,0,0
64486,-133.333333333333,4,2,5,50,0,0
65236,-133.333333333333,4,2,6,50,0,0
65986,-133.333333333333,4,2,7,50,0,0
66736,-133.333333333333,4,2,8,50,0,0
67486,-133.333333333333,4,2,11,50,0,0
68986,-133.333333333333,4,2,12,50,0,0
69736,-133.333333333333,4,2,13,50,0,0
70486,-133.333333333333,4,2,14,50,0,0
71236,-133.333333333333,4,2,15,50,0,0
71986,-133.333333333333,4,2,16,50,0,0
72736,-133.333333333333,4,2,17,50,0,0
73111,-133.333333333333,4,2,18,50,0,0
73486,-133.333333333333,4,2,19,50,0,0
74986,-117.647058823529,4,1,20,51,0,0
75736,-117.647058823529,4,1,21,52,0,0
76486,-117.647058823529,4,1,22,53,0,0
77236,-117.647058823529,4,1,23,54,0,0
77986,-117.647058823529,4,1,24,55,0,0
78736,-117.647058823529,4,1,25,56,0,0
79486,-117.647058823529,4,1,26,57,0,0
80236,-117.647058823529,4,1,27,58,0,0
80986,-100,4,1,28,60,0,0
81736,-100,4,1,29,60,0,0
82486,-100,4,1,30,60,0,0
83236,-100,4,1,31,60,0,0
83986,-100,4,1,32,60,0,0
84736,-100,4,1,33,60,0,0
85486,-100,4,1,34,60,0,0
86236,-100,4,1,35,60,0,0
86611,-100,4,1,36,60,0,0
86986,375,7,1,37,60,1,0
86986,-100,7,1,37,60,0,0
87173,-100,7,1,37,40,0,0
89611,-100,7,1,37,30,0,0
92236,-125,7,1,99,40,0,0
95236,-40,7,1,99,40,0,0
95423,-100,7,1,99,40,0,0
96548,-40,7,1,99,40,0,0
96736,-100,7,1,99,40,0,0
97486,-125,7,1,99,50,0,0
107236,-40,7,1,99,50,0,0
107423,-100,7,1,99,50,0,0
108548,-100,7,1,99,35,0,0
110611,-100,7,1,99,42,0,0
111736,-100,7,1,99,49,0,0
113236,-100,7,1,99,55,0,0
115861,375,4,1,99,60,1,0
115907,-100,4,1,99,56,0,0
115954,-100,4,1,99,52,0,0
116001,-100,4,1,99,48,0,0
116048,-100,4,1,99,44,0,0
116095,-100,4,1,99,40,0,0
116142,-100,4,1,99,36,0,0
116189,-100,4,1,99,34,0,0
116236,-100,4,1,99,40,0,0
117173,-100,4,1,99,50,0,0
117361,-66.6666666666667,4,1,99,60,0,0
118861,375,4,1,3,60,1,0
118861,-83.3333333333333,4,1,3,60,0,0
119236,-83.3333333333333,4,1,4,60,0,0
119517,-83.3333333333333,4,1,5,60,0,0
119611,-83.3333333333333,4,1,6,60,0,0
119986,-83.3333333333333,4,1,7,60,0,0
120173,-83.3333333333333,4,1,8,60,0,0
120267,-83.3333333333333,4,1,9,60,0,0
120361,-83.3333333333333,4,1,10,60,0,0
120642,-83.3333333333333,4,1,11,60,0,0
120736,-83.3333333333333,4,1,12,60,0,0
121298,-83.3333333333333,4,1,13,60,0,0
121486,-83.3333333333333,4,1,14,60,0,0
121673,-83.3333333333333,4,1,15,60,0,0
121861,-83.3333333333333,4,1,16,60,0,0
122236,-83.3333333333333,4,1,17,60,0,0
122517,-83.3333333333333,4,1,18,60,0,0
122611,-83.3333333333333,4,1,19,60,0,0
122798,-83.3333333333333,4,1,20,60,0,0
122986,-83.3333333333333,4,1,21,60,0,0
123267,-83.3333333333333,4,1,22,60,0,0
123361,-83.3333333333333,4,1,23,60,0,0
123642,-83.3333333333333,4,1,24,60,0,0
123736,-83.3333333333333,4,1,25,60,0,0
124486,-83.3333333333333,4,1,26,60,0,0
124861,-83.3333333333333,4,1,27,60,0,0
125236,-83.3333333333333,4,1,28,60,0,0
125517,-83.3333333333333,4,1,29,60,0,0
125611,-83.3333333333333,4,1,30,60,0,0
125798,-83.3333333333333,4,1,31,60,0,0
125986,-83.3333333333333,4,1,32,60,0,0
126267,-83.3333333333333,4,1,33,60,0,0
126361,-83.3333333333333,4,1,34,60,0,0
126642,-83.3333333333333,4,1,35,60,0,0
126736,-83.3333333333333,4,1,36,60,0,0
127486,-83.3333333333333,4,1,37,60,0,0
127861,-83.3333333333333,4,1,38,60,0,0
128236,-83.3333333333333,4,1,39,60,0,0
128517,-83.3333333333333,4,1,40,60,0,0
128611,-83.3333333333333,4,1,41,60,0,0
128986,-83.3333333333333,4,1,42,60,0,0
129267,-83.3333333333333,4,1,43,60,0,0
129361,-66.6666666666667,4,1,44,60,0,0
129642,-66.6666666666667,4,1,45,60,0,0
129736,-66.6666666666667,4,1,46,60,0,0
130111,-83.3333333333333,4,1,46,60,0,0
130298,-83.3333333333333,4,1,47,55,0,0
130392,-83.3333333333333,4,1,47,60,0,0
130486,-83.3333333333333,4,1,48,60,0,0
130673,-83.3333333333333,4,1,49,55,0,0
130767,-83.3333333333333,4,1,49,60,0,0
130861,-83.3333333333333,4,1,3,60,0,0
131236,-83.3333333333333,4,1,4,60,0,0
131517,-83.3333333333333,4,1,5,60,0,0
131611,-83.3333333333333,4,1,6,60,0,0
131986,-83.3333333333333,4,1,7,60,0,0
132173,-83.3333333333333,4,1,8,60,0,0
132267,-83.3333333333333,4,1,9,60,0,0
132361,-83.3333333333333,4,1,10,60,0,0
132642,-83.3333333333333,4,1,11,60,0,0
132736,-83.3333333333333,4,1,12,60,0,0
133298,-83.3333333333333,4,1,13,60,0,0
133486,-83.3333333333333,4,1,14,60,0,0
133673,-83.3333333333333,4,1,15,60,0,0
133861,-83.3333333333333,4,1,50,60,0,0
134236,-83.3333333333333,4,1,51,60,0,0
134517,-83.3333333333333,4,1,52,60,0,0
134611,-83.3333333333333,4,1,53,60,0,0
134798,-83.3333333333333,4,1,54,60,0,0
134986,-83.3333333333333,4,1,55,60,0,0
135267,-83.3333333333333,4,1,56,60,0,0
135361,-83.3333333333333,4,1,57,60,0,0
135642,-83.3333333333333,4,1,58,60,0,0
135736,-83.3333333333333,4,1,59,60,0,0
136486,-83.3333333333333,4,1,60,60,0,0
136861,-83.3333333333333,4,1,61,60,0,0
137236,-83.3333333333333,4,1,62,60,0,0
137517,-83.3333333333333,4,1,63,60,0,0
137611,-83.3333333333333,4,1,64,60,0,0
137798,-83.3333333333333,4,1,65,60,0,0
137986,-83.3333333333333,4,1,66,60,0,0
138267,-83.3333333333333,4,1,67,60,0,0
138361,-83.3333333333333,4,1,68,60,0,0
138736,-83.3333333333333,4,1,69,60,0,0
139017,-83.3333333333333,4,1,70,60,0,0
139111,-83.3333333333333,4,1,71,60,0,0
139298,-83.3333333333333,4,1,72,60,0,0
139486,-83.3333333333333,4,1,73,60,0,0
139767,-83.3333333333333,4,1,74,60,0,0
139861,-83.3333333333333,4,1,75,60,0,0
140236,-83.3333333333333,4,1,76,60,0,0
140517,-83.3333333333333,4,1,77,60,0,0
140611,-83.3333333333333,4,1,78,60,0,0
140986,-83.3333333333333,4,1,79,60,0,0
141267,-83.3333333333333,4,1,80,60,0,0
141361,-83.3333333333333,4,1,84,60,0,0
141736,-83.3333333333333,4,1,85,60,0,0
142017,-83.3333333333333,4,1,86,60,0,0
142111,-83.3333333333333,4,1,87,60,0,0
142486,-83.3333333333333,4,1,88,60,0,0
142767,-83.3333333333333,4,1,89,60,0,0
142861,-83.3333333333333,4,1,90,60,0,0
143142,-100,4,1,91,60,0,0
143236,-100,4,1,92,60,0,0
143423,-83.3333333333333,4,1,99,60,0,0
147361,-100,4,1,98,60,0,0
147454,-100,4,1,97,40,0,0
148861,-100,4,1,97,30,0,0
149236,-100,4,1,97,20,0,0
149611,-100,4,1,97,10,0,0
150361,-100,4,1,97,5,0,0

[Colours]
Combo1 : 128,128,128
Combo2 : 128,0,0

[HitObjects]
322,222,2986,6,0,L|464:207,1,114,12|0,0:0|0:0,0:0:0:0:
501,179,3267,1,0,0:0:0:0:
435,210,3361,2,0,L|293:195,1,114,8|0,0:0|0:0,0:0:0:0:
256,167,3642,1,0,0:0:0:0:
322,222,3736,6,0,L|464:207,1,114,8|0,0:0|0:0,0:0:0:0:
501,179,4017,1,0,0:0:0:0:
435,210,4111,2,0,L|293:195,1,114,8|0,0:0|0:0,0:0:0:0:
256,167,4392,1,0,0:0:0:0:
322,222,4486,6,0,L|464:207,1,114,8|0,0:0|0:0,0:0:0:0:
501,179,4767,1,0,0:0:0:0:
435,210,4861,2,0,L|293:195,1,114,8|0,0:0|0:0,0:0:0:0:
256,167,5142,1,0,0:0:0:0:
322,222,5236,6,0,L|464:207,1,114,8|0,0:0|0:0,0:0:0:0:
501,179,5517,1,0,0:0:0:0:
435,210,5611,2,0,L|293:195,1,114,8|0,0:0|0:0,0:0:0:0:
256,167,5892,1,0,0:0:0:0:
190,222,5986,6,0,L|48:207,1,114,8|0,0:0|0:0,0:0:0:0:
11,179,6267,1,0,0:0:0:0:
77,210,6361,2,0,L|219:195,1,114,8|0,0:0|0:0,0:0:0:0:
256,167,6642,1,0,0:0:0:0:
190,222,6736,6,0,L|48:207,1,114,8|0,0:0|0:0,0:0:0:0:
11,179,7017,1,0,0:0:0:0:
77,210,7111,2,0,L|219:195,1,114,8|0,0:0|0:0,0:0:0:0:
256,167,7392,1,0,0:0:0:0:
190,222,7486,6,0,L|48:207,1,114,8|0,0:0|0:0,0:0:0:0:
11,179,7767,1,0,0:0:0:0:
77,210,7861,2,0,L|219:195,1,114,8|0,0:0|0:0,0:0:0:0:
256,167,8142,1,0,0:0:0:0:
190,222,8236,6,0,L|48:207,1,114,8|0,0:0|0:0,0:0:0:0:
11,179,8517,1,0,0:0:0:0:
76,210,8611,2,0,L|167:197,1,57,8|8,0:0|0:0,0:0:0:0:
309,200,8798,2,0,L|365:208,1,57,8|8,0:0|0:0,0:0:0:0:
173,328,8986,6,0,P|143:275|184:234,1,114,10|0,0:2|0:0,0:0:0:0:
256,222,9267,1,0,0:0:0:0:
341,198,9361,2,0,L|174:184,1,114,10|0,0:2|0:0,0:0:0:0:
284,230,9642,1,0,0:0:0:0:
339,328,9736,6,0,P|369:275|328:234,1,114,10|0,0:2|0:0,0:0:0:0:
256,222,10017,1,0,0:0:0:0:
171,198,10111,2,0,L|338:184,1,114,10|0,0:2|0:0,0:0:0:0:
228,230,10392,1,0,0:0:0:0:
173,328,10486,6,0,P|143:275|184:234,1,114,10|0,0:2|0:0,0:0:0:0:
256,222,10767,1,0,0:0:0:0:
341,198,10861,2,0,L|174:184,1,114,10|0,0:2|0:0,0:0:0:0:
284,230,11142,1,0,0:0:0:0:
339,328,11236,6,0,P|369:275|328:234,1,114,10|0,0:2|0:0,0:0:0:0:
256,222,11517,1,0,0:0:0:0:
171,198,11611,2,0,L|338:184,1,114,10|0,0:2|0:0,0:0:0:0:
228,230,11892,1,0,0:0:0:0:
173,328,11986,6,0,P|143:275|184:234,1,114,10|0,0:2|0:0,0:0:0:0:
256,190,12267,1,0,0:0:0:0:
341,191,12361,2,0,L|454:192,1,114,10|0,0:2|0:0,0:0:0:0:
367,242,12642,1,0,0:0:0:0:
279,271,12736,6,0,L|165:272,1,114,10|0,0:2|0:0,0:0:0:0:
253,322,13017,1,0,0:0:0:0:
338,336,13111,2,0,P|377:280|329:235,1,114,10|0,0:2|0:0,0:0:0:0:
271,237,13392,1,0,0:0:0:0:
100,222,13486,6,0,L|23:217,2,57,14|0|0,0:2|0:0|0:0,0:0:0:0:
262,133,13861,2,0,L|339:128,2,57,14|0|0,0:2|0:0|0:0,0:0:0:0:
426,275,14236,2,0,L|503:270,2,57,14|8|8,0:0|0:0|0:0,0:0:0:0:
257,325,14611,2,0,L|154:316,1,57,14|8,0:0|0:0,0:0:0:0:
411,211,14798,2,0,L|485:221,1,57,8|8,0:0|0:0,0:0:0:0:
251,131,14986,6,0,L|118:117,1,125.400003826904,14|0,0:0|0:0,0:0:0:0:
194,169,15267,1,0,0:0:0:0:
269,192,15361,1,10,0:0:0:0:
300,243,15454,1,0,0:0:0:0:
279,299,15548,1,0,0:0:0:0:
221,317,15642,1,2,0:0:0:0:
52,336,15736,6,0,L|36:210,1,125.400003826904,10|0,0:0|0:0,0:0:0:0:
112,193,16017,1,0,0:0:0:0:
189,183,16111,2,0,L|263:177,2,62.7000019134522,10|0|2,0:0|0:0|0:0,0:0:0:0:
112,193,16392,1,2,0:0:0:0:
303,337,16486,6,0,P|315:269|277:232,1,125.400003826904,10|0,0:0|0:0,0:0:0:0:
194,220,16767,1,2,0:0:0:0:
277,203,16861,1,10,0:0:0:0:
337,198,16954,1,0,0:0:0:0:
377,152,17048,1,0,0:0:0:0:
371,91,17142,1,0,0:0:0:0:
287,66,17236,6,0,L|274:151,1,62.7000019134522,8|0,0:0|0:0,0:0:0:0:
357,172,17423,2,0,L|344:257,1,62.7000019134522,2|0,0:0|0:0,0:0:0:0:
267,277,17611,2,0,L|187:285,1,62.7000019134522,10|0,0:0|0:0,0:0:0:0:
385,344,17798,2,0,L|465:352,1,62.7000019134522,2|0,0:0|0:0,0:0:0:0:
267,353,17986,6,0,P|237:287|288:242,1,125.400003826904,10|0,0:0|0:0,0:0:0:0:
344,236,18267,1,0,0:0:0:0:
415,215,18361,2,0,L|247:199,1,125.400003826904,10|0,0:0|0:0,0:0:0:0:
217,192,18642,1,2,0:0:0:0:
422,186,18736,6,0,P|452:120|401:75,1,125.400003826904,10|2,0:0|0:0,0:0:0:0:
345,69,19017,1,0,0:0:0:0:
274,48,19111,2,0,L|442:32,1,125.400003826904,10|0,0:0|0:0,0:0:0:0:
472,25,19392,1,2,0:0:0:0:
298,266,19486,6,0,L|153:258,1,125.400003826904,10|0,0:0|0:0,0:0:0:0:
245,221,19767,1,2,0:0:0:0:
145,208,19861,1,10,0:0:0:0:
86,198,19954,1,0,0:0:0:0:
75,140,20048,1,0,0:0:0:0:
126,110,20142,1,0,0:0:0:0:
302,187,20236,6,0,P|334:129|296:88,1,125.400003826904,8|0,0:0|0:0,0:0:0:0:
235,80,20517,1,0,0:0:0:0:
157,50,20611,2,0,L|234:40,1,62.7000019134522,10|0,0:0|0:0,0:0:0:0:
300,89,20798,2,0,L|377:79,1,62.7000019134522,0|0,0:0|0:0,0:0:0:0:
174,301,20986,6,0,P|148:240|192:211,1,125.400003826904,10|0,0:0|0:0,0:0:0:0:
266,211,21267,1,0,0:0:0:0:
349,255,21361,2,0,P|375:194|331:165,1,125.400003826904,10|0,0:0|0:0,0:0:0:0:
257,165,21642,1,2,0:0:0:0:
96,233,21736,6,0,L|86:148,1,62.7000019134522,10|0,0:0|0:0,0:0:0:0:
288,105,21923,2,0,L|298:20,1,62.7000019134522,2|0,0:0|0:0,0:0:0:0:
106,37,22111,2,0,L|261:32,1,125.400003826904,10|0,0:0|0:0,0:0:0:0:
304,29,22392,1,2,0:0:0:0:
143,163,22486,6,0,P|105:215|162:272,1,125.400003826904,10|0,0:0|0:0,0:0:0:0:
201,286,22767,1,2,0:0:0:0:
274,296,22861,1,10,0:0:0:0:
212,307,22954,1,0,0:0:0:0:
150,318,23048,1,0,0:0:0:0:
89,330,23142,1,0,0:0:0:0:
294,356,23236,6,0,L|313:287,1,62.7000019134522,8|0,0:0|0:0,0:0:0:0:
210,282,23423,2,0,L|191:213,1,62.7000019134522,0|0,0:0|0:0,0:0:0:0:
289,189,23611,1,10,0:0:0:0:
349,186,23704,1,0,0:0:0:0:
388,140,23798,1,0,0:0:0:0:
379,80,23892,1,0,0:0:0:0:
220,88,23986,6,0,L|97:94,1,62.7000019134522,10|0,0:0|0:0,0:0:0:0:
240,152,24173,2,0,L|363:158,1,62.7000019134522,0|0,0:0|0:0,0:0:0:0:
98,203,24361,6,0,L|-25:209,1,62.7000019134522,10|0,0:0|0:0,0:0:0:0:
118,267,24548,2,0,L|241:273,1,62.7000019134522,0|2,0:0|0:0,0:0:0:0:
380,322,24736,5,10,0:0:0:0:
409,269,24829,1,0,0:0:0:0:
386,212,24923,1,0,0:0:0:0:
328,195,25017,1,0,0:0:0:0:
132,322,25111,5,10,0:0:0:0:
103,269,25204,1,0,0:0:0:0:
126,212,25298,1,0,0:0:0:0:
184,195,25392,1,2,0:0:0:0:
369,200,25486,6,0,P|436:147|330:42,1,256.500009784699,14|2,0:0|0:0,0:0:0:0:
161,37,25861,6,0,P|71:109|143:200,1,256.500009784699,14|0,0:0|0:0,0:0:0:0:
324,253,26236,6,0,P|407:215|388:109,1,205.199993737793,12|0,0:0|0:0,0:0:0:0:
188,253,26611,6,0,P|105:215|124:109,1,205.199993737793,14|0,0:0|0:0,0:0:0:0:
352,63,26986,6,0,L|213:49,1,125.400003826904,14|0,0:0|0:0,0:0:0:0:
302,108,27267,1,0,0:0:0:0:
216,145,27361,1,10,0:0:0:0:
158,158,27454,1,0,0:0:0:0:
150,216,27548,1,0,0:0:0:0:
201,245,27642,1,2,0:0:0:0:
356,269,27736,6,0,P|379:202|315:172,1,125.400003826904,10|0,0:0|0:0,0:0:0:0:
271,154,28017,1,0,0:0:0:0:
199,140,28111,2,0,L|119:128,1,62.7000019134522,10|0,0:0|0:0,0:0:0:0:
222,57,28298,2,0,L|302:45,1,62.7000019134522,2|2,0:0|0:0,0:0:0:0:
47,88,28486,6,0,P|24:153|82:193,1,125.400003826904,10|0,0:0|0:0,0:0:0:0:
138,202,28767,1,2,0:0:0:0:
218,203,28861,2,0,L|232:136,1,62.7000019134522,10|0,0:0|0:0,0:0:0:0:
140,98,29048,2,0,L|127:159,1,62.7000019134522,0|0,0:0|0:0,0:0:0:0:
299,76,29236,6,0,L|392:78,1,62.7000019134522,8|0,0:0|0:0,0:0:0:0:
443,153,29423,2,0,L|457:86,1,62.7000019134522,2|0,0:0|0:0,0:0:0:0:
252,271,29611,2,0,L|155:268,1,62.7000019134522,10|0,0:0|0:0,0:0:0:0:
386,306,29798,2,0,L|400:239,1,62.7000019134522,2|0,0:0|0:0,0:0:0:0:
212,212,29986,6,0,L|73:206,1,125.400003826904,10|0,0:0|0:0,0:0:0:0:
165,171,30267,1,0,0:0:0:0:
257,122,30361,2,0,L|396:116,1,125.400003826904,10|0,0:0|0:0,0:0:0:0:
304,81,30642,1,2,0:0:0:0:
114,61,30736,6,0,L|186:53,1,62.7000019134522,10|0,0:0|0:0,0:0:0:0:
382,116,30923,2,0,L|310:108,1,62.7000019134522,2|0,0:0|0:0,0:0:0:0:
132,225,31111,2,0,P|98:161|144:123,1,125.400003826904,10|0,0:0|0:0,0:0:0:0:
212,123,31392,1,2,0:0:0:0:
385,217,31486,6,0,P|427:156|368:121,1,125.400003826904,10|0,0:0|0:0,0:0:0:0:
330,117,31767,1,2,0:0:0:0:
252,183,31861,2,0,L|244:116,1,62.7000019134522,10|0,0:0|0:0,0:0:0:0:
327,254,32048,2,0,L|335:187,1,62.7000019134522,0|0,0:0|0:0,0:0:0:0:
138,210,32236,5,8,0:0:0:0:
98,165,32329,1,0,0:0:0:0:
118,109,32423,1,0,0:0:0:0:
177,100,32517,1,0,0:0:0:0:
271,102,32611,2,0,L|292:29,1,62.7000019134522,10|0,0:0|0:0,0:0:0:0:
193,194,32798,2,0,L|172:121,1,62.7000019134522,0|0,0:0|0:0,0:0:0:0:
338,218,32986,6,0,L|471:175,1,125.400003826904,10|0,0:0|0:0,0:0:0:0:
377,156,33267,1,0,0:0:0:0:
300,152,33361,2,0,P|271:94|313:62,1,125.400003826904,10|0,0:0|0:0,0:0:0:0:
389,76,33642,1,2,0:0:0:0:
196,276,33736,6,0,L|373:271,1,125.400003826904,10|2,0:0|0:0,0:0:0:0:
242,232,34017,1,0,0:0:0:0:
157,210,34111,2,0,P|130:145|173:95,1,125.400003826904,10|0,0:0|0:0,0:0:0:0:
235,100,34392,1,2,0:0:0:0:
46,218,34486,6,0,L|31:82,1,125.400003826904,10|0,0:0|0:0,0:0:0:0:
113,82,34767,1,0,0:0:0:0:
193,58,34861,2,0,L|28:43,1,125.400003826904,10|0,0:0|0:0,0:0:0:0:
143,117,35142,1,2,0:0:0:0:
344,206,35236,6,0,L|509:191,1,125.400003826904,10|2,0:0|0:0,0:0:0:0:
394,265,35517,1,0,0:0:0:0:
320,292,35611,2,0,P|287:231|325:205,1,125.400003826904,10|0,0:0|0:0,0:0:0:0:
396,200,35892,1,2,0:0:0:0:
187,327,35986,6,0,L|57:317,1,125.400003826904,10|0,0:0|0:0,0:0:0:0:
149,258,36267,1,0,0:0:0:0:
340,116,36361,2,0,L|470:106,1,125.400003826904,10|0,0:0|0:0,0:0:0:0:
378,47,36642,1,2,0:0:0:0:
191,162,36736,6,0,P|158:93|210:54,1,125.400003826904,10|0,0:0|0:0,0:0:0:0:
274,57,37017,1,0,0:0:0:0:
72,103,37111,2,0,L|202:98,1,125.400003826904,10|0,0:0|0:0,0:0:0:0:
274,57,37392,1,2,0:0:0:0:
96,166,37486,6,0,L|27:162,1,62.7000019134522,10|0,0:0|0:0,0:0:0:0:
125,105,37673,2,0,L|194:101,1,62.7000019134522,0|2,0:0|0:0,0:0:0:0:
405,303,37861,6,0,L|474:299,1,62.7000019134522,10|0,0:0|0:0,0:0:0:0:
376,242,38048,2,0,L|307:238,1,62.7000019134522,0|0,0:0|0:0,0:0:0:0:
140,242,38236,6,0,L|117:161,1,62.7000019134522,2|0,0:2|0:0,0:0:0:0:
292,136,38423,2,0,L|315:55,1,62.7000019134522,2|0,0:2|0:0,0:0:0:0:
126,96,38611,5,2,0:2:0:0:
85,139,38704,1,0,0:0:0:0:
98,198,38798,1,0,0:0:0:0:
154,220,38892,1,0,0:0:0:0:
365,221,38986,6,0,P|443:184|397:88,1,171,10|0,0:2|0:0,0:0:0:0:
352,101,39361,1,10,0:2:0:0:
18,168,39548,2,0,L|141:157,1,114,0|10,0:0|0:2,0:0:0:0:
302,149,39829,2,0,L|285:87,1,57,0|0,0:0|0:0,0:0:0:0:
115,286,40111,6,0,L|238:275,1,114,10|0,0:2|0:0,0:0:0:0:
399,267,40392,2,0,L|382:205,1,57,0|10,0:0|0:2,0:0:0:0:
212,365,40673,2,0,L|335:354,1,114,0|10,0:0|0:2,0:0:0:0:
496,346,40954,2,0,L|479:284,1,57,0|0,0:0|0:0,0:0:0:0:
307,172,41236,6,0,L|324:110,1,57,10|0,0:2|0:0,0:0:0:0:
478,247,41423,2,0,L|461:185,1,57,0|0,0:0|0:0,0:0:0:0:
289,204,41611,2,0,L|425:187,1,114,10|0,0:2|0:0,0:0:0:0:
147,221,41986,6,0,P|69:184|115:88,1,171,10|0,0:2|0:0,0:0:0:0:
160,101,42361,1,10,0:2:0:0:
494,168,42548,2,0,L|371:157,1,114,0|10,0:0|0:2,0:0:0:0:
210,149,42829,2,0,L|227:87,1,57,0|0,0:0|0:0,0:0:0:0:
397,286,43111,6,0,L|274:275,1,114,10|0,0:2|0:0,0:0:0:0:
113,267,43392,2,0,L|130:205,1,57,0|10,0:0|0:2,0:0:0:0:
300,365,43673,2,0,L|177:354,1,114,0|10,0:0|0:2,0:0:0:0:
16,346,43954,2,0,L|33:284,1,57,0|0,0:0|0:0,0:0:0:0:
320,163,44236,5,10,0:2:0:0:
252,162,44329,1,8,0:0:0:0:
184,160,44423,1,8,0:0:0:0:
460,356,44611,2,8,L|477:294,1,57,10|8,0:2|0:0,0:0:0:0:
289,264,44798,2,8,L|272:202,1,57,8|8,0:0|0:0,0:0:0:0:
470,119,44986,6,0,L|263:115,1,171,10|0,0:2|0:0,0:0:0:0:
364,165,45361,1,10,0:2:0:0:
105,243,45548,2,0,L|268:227,1,114,0|10,0:0|0:2,0:0:0:0:
382,170,45829,2,0,L|292:172,1,57,0|0,0:0|0:0,0:0:0:0:
162,288,46111,6,0,L|325:272,1,114,10|0,0:2|0:0,0:0:0:0:
439,215,46392,2,0,L|349:217,1,57,0|10,0:0|0:2,0:0:0:0:
220,351,46673,2,0,L|383:335,1,114,0|10,0:0|0:2,0:0:0:0:
497,278,46954,2,0,L|407:280,1,57,0|0,0:0|0:0,0:0:0:0:
278,107,47236,6,0,L|368:109,1,57,10|0,0:2|0:0,0:0:0:0:
410,113,47423,1,0,0:0:0:0:
243,75,47611,2,0,L|364:77,1,114,10|0,0:2|0:0,0:0:0:0:
42,119,47986,6,0,L|249:115,1,171,10|0,0:2|0:0,0:0:0:0:
148,165,48361,1,10,0:2:0:0:
407,243,48548,2,0,L|244:227,1,114,0|10,0:0|0:2,0:0:0:0:
130,170,48829,2,0,L|220:172,1,57,0|0,0:0|0:0,0:0:0:0:
350,288,49111,6,0,L|187:272,1,114,10|0,0:2|0:0,0:0:0:0:
73,215,49392,2,0,L|163:217,1,57,0|10,0:0|0:0,0:0:0:0:
412,338,49673,6,0,P|444:289|406:257,1,114,2|0,0:2|0:0,0:0:0:0:
292,227,50048,2,0,L|374:206,1,57,2|0,0:2|0:0,0:0:0:0:
425,189,50236,6,0,L|300:165,1,114,0|2,0:0|0:2,0:0:0:0:
491,166,50611,2,0,L|467:109,1,57,0|0,0:0|0:0,0:0:0:0:
382,76,50798,2,0,L|438:81,1,57,2|0,0:2|0:0,0:0:0:0:
253,309,50986,6,0,L|57:300,1,171,10|0,0:2|0:0,0:0:0:0:
25,297,51361,1,10,0:2:0:0:
274,157,51548,2,0,L|426:160,1,114,0|10,0:0|0:2,0:0:0:0:
202,236,51829,2,0,L|124:229,1,57,0|0,0:0|0:0,0:0:0:0:
311,230,52111,6,0,L|463:233,1,114,10|0,0:2|0:0,0:0:0:0:
239,309,52392,2,0,L|161:302,1,57,0|10,0:0|0:2,0:0:0:0:
347,293,52673,2,0,L|499:296,1,114,0|10,0:0|0:2,0:0:0:0:
275,372,52954,2,0,L|197:365,1,57,0|0,0:0|0:0,0:0:0:0:
375,246,53236,6,0,L|453:239,1,57,10|0,0:2|0:0,0:0:0:0:
250,315,53423,2,0,L|172:308,1,57,0|0,0:0|0:0,0:0:0:0:
361,332,53611,2,0,L|496:327,1,114,10|0,0:2|0:0,0:0:0:0:
481,272,53892,1,0,0:0:0:0:
259,309,53986,6,0,L|455:300,1,171,10|0,0:2|0:0,0:0:0:0:
487,298,54361,1,10,0:2:0:0:
238,157,54548,2,0,L|86:160,1,114,0|10,0:0|0:2,0:0:0:0:
310,236,54829,2,0,L|388:229,1,57,0|0,0:0|0:0,0:0:0:0:
201,230,55111,6,0,L|49:233,1,114,10|0,0:2|0:0,0:0:0:0:
273,309,55392,2,0,L|351:302,1,57,0|10,0:0|0:2,0:0:0:0:
165,293,55673,2,0,L|13:296,1,114,2|10,0:2|0:2,0:0:0:0:
256,384,55954,2,0,L|334:377,1,57,0|2,0:0|0:2,0:0:0:0:
67,209,56236,6,0,L|-11:202,1,57,10|0,0:2|0:0,0:0:0:0:
164,111,56423,2,0,L|310:95,2,114,2|10|2,0:2|0:2|0:2,0:0:0:0:
449,293,56986,6,0,P|499:249|405:212,1,171,10|0,0:2|0:0,0:0:0:0:
362,194,57361,1,10,0:2:0:0:
114,191,57548,2,0,P|72:142|119:121,1,114,0|10,0:0|0:2,0:0:0:0:
285,88,57829,2,0,L|191:92,1,57,0|0,0:0|0:0,0:0:0:0:
78,244,58111,6,0,P|36:195|83:174,1,114,10|0,0:2|0:0,0:0:0:0:
249,141,58392,2,0,L|155:145,1,57,0|10,0:0|0:2,0:0:0:0:
42,281,58673,2,0,P|0:232|47:211,1,114,0|10,0:0|0:2,0:0:0:0:
213,178,58954,2,0,L|119:182,1,57,0|0,0:0|0:0,0:0:0:0:
329,297,59236,6,0,L|423:301,1,57,10|0,0:2|0:0,0:0:0:0:
213,178,59423,2,0,L|231:231,1,57,0|0,0:0|0:0,0:0:0:0:
442,136,59611,2,0,L|304:126,1,114,10|0,0:2|0:0,0:0:0:0:
77,190,59986,5,10,0:2:0:0:
133,180,60079,1,8,0:0:0:0:
189,170,60173,1,8,0:0:0:0:
475,98,60361,1,10,0:2:0:0:
419,88,60454,1,8,0:0:0:0:
363,78,60548,1,8,0:0:0:0:
114,279,60736,6,0,L|16:274,1,57,10|8,0:2|0:0,0:0:0:0:
136,223,60923,2,0,L|234:218,1,57,8|8,0:0|0:0,0:0:0:0:
360,216,61111,2,0,L|388:120,1,57,10|8,0:2|0:0,0:0:0:0:
197,77,61298,2,0,L|295:72,1,57,8|8,0:0|0:0,0:0:0:0:
443,122,61486,6,0,L|263:135,1,171.000006523133,12|0,0:2|0:0,0:0:0:0:
381,175,61767,2,0,P|413:264|341:299,1,171.000006523133,12|0,0:2|0:0,0:0:0:0:
133,178,62048,6,0,L|313:191,1,171.000006523133,12|0,0:2|0:0,0:0:0:0:
195,231,62329,2,0,P|163:320|235:355,1,171.000006523133,12|0,0:2|0:0,0:0:0:0:
430,355,62611,5,12,0:2:0:0:
452,319,62657,1,8,0:0:0:0:
462,277,62704,1,8,0:0:0:0:
459,235,62751,1,8,0:0:0:0:
442,196,62798,1,8,0:0:0:0:
413,164,62845,1,8,0:0:0:0:
376,144,62892,1,8,0:0:0:0:
334,136,62939,1,8,0:0:0:0:
168,147,62986,6,0,L|349:105,1,171.000006523133,8|0,0:0|0:0,0:0:0:0:
227,64,63548,1,2,0:0:0:0:
111,165,63736,2,0,P|76:238|152:285,1,171.000006523133,8|0,0:0|0:0,0:0:0:0:
251,301,64298,1,2,0:0:0:0:
400,278,64486,6,0,L|192:264,1,171.000006523133,8|0,0:0|0:0,0:0:0:0:
107,248,65048,1,2,0:0:0:0:
226,237,65236,2,0,P|279:189|229:114,1,171.000006523133,8|2,0:0|0:0,0:0:0:0:
117,134,65798,1,0,0:0:0:0:
268,178,65986,6,0,L|456:155,1,171.000006523133,8|0,0:0|0:0,0:0:0:0:
318,99,66548,1,2,0:0:0:0:
187,193,66736,2,0,L|202:284,1,85.5000032615663,8|0,0:0|0:0,0:0:0:0:
337,253,67111,2,0,L|322:344,1,85.5000032615663,0|2,0:0|0:0,0:0:0:0:
182,308,67486,6,0,P|201:249|328:198,1,171.000006523133,8|0,0:0|0:0,0:0:0:0:
412,190,68048,2,0,L|447:190,2,28.5000010871888,2|2|2,0:0|0:0|0:0,0:0:0:0:
353,251,68236,2,0,L|240:247,3,85.5000032615663,2|2|2|2,0:0|0:0|0:0|0:0,0:0:0:0:
111,291,68986,5,8,0:0:0:0:
40,207,69173,1,0,0:0:0:0:
72,102,69361,1,2,0:0:0:0:
177,70,69548,1,2,0:0:0:0:
337,99,69736,2,0,L|359:200,1,85.5000032615663,8|0,0:0|0:0,0:0:0:0:
201,254,70111,2,0,L|223:355,1,85.5000032615663,2|2,0:0|0:0,0:0:0:0:
379,214,70486,6,0,P|427:152|345:96,1,171.000006523133,8|2,0:0|0:0,0:0:0:0:
247,242,71048,1,2,0:0:0:0:
399,320,71236,2,0,L|287:309,1,85.5000032615663,8|0,0:0|0:0,0:0:0:0:
184,188,71611,2,0,L|296:177,1,85.5000032615663,2|2,0:0|0:0,0:0:0:0:
117,123,71986,6,0,L|9:134,2,85.5000032615663,8|0|2,0:0|0:0|0:0,0:0:0:0:
218,114,72548,1,2,0:0:0:0:
372,163,72736,2,0,L|265:178,1,85.5000032615663,8|0,0:0|0:0,0:0:0:0:
127,259,73111,2,0,L|234:274,1,85.5000032615663,8|2,0:0|0:0,0:0:0:0:
364,304,73486,5,8,0:0:0:0:
244,352,73642,1,2,0:0:0:0:
207,342,73736,1,0,0:0:0:0:
244,352,73798,1,0,0:0:0:0:
301,358,73861,1,2,0:0:0:0:
349,334,73954,1,2,0:0:0:0:
353,279,74048,1,2,0:0:0:0:
308,249,74142,1,2,0:0:0:0:
256,229,74236,6,0,L|205:216,1,42.7500016307831,2|0,0:0|0:0,0:0:0:0:
134,139,74423,2,0,L|185:126,1,42.7500016307831,2|0,0:0|0:0,0:0:0:0:
275,148,74611,2,0,L|326:135,1,42.7500016307831,2|0,0:0|0:0,0:0:0:0:
397,58,74798,2,0,L|346:45,1,42.7500016307831,2|0,0:0|0:0,0:0:0:0:
167,297,74986,6,0,L|30:290,1,96.9000018482208,10|0,0:2|0:0,0:0:0:0:
176,231,75361,2,0,L|39:224,1,96.9000018482208,2|0,0:2|0:0,0:0:0:0:
210,79,75736,6,0,L|347:72,1,96.9000018482208,10|0,0:2|0:0,0:0:0:0:
201,13,76111,2,0,L|338:6,1,96.9000018482208,2|0,0:2|0:0,0:0:0:0:
124,360,76486,6,0,L|-13:353,1,96.9000018482208,10|0,0:2|0:0,0:0:0:0:
133,294,76861,2,0,L|-4:287,1,96.9000018482208,2|0,0:2|0:0,0:0:0:0:
191,120,77236,6,0,L|328:113,1,96.9000018482208,10|0,0:2|0:0,0:0:0:0:
159,31,77611,2,0,L|22:24,1,96.9000018482208,2|0,0:2|0:0,0:0:0:0:
431,75,77986,6,0,L|415:206,1,96.9000018482208,10|0,0:2|0:0,0:0:0:0:
269,253,78361,2,0,L|151:259,1,96.9000018482208,2|0,0:2|0:0,0:0:0:0:
347,259,78736,2,0,L|363:390,1,96.9000018482208,10|0,0:2|0:0,0:0:0:0:
204,180,79111,2,0,L|322:186,1,96.9000018482208,2|0,0:2|0:0,0:0:0:0:
44,64,79486,6,0,L|140:52,1,96.9000018482208,10|0,0:2|0:0,0:0:0:0:
295,119,79861,2,0,L|166:106,1,96.9000018482208,2|0,0:2|0:0,0:0:0:0:
394,289,80236,6,0,P|410:230|384:193,1,96.9000018482208,10|0,0:2|0:0,0:0:0:0:
232,153,80611,2,0,L|361:140,1,96.9000018482208,2|0,0:2|0:0,0:0:0:0:
65,191,80986,6,0,L|196:191,1,114,10|0,0:2|0:0,0:0:0:0:
256,191,81267,1,0,0:0:0:0:
179,191,81361,2,0,B|121:190|121:190|178:191,1,114,2|0,0:2|0:0,0:0:0:0:
256,191,81642,1,0,0:0:0:0:
333,191,81736,6,0,B|391:190|391:190|334:191,1,114,10|0,0:2|0:0,0:0:0:0:
256,191,82017,1,0,0:0:0:0:
333,191,82111,2,0,L|447:191,1,114,2|0,0:2|0:0,0:0:0:0:
368,188,82392,1,0,0:0:0:0:
179,191,82486,6,0,L|65:191,1,114,10|0,0:2|0:0,0:0:0:0:
144,171,82767,1,0,0:0:0:0:
223,191,82861,2,0,L|337:191,1,114,2|0,0:2|0:0,0:0:0:0:
258,171,83142,1,0,0:0:0:0:
337,191,83236,5,10,0:2:0:0:
383,164,83329,1,0,0:0:0:0:
378,110,83423,1,0,0:0:0:0:
327,94,83517,1,0,0:0:0:0:
256,87,83611,2,0,L|388:72,1,114,2|0,0:2|0:0,0:0:0:0:
376,20,83892,1,0,0:0:0:0:
159,293,83986,6,0,P|133:234|175:203,1,114,10|0,0:2|0:0,0:0:0:0:
247,203,84267,1,0,0:0:0:0:
162,205,84361,2,0,L|25:203,1,114,2|0,0:2|0:0,0:0:0:0:
127,246,84642,1,0,0:0:0:0:
353,293,84736,6,0,P|379:234|337:203,1,114,10|0,0:2|0:0,0:0:0:0:
265,203,85017,1,0,0:0:0:0:
349,205,85111,2,0,L|487:203,1,114,2|0,0:2|0:0,0:0:0:0:
385,246,85392,1,0,0:0:0:0:
191,124,85486,6,0,P|164:190|207:193,1,114,10|0,0:2|0:0,0:0:0:0:
256,205,85767,1,0,0:0:0:0:
330,197,85861,2,0,P|361:156|321:124,1,114,2|0,0:2|0:0,0:0:0:0:
256,205,86142,1,0,0:0:0:0:
68,261,86236,6,0,L|196:245,1,114,10|0,0:2|0:0,0:0:0:0:
256,247,86517,1,0,0:0:0:0:
444,261,86611,2,0,L|316:245,1,114,10|0,0:2|0:0,0:0:0:0:
256,247,86892,1,0,0:0:0:0:
68,261,86986,5,14,0:2:0:0:
256,192,87079,12,0,89611,0:0:0:0:
260,254,92236,5,2,0:2:0:0:
235,94,92611,1,2,0:2:0:0:
438,300,92986,1,2,0:2:0:0:
463,140,93267,1,2,0:2:0:0:
386,140,93361,2,0,L|316:136,1,45.6,0|2,0:0|0:2,0:0:0:0:
419,250,93548,2,0,L|489:246,1,45.6,0|0,0:0|0:0,0:0:0:0:
388,140,93736,5,2,0:2:0:0:
279,162,94111,1,2,0:2:0:0:
88,194,94486,1,2,0:2:0:0:
306,267,94861,6,0,L|320:161,1,91.2,2|0,0:2|0:0,0:0:0:0:
65,122,95236,2,0,L|371:95,1,285,2|0,0:0|0:0,0:0:0:0:
361,29,95517,1,0,0:0:0:0:
181,174,95611,6,0,P|168:252|208:274,1,114,2|2,0:2|0:2,0:0:0:0:
334,287,95986,2,0,L|397:280,3,57,2|0|0|0,0:2|0:0|0:0|0:0,0:0:0:0:
219,341,96361,6,0,L|144:327,1,57,2|0,0:2|0:0,0:0:0:0:
84,291,96548,2,0,L|375:263,1,285,2|2,0:0|0:2,0:0:0:0:
205,208,96923,1,0,0:0:0:0:
457,203,97111,2,0,P|471:137|423:96,1,114,2|0,0:2|0:0,0:0:0:0:
367,86,97392,1,0,0:0:0:0:
173,104,97486,6,0,L|157:206,1,91.2,2|0,0:2|0:0,0:0:0:0:
293,238,97861,2,0,L|309:340,1,91.2,2|0,0:2|0:0,0:0:0:0:
144,364,98236,1,2,0:2:0:0:
21,328,98423,2,0,L|82:321,1,45.6,0|0,0:0|0:0,0:0:0:0:
165,313,98611,1,2,0:2:0:0:
217,289,98704,1,0,0:0:0:0:
217,231,98798,1,0,0:0:0:0:
165,206,98892,1,0,0:0:0:0:
85,215,98986,6,0,L|69:111,1,91.2,2|0,0:2|0:0,0:0:0:0:
210,73,99361,2,0,L|324:66,1,91.2,2|0,0:3|0:0,0:0:0:0:
443,176,99736,2,0,L|329:169,1,91.2,2|0,0:3|0:0,0:0:0:0:
79,338,100111,6,0,P|64:276|111:242,1,91.2,2|0,0:2|0:0,0:0:0:0:
233,174,100486,2,0,L|121:171,1,91.2,2|0,0:2|0:0,0:0:0:0:
298,97,100861,1,2,0:2:0:0:
455,158,101048,2,0,L|442:226,1,45.6,0|0,0:0|0:0,0:0:0:0:
350,221,101236,1,2,0:2:0:0:
331,277,101329,1,0,0:0:0:0:
358,330,101423,1,0,0:0:0:0:
413,350,101517,1,0,0:0:0:0:
489,306,101611,6,0,L|365:303,1,91.2,2|0,0:2|0:0,0:0:0:0:
240,296,101986,2,0,P|228:250|271:207,1,91.2,2|0,0:3|0:0,0:0:0:0:
413,209,102361,2,0,L|386:118,1,91.2,2|0,0:3|0:0,0:0:0:0:
112,268,102736,6,0,L|244:262,1,91.2,2|0,0:2|0:0,0:0:0:0:
351,149,103111,2,0,L|219:143,1,91.2,2|0,0:2|0:0,0:0:0:0:
132,150,103486,2,0,P|111:89|140:60,1,91.2,2|0,0:2|0:0,0:0:0:0:
202,50,103767,1,0,0:0:0:0:
156,47,103860,1,2,0:2:0:0:
110,45,103954,1,0,0:0:0:0:
82,79,104047,1,0,0:0:0:0:
92,122,104141,1,0,0:0:0:0:
159,182,104236,6,0,L|253:173,1,91.2,2|0,0:2|0:0,0:0:0:0:
94,305,104611,2,0,P|66:252|93:215,1,91.2,2|0,0:3|0:0,0:0:0:0:
218,181,104986,1,2,0:3:0:0:
187,177,105048,1,0,0:0:0:0:
157,173,105111,1,0,0:0:0:0:
127,170,105173,1,0,0:0:0:0:
413,255,105361,6,0,L|431:153,1,91.2,2|2,0:2|0:2,0:0:0:0:
282,126,105736,2,0,L|264:24,1,91.2,2|2,0:2|0:2,0:0:0:0:
119,36,106111,2,0,L|231:31,1,91.2,2|2,0:2|0:2,0:0:0:0:
357,80,106486,1,2,0:2:0:0:
311,77,106579,1,0,0:0:0:0:
265,75,106673,1,2,0:2:0:0:
424,223,106861,6,0,L|312:219,1,91.2,2|2,0:2|0:2,0:0:0:0:
49,252,107236,2,0,L|352:217,1,285,2|2,0:0|0:2,0:0:0:0:
247,180,107517,1,0,0:0:0:0:
404,173,107611,2,0,L|468:167,2,57,2|0|2,0:2|0:0|0:2,0:0:0:0:
244,319,107986,2,0,L|137:308,1,57,2|2,0:0|0:0,0:0:0:0:
394,212,108173,2,0,L|462:200,1,57,2|10,0:0|0:0,0:0:0:0:
247,108,108361,5,0,0:0:0:0:
89,196,108548,2,0,L|100:118,1,57,8|0,0:0|0:0,0:0:0:0:
258,277,108829,2,0,L|247:199,1,57,8|0,0:0|0:0,0:0:0:0:
65,227,109111,6,0,L|76:149,1,57,8|0,0:0|0:0,0:0:0:0:
258,277,109392,2,0,L|247:199,1,57,8|0,0:0|0:0,0:0:0:0:
45,272,109673,6,0,L|56:194,1,57,8|0,0:0|0:0,0:0:0:0:
258,277,109954,2,0,L|247:199,1,57,8|0,0:0|0:0,0:0:0:0:
53,178,110236,5,8,0:0:0:0:
20,133,110329,1,8,0:0:0:0:
35,80,110423,1,8,0:0:0:0:
86,59,110517,1,8,0:0:0:0:
242,84,110611,6,0,L|383:70,1,114,8|0,0:0|0:0,0:0:0:0:
444,123,110892,2,0,L|365:127,1,57,8|0,0:0|0:0,0:0:0:0:
230,235,111173,6,0,L|309:239,1,57,8|0,0:0|0:0,0:0:0:0:
456,71,111454,2,0,L|377:75,1,57,8|0,0:0|0:0,0:0:0:0:
230,235,111735,6,0,L|309:239,1,57,8|0,0:0|0:0,0:0:0:0:
465,17,112017,2,0,L|386:21,1,57,8|0,0:0|0:0,0:0:0:0:
230,235,112298,6,0,L|309:239,1,57,8|0,0:0|0:0,0:0:0:0:
482,57,112579,2,0,L|403:61,1,57,8|0,0:0|0:0,0:0:0:0:
230,235,112860,6,0,L|309:239,1,57,8|8,0:0|0:0,0:0:0:0:
375,296,113048,2,0,L|296:300,1,57,8|8,0:0|0:0,0:0:0:0:
151,310,113236,6,0,P|114:263|168:226,1,114,8|0,0:0|0:0,0:0:0:0:
240,199,113517,2,0,L|365:179,1,114,8|0,0:0|0:0,0:0:0:0:
456,153,113798,2,0,P|493:106|439:69,1,114,8|0,0:0|0:0,0:0:0:0:
367,42,114079,2,0,L|242:22,1,114,8|0,0:0|0:0,0:0:0:0:
148,61,114361,6,0,P|165:124|221:141,1,114,8|0,0:0|0:0,0:0:0:0:
305,189,114642,2,0,L|162:224,1,114,8|0,0:0|0:0,0:0:0:0:
105,199,114923,2,0,P|122:262|178:279,1,114,8|0,0:0|0:0,0:0:0:0:
262,327,115204,2,0,L|119:362,1,114,8|0,0:0|0:0,0:0:0:0:
330,337,115486,2,0,L|425:311,1,57,8|8,0:0|0:0,0:0:0:0:
207,245,115673,2,0,L|112:219,1,57,8|8,0:0|0:0,0:0:0:0:
334,191,115861,5,8,0:0:0:0:
365,196,115907,1,8,0:0:0:0:
396,187,115954,1,8,0:0:0:0:
421,166,116001,1,8,0:0:0:0:
434,136,116048,1,8,0:0:0:0:
433,104,116095,1,8,0:0:0:0:
419,75,116142,1,8,0:0:0:0:
394,55,116189,1,8,0:0:0:0:
223,56,116236,5,2,0:2:0:0:
208,84,116282,1,0,0:0:0:0:
216,115,116329,1,0,0:0:0:0:
241,135,116376,1,0,0:0:0:0:
273,135,116423,1,0,0:0:0:0:
297,114,116470,1,0,0:0:0:0:
303,83,116517,1,0,0:0:0:0:
289,55,116564,1,0,0:0:0:0:
223,56,116611,6,0,L|148:58,1,57,2|2,0:2|0:2,0:0:0:0:
333,253,116798,2,0,L|408:255,1,57,2|2,0:2|0:2,0:0:0:0:
196,346,116986,1,2,0:0:0:0:
334,369,117173,2,0,L|346:290,1,57,2|0,0:2|0:0,0:0:0:0:
158,247,117361,6,0,L|368:221,1,171.000006523133,12|0,0:2|0:0,0:0:0:0:
115,208,117642,6,0,P|85:115|170:77,1,171.000006523133,12|0,0:2|0:0,0:0:0:0:
354,247,117923,6,0,L|144:221,1,171.000006523133,12|0,0:2|0:0,0:0:0:0:
396,208,118204,6,0,P|433:136|379:76,1,171.000006523133,12|0,0:2|0:0,0:0:0:0:
133,84,118486,6,0,P|78:196|188:237,1,256.500009784699,2|0,0:2|0:0,0:0:0:0:
383,250,118861,6,0,P|425:186|361:162,1,136.799995825195,10|0,0:0|0:0,0:0:0:0:
306,152,119142,1,0,0:0:0:0:
221,131,119236,1,10,0:0:0:0:
232,197,119329,1,0,0:0:0:0:
283,240,119423,1,0,0:0:0:0:
350,240,119517,1,2,0:0:0:0:
138,326,119611,6,0,L|290:315,1,136.799995825195,10|0,0:0|0:0,0:0:0:0:
193,278,119892,1,0,0:0:0:0:
106,267,119986,2,0,L|26:258,2,68.3999979125977,10|0|2,0:0|0:0|0:0,0:0:0:0:
193,278,120267,1,2,0:0:0:0:
396,287,120361,6,0,P|450:242|394:200,1,136.799995825195,10|0,0:0|0:0,0:0:0:0:
340,194,120642,1,2,0:0:0:0:
255,206,120736,2,0,L|233:118,1,68.3999979125977,10|0,0:0|0:0,0:0:0:0:
341,124,120923,2,0,L|319:36,1,68.3999979125977,0|0,0:0|0:0,0:0:0:0:
229,59,121111,5,8,0:0:0:0:
195,115,121204,1,0,0:0:0:0:
225,173,121298,1,2,0:0:0:0:
290,180,121392,1,0,0:0:0:0:
99,226,121486,2,0,L|81:325,1,68.3999979125977,10|0,0:0|0:0,0:0:0:0:
282,67,121673,2,0,L|300:166,1,68.3999979125977,2|0,0:0|0:0,0:0:0:0:
100,191,121861,6,0,P|80:115|139:83,1,136.799995825195,10|0,0:0|0:0,0:0:0:0:
205,80,122142,1,0,0:0:0:0:
284,123,122236,2,0,L|148:128,1,136.799995825195,10|0,0:0|0:0,0:0:0:0:
222,183,122517,1,2,0:0:0:0:
412,191,122611,6,0,P|432:115|373:83,1,136.799995825195,10|2,0:0|0:0,0:0:0:0:
307,80,122892,1,0,0:0:0:0:
228,123,122986,2,0,L|364:128,1,136.799995825195,10|0,0:0|0:0,0:0:0:0:
290,183,123267,1,2,0:0:0:0:
85,381,123361,6,0,L|69:236,1,136.799995825195,10|0,0:0|0:0,0:0:0:0:
156,225,123642,1,2,0:0:0:0:
69,245,123736,1,10,0:0:0:0:
58,179,123829,1,0,0:0:0:0:
96,124,123923,1,0,0:0:0:0:
162,114,124017,1,0,0:0:0:0:
386,122,124111,6,0,L|243:106,1,136.799995825195,8|0,0:0|0:0,0:0:0:0:
236,42,124392,1,0,0:0:0:0:
328,56,124486,1,10,0:0:0:0:
373,103,124579,1,0,0:0:0:0:
353,165,124673,1,0,0:0:0:0:
289,177,124767,1,0,0:0:0:0:
83,280,124861,6,0,P|60:216|122:175,1,136.799995825195,10|0,0:0|0:0,0:0:0:0:
191,166,125142,1,0,0:0:0:0:
279,147,125236,2,0,L|106:136,1,136.799995825195,10|0,0:0|0:0,0:0:0:0:
55,131,125517,1,2,0:0:0:0:
239,49,125611,6,0,L|314:44,1,68.3999979125977,10|0,0:0|0:0,0:0:0:0:
117,266,125798,2,0,L|42:261,1,68.3999979125977,2|0,0:0|0:0,0:0:0:0:
249,347,125986,2,0,L|408:331,1,136.799995825195,10|0,0:0|0:0,0:0:0:0:
289,281,126267,1,2,0:0:0:0:
480,273,126361,6,0,P|489:196|428:162,1,136.799995825195,10|0,0:0|0:0,0:0:0:0:
365,159,126642,1,2,0:0:0:0:
280,176,126736,2,0,L|194:169,2,68.3999979125977,10|0|0,0:0|0:0|0:0,0:0:0:0:
365,159,127017,1,0,0:0:0:0:
163,341,127111,6,0,L|135:245,1,68.3999979125977,8|0,0:0|0:0,0:0:0:0:
244,254,127298,2,0,L|272:158,1,68.3999979125977,0|0,0:0|0:0,0:0:0:0:
159,161,127486,1,10,0:0:0:0:
94,149,127579,1,0,0:0:0:0:
65,89,127673,1,0,0:0:0:0:
96,31,127767,1,0,0:0:0:0:
301,49,127861,5,10,0:0:0:0:
330,108,127954,1,0,0:0:0:0:
299,166,128048,1,0,0:0:0:0:
234,176,128142,1,0,0:0:0:0:
55,229,128236,5,10,0:0:0:0:
26,288,128329,1,0,0:0:0:0:
57,346,128423,1,0,0:0:0:0:
122,356,128517,1,2,0:0:0:0:
304,328,128611,6,0,L|400:317,1,68.3999979125977,10|0,0:0|0:0,0:0:0:0:
199,182,128798,2,0,L|103:171,1,68.3999979125977,0|0,0:0|0:0,0:0:0:0:
338,178,128986,5,10,0:0:0:0:
399,155,129079,1,0,0:0:0:0:
408,91,129173,1,0,0:0:0:0:
355,52,129267,1,2,0:0:0:0:
197,52,129361,6,0,P|97:82|63:235,1,256.500009784699,14|2,0:0|0:0,0:0:0:0:
315,52,129736,6,0,P|415:82|449:235,1,256.500009784699,14|0,0:0|0:0,0:0:0:0:
255,292,130111,6,0,L|47:279,1,205.199993737793,12|0,0:0|0:0,0:0:0:0:
257,292,130486,6,0,L|465:279,1,205.199993737793,14|0,0:0|0:0,0:0:0:0:
251,356,130861,6,0,P|210:284|255:244,1,136.799995825195,14|0,0:0|0:0,0:0:0:0:
327,234,131142,1,0,0:0:0:0:
237,250,131236,1,10,0:0:0:0:
170,251,131329,1,0,0:0:0:0:
129,200,131423,1,0,0:0:0:0:
143,136,131517,1,2,0:0:0:0:
319,84,131611,6,0,L|176:76,1,136.799995825195,10|0,0:0|0:0,0:0:0:0:
271,134,131892,1,0,0:0:0:0:
357,162,131986,2,0,L|453:150,1,68.3999979125977,10|0,0:0|0:0,0:0:0:0:
320,256,132173,2,0,L|224:244,1,68.3999979125977,2|2,0:0|0:0,0:0:0:0:
84,260,132361,6,0,P|58:174|127:169,1,136.799995825195,10|0,0:0|0:0,0:0:0:0:
171,148,132642,1,2,0:0:0:0:
81,159,132736,2,0,L|65:82,1,68.3999979125977,10|0,0:0|0:0,0:0:0:0:
239,76,132923,2,0,L|309:65,1,68.3999979125977,0|0,0:0|0:0,0:0:0:0:
122,307,133111,6,0,L|31:296,2,68.3999979125977,8|0|2,0:0|0:0|0:0,0:0:0:0:
299,123,133392,2,0,L|390:112,2,68.3999979125977,0|10|0,0:0|0:0|0:0,0:0:0:0:
474,219,133673,2,0,L|484:130,1,68.3999979125977,2|0,0:0|0:0,0:0:0:0:
279,305,133861,6,0,P|249:242|295:201,1,136.799995825195,10|0,0:0|0:0,0:0:0:0:
368,194,134142,1,0,0:0:0:0:
448,163,134236,2,0,P|478:100|432:59,1,136.799995825195,10|0,0:0|0:0,0:0:0:0:
359,52,134517,1,2,0:0:0:0:
157,112,134611,6,0,L|251:113,1,68.3999979125977,10|0,0:0|0:0,0:0:0:0:
399,221,134798,2,0,L|325:218,1,68.3999979125977,2|0,0:0|0:0,0:0:0:0:
135,335,134986,2,0,L|287:322,1,136.799995825195,10|0,0:0|0:0,0:0:0:0:
357,315,135267,1,2,0:0:0:0:
176,287,135361,6,0,P|137:226|189:190,1,136.799995825195,10|0,0:0|0:0,0:0:0:0:
260,182,135642,1,2,0:0:0:0:
366,125,135736,2,0,L|292:122,1,68.3999979125977,10|0,0:0|0:0,0:0:0:0:
199,63,135923,2,0,L|273:60,1,68.3999979125977
491,228,136111,6,0,L|462:141,1,68.3999979125977,8|0,0:0|0:0,0:0:0:0:
382,131,136298,2,0,L|309:129,1,68.3999979125977,0|0,0:0|0:0,0:0:0:0:
128,128,136486,2,0,L|157:41,1,68.3999979125977,10|0,0:0|0:0,0:0:0:0:
237,31,136673,2,0,L|310:29,1,68.3999979125977,0|0,0:0|0:0,0:0:0:0:
116,18,136861,6,0,P|72:82|112:106,1,136.799995825195,10|0,0:0|0:0,0:0:0:0:
191,152,137142,1,0,0:0:0:0:
273,221,137236,2,0,L|131:237,1,136.799995825195,10|0,0:0|0:0,0:0:0:0:
54,246,137517,1,2,0:0:0:0:
231,63,137611,6,0,P|275:127|235:151,1,136.799995825195,10|2,0:0|0:0,0:0:0:0:
156,197,137892,1,0,0:0:0:0:
74,266,137986,2,0,L|216:282,1,136.799995825195,10|0,0:0|0:0,0:0:0:0:
293,291,138267,1,2,0:0:0:0:
451,298,138361,6,0,P|478:232|425:204,1,136.799995825195,10|0,0:0|0:0,0:0:0:0:
356,205,138642,1,0,0:0:0:0:
273,203,138736,2,0,L|450:187,1,136.799995825195,10|0,0:0|0:0,0:0:0:0:
319,134,139017,1,2,0:0:0:0:
130,176,139111,6,0,P|103:110|156:82,1,136.799995825195,10|2,0:0|0:0,0:0:0:0:
225,83,139392,1,0,0:0:0:0:
308,81,139486,2,0,L|131:65,1,136.799995825195,10|0,0:0|0:0,0:0:0:0:
262,12,139767,1,2,0:0:0:0:
449,66,139861,6,0,L|302:70,1,136.799995825195,14|0,0:0|0:0,0:0:0:0:
215,71,140142,1,0,0:0:0:0:
404,298,140236,2,0,P|430:220|367:194,1,136.799995825195,10|0,0:0|0:0,0:0:0:0:
313,184,140517,1,2,0:0:0:0:
229,163,140611,6,0,L|391:158,1,136.799995825195,10|0,0:0|0:0,0:0:0:0:
379,84,140892,1,0,0:0:0:0:
297,111,140986,2,0,L|459:106,1,136.799995825195,10|0,0:0|0:0,0:0:0:0:
339,57,141267,1,2,0:0:0:0:
150,65,141361,6,0,P|116:138|191:166,1,136.799995825195,14|0,0:0|0:0,0:0:0:0:
239,176,141642,1,0,0:0:0:0:
414,290,141736,2,0,L|261:311,1,136.799995825195,10|0,0:0|0:0,0:0:0:0:
187,327,142017,1,2,0:0:0:0:
362,65,142111,6,0,P|396:138|321:166,1,136.799995825195,10|0,0:0|0:0,0:0:0:0:
273,176,142392,1,0,0:0:0:0:
98,290,142486,2,0,L|251:311,1,136.799995825195,10|0,0:0|0:0,0:0:0:0:
325,327,142767,1,2,0:0:0:0:
110,351,142861,5,10,0:0:0:0:
257,300,143048,1,8,0:0:0:0:
189,293,143141,1,2,0:0:0:0:
121,286,143235,1,2,0:0:0:0:
255,300,143423,2,0,L|413:284,1,136.799995825195,8|2,0:0|0:2,0:0:0:0:
218,156,143798,2,0,L|83:140,1,136.799995825195,8|2,0:0|0:2,0:0:0:0:
294,156,144173,2,0,L|433:140,1,136.799995825195,8|2,0:0|0:2,0:0:0:0:
107,43,144548,6,0,L|15:30,2,68.3999979125977,8|8|10,0:0|0:0|0:2,0:0:0:0:
270,179,144923,2,0,L|362:166,2,68.3999979125977,8|8|10,0:0|0:0|0:2,0:0:0:0:
99,188,145298,1,8,0:0:0:0:
73,249,145391,1,8,0:0:0:0:
100,310,145485,1,10,0:2:0:0:
162,332,145579,1,0,0:0:0:0:
323,334,145673,2,0,L|339:254,1,68.3999979125977,8|8,0:0|0:0,0:0:0:0:
141,114,145861,6,0,L|255:106,1,68.3999979125977,10|8,0:2|0:0,0:0:0:0:
393,225,146048,2,0,L|507:217,1,68.3999979125977,8|8,0:0|0:0,0:0:0:0:
278,320,146236,6,0,L|164:312,1,68.3999979125977,10|8,0:2|0:0,0:0:0:0:
427,122,146423,2,0,L|541:114,1,68.3999979125977,8|8,0:0|0:0,0:0:0:0:
328,77,146611,6,0,L|248:74,1,68.3999979125977,10|8,0:2|0:0,0:0:0:0:
95,158,146798,2,0,L|9:153,1,68.3999979125977,8|8,0:0|0:0,0:0:0:0:
282,2,146986,6,0,L|215:10,1,68.3999979125977,10|8,0:2|0:0,0:0:0:0:
14,168,147173,2,0,L|81:177,1,68.3999979125977,8|8,0:0|0:0,0:0:0:0:
308,254,147361,5,12,0:0:0:0:
256,192,147454,12,0,151861,0:0:0:0:
