osu file format v14

[General]
AudioFilename: audio.mp3
AudioLeadIn: 0
PreviewTime: 14142
Countdown: 0
SampleSet: Normal
StackLeniency: 0.7
Mode: 2
LetterboxInBreaks: 0
WidescreenStoryboard: 1

[Editor]
Bookmarks: 14611
DistanceSpacing: 1
BeatDivisor: 4
GridSize: 32
TimelineZoom: 1.8

[Metadata]
Title:conflict
TitleUnicode:conflict
Artist:siromaru + cranky
ArtistUnicode:siromaru + cranky
Creator:Bunnrei
Version:Cup
Source:osu!
Tags:bms of fighters 2011 bof2011 frenz2011 chunithm cytus dance rail deemo groove coaster maimai muse dash rhythmsia sound voltex superbeat xonic synchronica tapsonic top taiko no tatsujin tone sphere tsumamia! arcaea featured artist harmonic schranz pico electronic
BeatmapID:2055636
BeatmapSetID:981762

[Difficulty]
HPDrainRate:3
CircleSize:2.5
OverallDifficulty:6
ApproachRate:6
SliderMultiplier:1.3
SliderTickRate:1

[Events]
//Background and Video events
0,0,"abstract-2707939.jpg",0,0
//Break Periods
2,89811,91186
//Storyboard Layer 0 (Background)
//Storyboard Layer 1 (Fail)
//Storyboard Layer 2 (Pass)
//Storyboard Layer 3 (Foreground)
//Storyboard Layer 4 (Overlay)
//Storyboard Sound Samples

[TimingPoints]
2986,375,4,1,98,60,1,0
3079,-100,4,1,99,60,0,0
14986,-100,4,1,3,60,0,0
15079,-100,4,1,99,60,0,0
25486,-100,4,1,44,60,0,0
26986,-100,4,1,3,60,0,0
27079,-100,4,1,99,60,0,0
38236,-100,4,1,99,60,0,0
49673,-100,4,1,99,40,0,0
50986,-100,4,1,99,60,0,0
62986,-100,4,2,3,50,0,0
63736,-100,4,2,4,50,0,0
64486,-100,4,2,5,50,0,0
65236,-100,4,2,6,50,0,0
65986,-100,4,2,7,50,0,0
66736,-100,4,2,8,50,0,0
67486,-100,4,2,11,50,0,0
68986,-100,4,2,12,50,0,0
69736,-100,4,2,13,50,0,0
70486,-100,4,2,14,50,0,0
71236,-100,4,2,15,50,0,0
71986,-100,4,2,16,50,0,0
72736,-100,4,2,17,50,0,0
73111,-100,4,2,18,50,0,0
73486,-100,4,2,19,50,0,0
74986,-100,4,1,20,51,0,0
75736,-100,4,1,21,52,0,0
76486,-100,4,1,22,53,0,0
77236,-100,4,1,23,54,0,0
77986,-100,4,1,24,55,0,0
78736,-100,4,1,25,56,0,0
79486,-100,4,1,26,57,0,0
80236,-100,4,1,27,58,0,0
80986,-100,4,1,28,60,0,0
81736,-100,4,1,29,60,0,0
82486,-100,4,1,30,60,0,0
83236,-100,4,1,31,60,0,0
83986,-100,4,1,32,60,0,0
84736,-100,4,1,33,60,0,0
85486,-100,4,1,34,60,0,0
86236,-100,4,1,35,60,0,0
86611,-100,4,1,36,60,0,0
86986,375,7,1,37,60,1,0
86986,-100,7,1,37,60,0,0
87173,-100,7,1,37,40,0,0
89611,-100,7,1,37,30,0,0
92236,-100,7,1,99,40,0,0
97486,-100,7,1,99,50,0,0
108548,-100,7,1,99,35,0,0
110611,-100,7,1,99,42,0,0
111736,-100,7,1,99,49,0,0
113236,-100,7,1,99,55,0,0
115861,375,4,1,99,60,1,0
115907,-100,4,1,99,56,0,0
115954,-100,4,1,99,52,0,0
116001,-100,4,1,99,48,0,0
116048,-100,4,1,99,44,0,0
116095,-100,4,1,99,40,0,0
116142,-100,4,1,99,36,0,0
116189,-100,4,1,99,34,0,0
116236,-100,4,1,99,40,0,0
117173,-100,4,1,99,50,0,0
117361,-100,4,1,99,60,0,0
118861,375,4,1,99,60,1,0
129361,-100,4,1,44,60,0,0
130861,-100,4,1,3,60,0,0
130954,-100,4,1,99,60,0,0
139861,-100,4,1,3,60,0,0
139954,-100,4,1,99,60,0,0
141361,-100,4,1,44,60,0,0
141454,-100,4,1,99,60,0,0
147361,-100,4,1,98,60,0,0
147454,-100,4,1,98,40,0,0
148861,-100,4,1,98,30,0,0
149236,-100,4,1,98,20,0,0
149611,-100,4,1,98,10,0,0
150361,-100,4,1,97,5,0,0

[Colours]
Combo1 : 128,128,128
Combo2 : 128,0,0

[HitObjects]
110,352,2986,5,12,0:0:0:0:
90,211,3361,1,8,0:0:0:0:
233,226,3736,1,8,0:0:0:0:
253,85,4111,1,8,0:0:0:0:
110,352,4486,1,8,0:0:0:0:
90,211,4861,1,8,0:0:0:0:
233,226,5236,1,8,0:0:0:0:
253,85,5611,1,8,0:0:0:0:
429,348,5986,5,8,0:0:0:0:
449,207,6361,1,8,0:0:0:0:
306,222,6736,1,8,0:0:0:0:
286,81,7111,1,8,0:0:0:0:
429,348,7486,5,8,0:0:0:0:
449,207,7861,1,8,0:0:0:0:
306,222,8236,1,8,0:0:0:0:
286,81,8611,2,0,L|363:76,1,64.9999999999999,8|8,0:0|0:0,0:0:0:0:
415,72,8986,6,0,L|265:82,1,130,10|10,0:2|0:2,0:0:0:0:
162,142,9736,2,0,P|142:210|191:245,1,130,10|10,0:2|0:2,0:0:0:0:
330,243,10486,2,0,P|373:198|350:142,1,130,10|10,0:2|0:2,0:0:0:0:
226,80,11236,2,0,L|97:72,1,130,10|10,0:2|0:2,0:0:0:0:
269,44,11986,5,10,0:2:0:0:
320,158,12361,1,10,0:2:0:0:
268,273,12736,1,10,0:2:0:0:
148,310,13111,1,10,0:2:0:0:
23,291,13486,2,0,L|113:286,1,65,14|0,0:2|0:2,0:0:0:0:
153,278,13861,1,14,0:2:0:0:
320,157,14236,2,0,L|162:141,1,130,14|14,0:2|0:2,0:0:0:0:
45,149,14986,5,12,0:0:0:0:
110,148,15361,1,8,0:0:0:0:
279,150,15736,2,0,P|297:218|246:265,1,130,8|8,0:0|0:0,0:0:0:0:
125,271,16486,1,8,0:0:0:0:
269,275,16861,2,0,P|349:235|263:136,1,260,8|8,0:0|0:0,0:0:0:0:
111,63,17986,6,0,L|240:47,1,130,8|8,0:0|0:0,0:0:0:0:
390,64,18736,2,0,P|412:133|348:160,1,130,8|8,0:0|0:0,0:0:0:0:
241,177,19486,1,8,0:0:0:0:
109,173,19861,2,0,P|111:103|260:2,1,260,8|8,0:0|0:0,0:0:0:0:
388,28,20986,6,0,L|408:171,1,130,8|8,0:0|0:0,0:0:0:0:
272,254,21736,2,0,L|141:246,1,130,8|8,0:0|0:0,0:0:0:0:
279,308,22486,1,8,0:0:0:0:
416,314,22861,2,0,P|466:248|344:162,1,260,8|8,0:0|0:0,0:0:0:0:
212,149,23986,5,8,0:0:0:0:
336,115,24361,1,8,0:0:0:0:
176,115,24736,1,8,0:0:0:0:
300,149,25111,1,8,0:0:0:0:
173,211,25486,2,0,L|26:203,1,130,12|12,0:0|0:0,0:0:0:0:
173,211,26236,2,0,L|320:203,1,130,12|12,0:0|0:0,0:0:0:0:
452,203,26986,5,12,0:0:0:0:
462,99,27361,1,8,0:0:0:0:
321,85,27736,2,0,P|293:135|338:186,1,130,8|8,0:0|0:0,0:0:0:0:
456,198,28486,1,8,0:0:0:0:
330,227,28861,2,0,P|245:202|167:42,1,260,8|8,0:0|0:0,0:0:0:0:
298,31,29986,6,0,P|306:88|254:146,1,130,8|8,0:0|0:0,0:0:0:0:
126,210,30736,2,0,L|284:199,1,130,8|8,0:0|0:0,0:0:0:0:
402,188,31486,1,8,0:0:0:0:
260,206,31861,2,0,P|185:132|292:65,1,260,8|8,0:0|0:0,0:0:0:0:
410,37,32986,6,0,L|277:30,2,130,8|8|8,0:0|0:0|0:0,0:0:0:0:
271,141,34111,1,8,0:0:0:0:
132,173,34486,2,0,L|265:166,2,130,8|8|8,0:0|0:0|0:0,0:0:0:0:
271,277,35611,1,8,0:0:0:0:
421,285,35986,6,0,L|434:139,1,130,8|8,0:0|0:0,0:0:0:0:
295,86,36736,2,0,L|153:74,1,130,8|8,0:0|0:0,0:0:0:0:
27,183,37486,2,0,L|184:189,1,130,8|8,0:0|0:0,0:0:0:0:
295,238,38236,1,2,0:2:0:0:
146,295,38611,1,2,0:2:0:0:
295,238,38986,6,0,P|328:181|264:140,1,130,10|10,0:2|0:2,0:0:0:0:
242,137,39548,2,0,P|161:145|119:266,1,195,0|10,0:0|0:2,0:0:0:0:
318,205,40673,2,0,P|399:213|441:334,1,195,0|10,0:0|0:2,0:0:0:0:
313,327,41611,1,10,0:2:0:0:
179,322,41986,6,0,P|142:282|192:207,1,130,10|10,0:2|0:2,0:0:0:0:
224,192,42548,2,0,P|320:160|341:70,1,195,0|10,0:0|0:2,0:0:0:0:
131,263,43673,2,0,P|35:231|14:141,1,195,0|10,0:0|0:2,0:0:0:0:
140,115,44611,1,10,0:2:0:0:
267,74,44986,6,0,L|129:62,1,130,10|10,0:2|0:2,0:0:0:0:
81,88,45548,2,0,P|47:161|149:216,1,195,0|10,0:0|0:2,0:0:0:0:
321,229,46673,2,0,P|396:179|365:94,1,195,0|10,0:0|0:2,0:0:0:0:
231,76,47611,1,10,0:2:0:0:
97,40,47986,6,0,L|251:35,1,130,10|10,0:2|0:2,0:0:0:0:
291,32,48548,2,0,P|341:83|258:155,1,195,0|10,0:0|0:2,0:0:0:0:
128,157,49486,6,0,L|58:154,2,65,10|2|0,0:0|0:2|0:0,0:0:0:0:
279,153,50236,2,0,P|298:89|252:47,1,130,0|0,0:0|0:0,0:0:0:0:
103,55,50986,6,0,L|244:47,1,130,10|10,0:2|0:2,0:0:0:0:
288,46,51548,2,0,P|290:98|167:181,1,195,0|10,0:0|0:2,0:0:0:0:
383,292,52673,2,0,P|466:248|482:155,1,195,0|10,0:0|0:2,0:0:0:0:
351,137,53611,1,10,0:2:0:0:
228,119,53986,6,0,L|385:106,1,130,10|10,0:2|0:2,0:0:0:0:
287,118,54548,2,0,P|215:134|160:249,1,195,0|10,0:0|0:2,0:0:0:0:
353,234,55673,2,0,P|314:147|225:118,1,195,2|10,0:2|0:2,0:0:0:0:
96,121,56611,1,10,0:2:0:0:
238,189,56986,6,0,P|282:132|234:95,1,130,10|10,0:2|0:2,0:0:0:0:
188,82,57548,2,0,P|122:134|192:196,1,195,0|10,0:0|0:2,0:0:0:0:
383,198,58673,2,0,P|445:138|379:82,1,195,0|10,0:0|0:2,0:0:0:0:
249,59,59611,1,10,0:2:0:0:
118,79,59986,6,0,L|93:223,1,130,10|10,0:2|0:2,0:0:0:0:
233,200,60736,2,0,L|258:344,1,130,10|10,0:2|0:2,0:0:0:0:
95,340,61486,5,12,0:2:0:0:
63,249,61767,1,12,0:2:0:0:
86,156,62048,1,12,0:2:0:0:
157,91,62329,1,12,0:2:0:0:
252,76,62611,1,12,0:2:0:0:
428,74,62986,6,0,P|457:141|413:338,1,260,8|8,0:0|0:0,0:0:0:0:
190,274,64486,2,0,L|335:28,1,260,8|8,0:0|0:0,0:0:0:0:
84,74,65986,6,0,P|55:141|99:338,1,260,8|8,0:0|0:0,0:0:0:0:
322,274,67486,2,0,L|177:28,1,260,8|2,0:0|0:0,0:0:0:0:
325,25,68611,1,2,0:0:0:0:
455,74,68986,6,0,P|479:134|362:276,1,260,8|8,0:0|0:0,0:0:0:0:
138,274,70486,2,0,P|41:197|57:74,1,260,8|8,0:0|0:0,0:0:0:0:
325,44,71986,6,0,P|400:97|361:247,1,260,8|8,0:0|0:0,0:0:0:0:
114,290,73486,2,0,L|135:145,1,130,8|2,0:0|0:0,0:0:0:0:
253,244,74236,1,2,0:0:0:0:
114,290,74611,1,2,0:0:0:0:
261,303,74986,6,0,P|365:284|383:124,1,260,10|10,0:2|0:2,0:0:0:0:
256,115,76111,1,8,0:0:0:0:
113,148,76486,2,0,P|132:270|251:303,1,260,10|10,0:2|0:2,0:0:0:0:
487,262,77986,6,0,P|482:191|303:118,1,260,10|10,0:2|0:2,0:0:0:0:
179,211,79111,1,8,0:0:0:0:
25,262,79486,2,0,P|30:191|209:118,1,260,10|10,0:2|0:2,0:0:0:0:
458,58,80986,6,0,P|432:148|267:219,1,260,10|10,0:2|0:2,0:0:0:0:
162,214,82111,1,2,0:2:0:0:
31,223,82486,2,0,L|314:260,1,260,10|10,0:2|0:2,0:0:0:0:
317,131,83611,1,2,0:2:0:0:
167,159,83986,6,0,P|127:226|255:318,1,260,10|10,0:2|0:2,0:0:0:0:
384,310,85111,1,2,0:2:0:0:
252,305,85486,2,0,P|143:298|97:155,1,260,10|10,0:2|0:2,0:0:0:0:
233,134,86611,1,10,0:2:0:0:
389,91,86986,5,14,0:2:0:0:
256,192,87361,12,0,89611,0:0:0:0:
361,316,92236,6,0,P|389:257|332:212,1,130,2|2,0:2|0:2,0:0:0:0:
298,215,92798,2,0,P|244:209|250:82,1,195,0|0,0:0|0:0,0:0:0:0:
393,125,93923,2,0,P|411:213|329:248,1,195,0|2,0:0|0:2,0:0:0:0:
181,262,94861,6,0,L|319:257,1,130,2|2,0:2|0:0,0:0:0:0:
373,255,95423,1,0,0:0:0:0:
373,255,95611,1,2,0:2:0:0:
231,198,95986,1,2,0:2:0:0:
89,193,96361,6,0,L|64:124,2,65,2|2|2,0:2|0:0|0:2,0:0:0:0:
223,126,97111,1,2,0:2:0:0:
373,14,97486,5,2,0:2:0:0:
417,77,97861,1,2,0:2:0:0:
442,151,98236,1,2,0:2:0:0:
444,228,98611,1,2,0:2:0:0:
423,303,98986,1,2,0:2:0:0:
382,369,99361,2,0,L|230:363,1,130,2|2,0:3|0:3,0:0:0:0:
139,14,100111,5,2,0:2:0:0:
95,77,100486,1,2,0:2:0:0:
70,151,100861,1,2,0:2:0:0:
68,228,101236,1,2,0:2:0:0:
89,303,101611,1,2,0:2:0:0:
130,369,101986,2,0,L|281:363,1,130,2|2,0:3|0:3,0:0:0:0:
409,373,102736,5,2,0:2:0:0:
411,295,103111,1,2,0:2:0:0:
401,217,103486,1,2,0:2:0:0:
378,143,103861,1,2,0:2:0:0:
343,73,104236,1,2,0:2:0:0:
297,10,104611,2,0,L|164:14,1,130,2|2,0:3|0:3,0:0:0:0:
42,88,105361,6,0,L|32:231,1,130,2|2,0:2|0:2,0:0:0:0:
143,191,106111,2,0,L|153:334,1,130,2|2,0:2|0:2,0:0:0:0:
32,217,106861,2,0,L|42:88,1,130,2|2,0:2|0:0,0:0:0:0:
180,80,107611,1,2,0:2:0:0:
320,64,107986,1,2,0:0:0:0:
405,72,108267,6,0,L|428:189,1,97.5,10|8,0:0|0:0,0:0:0:0:
335,174,108829,2,0,L|312:291,1,97.5,8|8,0:0|0:0,0:0:0:0:
397,261,109392,2,0,P|421:219|386:171,1,97.5,8|8,0:0|0:0,0:0:0:0:
308,144,109954,2,0,L|201:138,1,97.5,8|8,0:0|0:0,0:0:0:0:
78,135,110611,6,0,L|97:261,1,97.5,8|8,0:0|0:0,0:0:0:0:
178,217,111173,2,0,L|159:343,1,97.5,8|8,0:0|0:0,0:0:0:0:
78,135,111736,6,0,P|58:195|87:214,1,97.5,8|8,0:0|0:0,0:0:0:0:
172,221,112298,2,0,L|278:213,1,97.5,8|8,0:0|0:0,0:0:0:0:
365,205,112861,1,8,0:0:0:0:
233,318,113236,6,0,L|223:199,1,97.5,8|8,0:0|0:0,0:0:0:0:
308,259,113798,2,0,L|318:140,1,97.5,8|8,0:0|0:0,0:0:0:0:
231,79,114361,6,0,L|124:70,1,97.5,8|8,0:0|0:0,0:0:0:0:
57,179,114923,2,0,L|164:170,1,97.5,8|8,0:0|0:0,0:0:0:0:
247,158,115486,1,8,0:0:0:0:
378,30,115861,6,0,P|456:104|378:221,1,260,8|2,0:0|0:2,0:0:0:0:
247,262,116986,2,0,L|311:266,1,65,2|2,0:0|0:2,0:0:0:0:
381,274,117361,5,12,0:2:0:0:
433,225,117642,1,12,0:2:0:0:
438,154,117923,1,12,0:2:0:0:
393,98,118204,1,12,0:2:0:0:
322,88,118486,1,2,0:2:0:0:
181,86,118861,6,0,L|203:222,1,130,8|8,0:0|0:0,0:0:0:0:
331,216,119611,2,0,L|184:214,1,130,8|8,0:0|0:0,0:0:0:0:
71,210,120361,1,8,0:0:0:0:
217,263,120736,2,0,P|280:231|204:106,1,260,8|8,0:0|0:0,0:0:0:0:
72,68,121861,6,0,L|212:52,1,130,8|8,0:0|0:0,0:0:0:0:
341,45,122611,2,0,P|375:101|327:153,1,130,8|8,0:0|0:0,0:0:0:0:
197,182,123361,1,8,0:0:0:0:
53,238,123736,2,0,L|313:265,1,260,8|8,0:0|0:0,0:0:0:0:
457,270,124861,6,0,L|398:144,1,130,8|8,0:0|0:0,0:0:0:0:
264,158,125611,2,0,P|229:106|279:58,1,130,8|8,0:0|0:0,0:0:0:0:
399,53,126361,1,8,0:0:0:0:
263,73,126736,2,0,P|162:83|98:217,1,260,8|8,0:0|0:0,0:0:0:0:
231,277,127861,5,8,0:0:0:0:
352,249,128236,1,8,0:0:0:0:
392,132,128611,1,8,0:0:0:0:
313,36,128986,1,8,0:0:0:0:
181,43,129361,5,12,0:0:0:0:
50,99,129736,1,12,0:0:0:0:
193,73,130111,1,12,0:0:0:0:
62,129,130486,1,12,0:0:0:0:
206,103,130861,6,0,L|361:115,1,130,12|8,0:0|0:0,0:0:0:0:
465,257,131611,2,0,L|310:269,1,130,8|8,0:0|0:0,0:0:0:0:
193,283,132361,1,8,0:0:0:0:
56,290,132736,2,0,P|37:218|171:108,1,260,8|8,0:0|0:0,0:0:0:0:
295,111,133861,5,8,0:0:0:0:
223,102,134236,1,8,0:0:0:0:
82,141,134611,2,0,P|55:194|109:242,1,130,8|8,0:0|0:0,0:0:0:0:
241,234,135361,1,8,0:0:0:0:
386,220,135736,2,0,P|382:159|222:69,1,260,8|8,0:0|0:0,0:0:0:0:
96,110,136861,6,0,L|241:96,2,130,8|8|8,0:0|0:0|0:0,0:0:0:0:
233,108,137986,1,8,0:0:0:0:
369,190,138361,2,0,L|224:176,2,130,8|8|8,0:0|0:0|0:0,0:0:0:0:
232,188,139486,1,8,0:0:0:0:
101,321,139861,5,12,0:0:0:0:
45,215,140236,1,8,0:0:0:0:
141,145,140611,1,8,0:0:0:0:
274,140,140986,1,8,0:0:0:0:
411,321,141361,5,12,0:0:0:0:
466,215,141736,1,8,0:0:0:0:
370,145,142111,1,8,0:0:0:0:
238,140,142486,1,8,0:0:0:0:
95,150,142861,1,8,0:0:0:0:
37,212,143048,6,8,L|91:354,1,130,8|8,0:0|0:0,0:0:0:0:
261,348,143798,2,8,P|292:285|245:252,1,130,8|8,0:0|0:0,0:0:0:0:
116,166,144548,2,8,L|267:148,1,130,8|8,0:0|0:0,0:0:0:0:
380,66,145298,2,8,L|229:48,1,130,8|8,0:0|0:0,0:0:0:0:
192,46,145861,6,10,P|159:113|208:141,1,130,10|10,0:2|0:2,0:2:0:0:
355,154,146611,1,10,0:2:0:0:
417,161,146798,1,8,0:0:0:0:
446,216,146986,1,10,0:2:0:0:
417,272,147173,1,8,0:0:0:0:
355,280,147361,1,12,0:0:0:0:
256,192,147736,12,0,151861,0:0:0:0:
