osu file format v14

[General]
AudioFilename: audio.mp3
AudioLeadIn: 0
PreviewTime: 14142
Countdown: 0
SampleSet: Normal
StackLeniency: 0.7
Mode: 2
LetterboxInBreaks: 0
WidescreenStoryboard: 0

[Editor]
DistanceSpacing: 1
BeatDivisor: 6
GridSize: 32
TimelineZoom: 1.8

[Metadata]
Title:conflict
TitleUnicode:conflict
Artist:siromaru + cranky
ArtistUnicode:siromaru + cranky
Creator:Bunnrei
Version:Conquest of the Damned
Source:osu!
Tags:bms of fighters 2011 bof2011 frenz2011 chunithm cytus dance rail deemo groove coaster maimai muse dash rhythmsia sound voltex superbeat xonic synchronica tapsonic top taiko no tatsujin tone sphere tsumamia! arcaea featured artist harmonic schranz pico electronic
BeatmapID:2054777
BeatmapSetID:981762

[Difficulty]
HPDrainRate:6
CircleSize:4.2
OverallDifficulty:9.7
ApproachRate:9.7
SliderMultiplier:2.48
SliderTickRate:2

[Events]
//Background and Video events
0,0,"abstract-2707939.jpg",0,0
//Break Periods
2,89811,91741
//Storyboard Layer 0 (Background)
//Storyboard Layer 1 (Fail)
//Storyboard Layer 2 (Pass)
//Storyboard Layer 3 (Foreground)
//Storyboard Layer 4 (Overlay)
//Storyboard Sound Samples

[TimingPoints]
2986,375,4,1,98,60,1,0
3079,-100,4,1,99,60,0,0
14236,-100,4,1,1,60,0,0
14611,-100,4,1,2,60,0,0
14986,-90.9090909090909,4,1,3,60,0,0
15361,-90.9090909090909,4,1,4,60,0,0
15642,-90.9090909090909,4,1,5,60,0,0
15736,-90.9090909090909,4,1,6,60,0,0
16111,-90.9090909090909,4,1,7,60,0,0
16298,-90.9090909090909,4,1,8,60,0,0
16392,-90.9090909090909,4,1,9,60,0,0
16486,-90.9090909090909,4,1,10,60,0,0
16767,-90.9090909090909,4,1,11,60,0,0
16861,-90.9090909090909,4,1,12,60,0,0
17423,-90.9090909090909,4,1,13,60,0,0
17611,-90.9090909090909,4,1,14,60,0,0
17798,-90.9090909090909,4,1,15,60,0,0
17986,-90.9090909090909,4,1,16,60,0,0
18361,-90.9090909090909,4,1,17,60,0,0
18642,-90.9090909090909,4,1,18,60,0,0
18736,-90.9090909090909,4,1,19,60,0,0
18923,-90.9090909090909,4,1,20,60,0,0
19111,-90.9090909090909,4,1,21,60,0,0
19392,-90.9090909090909,4,1,22,60,0,0
19486,-90.9090909090909,4,1,23,60,0,0
19767,-90.9090909090909,4,1,24,60,0,0
19861,-90.9090909090909,4,1,25,60,0,0
20611,-90.9090909090909,4,1,26,60,0,0
20986,-90.9090909090909,4,1,27,60,0,0
21361,-90.9090909090909,4,1,28,60,0,0
21642,-90.9090909090909,4,1,29,60,0,0
21736,-90.9090909090909,4,1,30,60,0,0
21923,-90.9090909090909,4,1,31,60,0,0
22111,-90.9090909090909,4,1,32,60,0,0
22392,-90.9090909090909,4,1,33,60,0,0
22486,-90.9090909090909,4,1,34,60,0,0
22767,-90.9090909090909,4,1,35,60,0,0
22861,-90.9090909090909,4,1,36,60,0,0
23611,-90.9090909090909,4,1,37,60,0,0
23986,-90.9090909090909,4,1,38,60,0,0
24361,-90.9090909090909,4,1,39,60,0,0
24642,-90.9090909090909,4,1,40,60,0,0
24736,-90.9090909090909,4,1,41,60,0,0
25111,-90.9090909090909,4,1,42,60,0,0
25392,-90.9090909090909,4,1,43,60,0,0
25486,-66.6666666666667,4,1,44,60,0,0
25767,-66.6666666666667,4,1,45,60,0,0
25861,-66.6666666666667,4,1,46,60,0,0
26236,-83.3333333333333,4,1,46,60,0,0
26423,-83.3333333333333,4,1,47,55,0,0
26517,-83.3333333333333,4,1,47,60,0,0
26611,-83.3333333333333,4,1,48,60,0,0
26798,-83.3333333333333,4,1,49,55,0,0
26892,-83.3333333333333,4,1,49,60,0,0
26986,-90.9090909090909,4,1,3,60,0,0
27361,-90.9090909090909,4,1,4,60,0,0
27642,-90.9090909090909,4,1,5,60,0,0
27736,-90.9090909090909,4,1,6,60,0,0
28111,-90.9090909090909,4,1,7,60,0,0
28298,-90.9090909090909,4,1,8,60,0,0
28392,-90.9090909090909,4,1,9,60,0,0
28486,-90.9090909090909,4,1,10,60,0,0
28767,-90.9090909090909,4,1,11,60,0,0
28861,-90.9090909090909,4,1,12,60,0,0
29423,-90.9090909090909,4,1,13,60,0,0
29611,-90.9090909090909,4,1,14,60,0,0
29798,-90.9090909090909,4,1,15,60,0,0
29986,-90.9090909090909,4,1,50,60,0,0
30361,-90.9090909090909,4,1,51,60,0,0
30642,-90.9090909090909,4,1,52,60,0,0
30736,-90.9090909090909,4,1,53,60,0,0
30923,-90.9090909090909,4,1,54,60,0,0
31111,-90.9090909090909,4,1,55,60,0,0
31392,-90.9090909090909,4,1,56,60,0,0
31486,-90.9090909090909,4,1,57,60,0,0
31767,-90.9090909090909,4,1,58,60,0,0
31861,-90.9090909090909,4,1,59,60,0,0
32611,-90.9090909090909,4,1,60,60,0,0
32986,-90.9090909090909,4,1,61,60,0,0
33361,-90.9090909090909,4,1,62,60,0,0
33642,-90.9090909090909,4,1,63,60,0,0
33736,-90.9090909090909,4,1,64,60,0,0
33923,-90.9090909090909,4,1,65,60,0,0
34111,-90.9090909090909,4,1,66,60,0,0
34392,-90.9090909090909,4,1,67,60,0,0
34486,-90.9090909090909,4,1,68,60,0,0
34861,-90.9090909090909,4,1,69,60,0,0
35142,-90.9090909090909,4,1,70,60,0,0
35236,-90.9090909090909,4,1,71,60,0,0
35423,-90.9090909090909,4,1,72,60,0,0
35611,-90.9090909090909,4,1,73,60,0,0
35892,-90.9090909090909,4,1,74,60,0,0
35986,-90.9090909090909,4,1,75,60,0,0
36361,-90.9090909090909,4,1,76,60,0,0
36642,-90.9090909090909,4,1,77,60,0,0
36736,-90.9090909090909,4,1,78,60,0,0
37111,-90.9090909090909,4,1,79,60,0,0
37392,-90.9090909090909,4,1,80,60,0,0
37486,-90.9090909090909,4,1,81,60,0,0
37767,-90.9090909090909,4,1,82,60,0,0
37861,-90.9090909090909,4,1,83,60,0,0
38236,-90.9090909090909,4,1,99,60,0,0
38986,-100,4,1,99,60,0,0
49673,-100,4,1,99,40,0,0
50986,-100,4,1,99,60,0,0
61486,-66.6666666666667,4,1,99,60,0,0
62986,-133.333333333333,4,2,3,50,0,0
63736,-133.333333333333,4,2,4,50,0,0
64486,-133.333333333333,4,2,5,50,0,0
65236,-133.333333333333,4,2,6,50,0,0
65986,-133.333333333333,4,2,7,50,0,0
66736,-133.333333333333,4,2,8,50,0,0
67486,-133.333333333333,4,2,11,50,0,0
68986,-133.333333333333,4,2,12,50,0,0
69736,-133.333333333333,4,2,13,50,0,0
70486,-133.333333333333,4,2,14,50,0,0
71236,-133.333333333333,4,2,15,50,0,0
71986,-133.333333333333,4,2,16,50,0,0
72736,-133.333333333333,4,2,17,50,0,0
73111,-133.333333333333,4,2,18,50,0,0
73486,-133.333333333333,4,2,19,50,0,0
74986,-117.647058823529,4,1,20,51,0,0
75736,-117.647058823529,4,1,21,52,0,0
76486,-117.647058823529,4,1,22,53,0,0
77236,-117.647058823529,4,1,23,54,0,0
77986,-117.647058823529,4,1,24,55,0,0
78736,-117.647058823529,4,1,25,56,0,0
79486,-117.647058823529,4,1,26,57,0,0
80236,-117.647058823529,4,1,27,58,0,0
80986,-100,4,1,28,60,0,0
81736,-100,4,1,29,60,0,0
82486,-100,4,1,30,60,0,0
83236,-100,4,1,31,60,0,0
83986,-100,4,1,32,60,0,0
84736,-100,4,1,33,60,0,0
85486,-100,4,1,34,60,0,0
86236,-100,4,1,35,60,0,0
86611,-100,4,1,36,60,0,0
86986,375,7,1,37,60,1,0
86986,-100,7,1,37,60,0,0
87173,-100,7,1,37,40,0,0
89611,-100,7,1,37,30,0,0
92236,-125,7,1,99,40,0,0
95236,-40,7,1,99,40,0,0
95423,-100,7,1,99,40,0,0
96548,-40,7,1,99,40,0,0
96736,-100,7,1,99,40,0,0
97486,-125,7,1,99,50,0,0
107236,-40,7,1,99,50,0,0
107423,-100,7,1,99,50,0,0
108548,-100,7,1,99,35,0,0
110611,-100,7,1,99,42,0,0
111736,-100,7,1,99,49,0,0
113236,-100,7,1,99,55,0,0
115861,375,4,1,99,60,1,0
115907,-100,4,1,99,56,0,0
115954,-100,4,1,99,52,0,0
116001,-100,4,1,99,48,0,0
116048,-100,4,1,99,44,0,0
116095,-100,4,1,99,40,0,0
116142,-100,4,1,99,36,0,0
116189,-100,4,1,99,34,0,0
116236,-100,4,1,99,40,0,0
117173,-100,4,1,99,50,0,0
117361,-66.6666666666667,4,1,99,60,0,0
118861,375,4,1,3,60,1,0
118861,-83.3333333333333,4,1,3,60,0,0
119236,-83.3333333333333,4,1,4,60,0,0
119517,-83.3333333333333,4,1,5,60,0,0
119611,-83.3333333333333,4,1,6,60,0,0
119986,-83.3333333333333,4,1,7,60,0,0
120173,-83.3333333333333,4,1,8,60,0,0
120267,-83.3333333333333,4,1,9,60,0,0
120361,-83.3333333333333,4,1,10,60,0,0
120642,-83.3333333333333,4,1,11,60,0,0
120736,-83.3333333333333,4,1,12,60,0,0
121298,-83.3333333333333,4,1,13,60,0,0
121486,-83.3333333333333,4,1,14,60,0,0
121673,-83.3333333333333,4,1,15,60,0,0
121861,-83.3333333333333,4,1,16,60,0,0
122236,-83.3333333333333,4,1,17,60,0,0
122517,-83.3333333333333,4,1,18,60,0,0
122611,-83.3333333333333,4,1,19,60,0,0
122798,-83.3333333333333,4,1,20,60,0,0
122986,-83.3333333333333,4,1,21,60,0,0
123267,-83.3333333333333,4,1,22,60,0,0
123361,-83.3333333333333,4,1,23,60,0,0
123642,-83.3333333333333,4,1,24,60,0,0
123736,-83.3333333333333,4,1,25,60,0,0
124486,-83.3333333333333,4,1,26,60,0,0
124861,-83.3333333333333,4,1,27,60,0,0
125236,-83.3333333333333,4,1,28,60,0,0
125517,-83.3333333333333,4,1,29,60,0,0
125611,-83.3333333333333,4,1,30,60,0,0
125798,-83.3333333333333,4,1,31,60,0,0
125986,-83.3333333333333,4,1,32,60,0,0
126267,-83.3333333333333,4,1,33,60,0,0
126361,-83.3333333333333,4,1,34,60,0,0
126642,-83.3333333333333,4,1,35,60,0,0
126736,-83.3333333333333,4,1,36,60,0,0
127486,-83.3333333333333,4,1,37,60,0,0
127861,-83.3333333333333,4,1,38,60,0,0
128236,-83.3333333333333,4,1,39,60,0,0
128517,-83.3333333333333,4,1,40,60,0,0
128611,-83.3333333333333,4,1,41,60,0,0
128986,-83.3333333333333,4,1,42,60,0,0
129267,-83.3333333333333,4,1,43,60,0,0
129361,-66.6666666666667,4,1,44,60,0,0
129642,-66.6666666666667,4,1,45,60,0,0
129736,-66.6666666666667,4,1,46,60,0,0
130111,-83.3333333333333,4,1,46,60,0,0
130298,-83.3333333333333,4,1,47,55,0,0
130392,-83.3333333333333,4,1,47,60,0,0
130486,-83.3333333333333,4,1,48,60,0,0
130673,-83.3333333333333,4,1,49,55,0,0
130767,-83.3333333333333,4,1,49,60,0,0
130861,-83.3333333333333,4,1,3,60,0,0
131236,-83.3333333333333,4,1,4,60,0,0
131517,-83.3333333333333,4,1,5,60,0,0
131611,-83.3333333333333,4,1,6,60,0,0
131986,-83.3333333333333,4,1,7,60,0,0
132173,-83.3333333333333,4,1,8,60,0,0
132267,-83.3333333333333,4,1,9,60,0,0
132361,-83.3333333333333,4,1,10,60,0,0
132642,-83.3333333333333,4,1,11,60,0,0
132736,-83.3333333333333,4,1,12,60,0,0
133298,-83.3333333333333,4,1,13,60,0,0
133486,-83.3333333333333,4,1,14,60,0,0
133673,-83.3333333333333,4,1,15,60,0,0
133861,-83.3333333333333,4,1,50,60,0,0
134236,-83.3333333333333,4,1,51,60,0,0
134517,-83.3333333333333,4,1,52,60,0,0
134611,-83.3333333333333,4,1,53,60,0,0
134798,-83.3333333333333,4,1,54,60,0,0
134986,-83.3333333333333,4,1,55,60,0,0
135267,-83.3333333333333,4,1,56,60,0,0
135361,-83.3333333333333,4,1,57,60,0,0
135642,-83.3333333333333,4,1,58,60,0,0
135736,-83.3333333333333,4,1,59,60,0,0
136486,-83.3333333333333,4,1,60,60,0,0
136861,-83.3333333333333,4,1,61,60,0,0
137236,-83.3333333333333,4,1,62,60,0,0
137517,-83.3333333333333,4,1,63,60,0,0
137611,-83.3333333333333,4,1,64,60,0,0
137798,-83.3333333333333,4,1,65,60,0,0
137986,-83.3333333333333,4,1,66,60,0,0
138267,-83.3333333333333,4,1,67,60,0,0
138361,-83.3333333333333,4,1,68,60,0,0
138736,-83.3333333333333,4,1,69,60,0,0
139017,-83.3333333333333,4,1,70,60,0,0
139111,-83.3333333333333,4,1,71,60,0,0
139298,-83.3333333333333,4,1,72,60,0,0
139486,-83.3333333333333,4,1,73,60,0,0
139767,-83.3333333333333,4,1,74,60,0,0
139861,-83.3333333333333,4,1,75,60,0,0
140236,-83.3333333333333,4,1,76,60,0,0
140517,-83.3333333333333,4,1,77,60,0,0
140611,-83.3333333333333,4,1,78,60,0,0
140986,-83.3333333333333,4,1,79,60,0,0
141267,-83.3333333333333,4,1,80,60,0,0
141361,-83.3333333333333,4,1,84,60,0,0
141736,-83.3333333333333,4,1,85,60,0,0
142017,-83.3333333333333,4,1,86,60,0,0
142111,-83.3333333333333,4,1,87,60,0,0
142486,-83.3333333333333,4,1,88,60,0,0
142767,-83.3333333333333,4,1,89,60,0,0
142861,-83.3333333333333,4,1,90,60,0,0
143142,-100,4,1,91,60,0,0
143236,-100,4,1,92,60,0,0
143423,-83.3333333333333,4,1,99,60,0,0
147361,-100,4,1,98,60,0,0
147454,-100,4,1,97,40,0,0
148861,-100,4,1,97,30,0,0
149236,-100,4,1,97,20,0,0
149611,-100,4,1,97,10,0,0
150361,-100,4,1,97,5,0,0

[Colours]
Combo1 : 128,128,128
Combo2 : 128,0,0

[HitObjects]
54,297,2986,5,12,0:0:0:0:
225,297,3173,2,0,L|232:225,1,61.9999999999999,0|0,0:0|0:0,0:0:0:0:
333,231,3361,1,8,0:0:0:0:
143,168,3548,2,0,L|136:96,1,61.9999999999999,0|0,0:0|0:0,0:0:0:0:
35,102,3736,5,8,0:0:0:0:
225,297,3923,2,0,L|232:225,1,61.9999999999999,0|0,0:0|0:0,0:0:0:0:
333,231,4111,1,8,0:0:0:0:
143,168,4298,2,0,L|136:96,1,61.9999999999999,0|0,0:0|0:0,0:0:0:0:
35,102,4486,5,8,0:0:0:0:
225,297,4673,2,0,L|232:225,1,61.9999999999999,0|0,0:0|0:0,0:0:0:0:
333,231,4861,1,8,0:0:0:0:
143,168,5048,2,0,L|136:96,1,61.9999999999999,0|0,0:0|0:0,0:0:0:0:
35,102,5236,5,8,0:0:0:0:
225,297,5423,2,0,L|232:225,1,61.9999999999999,0|0,0:0|0:0,0:0:0:0:
333,231,5611,1,8,0:0:0:0:
143,168,5798,2,0,L|136:96,1,61.9999999999999,0|0,0:0|0:0,0:0:0:0:
239,95,5986,5,8,0:0:0:0:
384,103,6173,2,0,L|391:31,1,61.9999999999999,0|0,0:0|0:0,0:0:0:0:
492,37,6361,1,8,0:0:0:0:
302,297,6548,2,0,L|295:225,1,61.9999999999999,0|0,0:0|0:0,0:0:0:0:
194,231,6736,5,8,0:0:0:0:
384,103,6923,2,0,L|391:31,1,61.9999999999999,0|0,0:0|0:0,0:0:0:0:
492,37,7111,1,8,0:0:0:0:
302,297,7298,2,0,L|295:225,1,61.9999999999999,0|0,0:0|0:0,0:0:0:0:
194,231,7486,5,8,0:0:0:0:
384,103,7673,2,0,L|391:31,1,61.9999999999999,0|0,0:0|0:0,0:0:0:0:
492,37,7861,1,8,0:0:0:0:
302,297,8048,2,0,L|295:225,1,61.9999999999999,0|0,0:0|0:0,0:0:0:0:
194,231,8236,5,8,0:0:0:0:
384,103,8423,2,0,L|391:31,1,61.9999999999999,0|0,0:0|0:0,0:0:0:0:
279,51,8611,1,8,0:0:0:0:
364,43,8704,1,8,0:0:0:0:
279,51,8798,1,8,0:0:0:0:
364,43,8891,1,8,0:0:0:0:
253,129,8986,5,10,0:2:0:0:
128,254,9173,2,0,L|117:171,1,61.9999999999999,0|0,0:0|0:0,0:0:0:0:
19,179,9361,1,10,0:2:0:0:
207,109,9548,2,0,L|196:26,1,61.9999999999999,0|0,0:0|0:0,0:0:0:0:
98,34,9736,5,10,0:2:0:0:
293,305,9923,2,0,L|304:222,1,61.9999999999999,0|0,0:0|0:0,0:0:0:0:
402,230,10111,1,10,0:2:0:0:
214,160,10298,2,0,L|225:77,1,61.9999999999999,0|0,0:0|0:0,0:0:0:0:
323,85,10486,5,10,0:2:0:0:
127,254,10673,2,0,L|116:171,1,61.9999999999999,0|0,0:0|0:0,0:0:0:0:
18,179,10861,1,10,0:2:0:0:
206,109,11048,2,0,L|195:26,1,61.9999999999999,0|0,0:0|0:0,0:0:0:0:
97,34,11236,5,10,0:2:0:0:
293,305,11423,2,0,L|304:222,1,61.9999999999999,0|0,0:0|0:0,0:0:0:0:
402,230,11611,1,10,0:2:0:0:
214,160,11798,2,0,L|225:77,1,61.9999999999999,0|0,0:0|0:0,0:0:0:0:
323,85,11986,5,10,0:2:0:0:
146,218,12173,2,0,L|135:135,1,61.9999999999999,0|0,0:0|0:0,0:0:0:0:
37,143,12361,5,10,0:2:0:0:
240,100,12548,2,0,L|229:17,1,61.9999999999999,0|0,0:0|0:0,0:0:0:0:
131,25,12736,5,10,0:2:0:0:
359,90,12923,2,0,L|348:7,1,61.9999999999999,0|0,0:0|0:0,0:0:0:0:
250,15,13111,5,10,0:2:0:0:
436,96,13298,2,0,L|425:13,1,61.9999999999999,0|0,0:0|0:0,0:0:0:0:
229,193,13486,6,0,L|328:194,1,61.9999999999999,14|0,0:2|0:0,0:0:0:0:
357,193,13673,1,0,0:0:0:0:
85,308,13861,2,0,L|184:309,2,61.9999999999999,14|0|0,0:2|0:0|0:0,0:0:0:0:
444,35,14236,6,0,L|360:31,2,61.9999999999999,14|8|8,0:0|0:0|0:0,0:0:0:0:
256,101,14611,2,0,L|341:102,3,61.9999999999999,14|8|8|8,0:0|0:0|0:0|0:0,0:0:0:0:
104,293,14986,5,14,0:0:0:0:
47,259,15079,1,0,0:0:0:0:
46,194,15173,1,0,0:0:0:0:
100,158,15267,1,0,0:0:0:0:
225,121,15361,1,10,0:0:0:0:
157,111,15454,1,0,0:0:0:0:
89,102,15548,1,0,0:0:0:0:
22,92,15642,1,2,0:0:0:0:
131,184,15736,6,0,L|222:177,3,68.2000020812989,10|0|0|0,0:0|0:0|0:0|0:0,0:0:0:0:
308,145,16111,1,10,0:0:0:0:
328,204,16204,1,0,0:0:0:0:
273,233,16298,1,2,0:0:0:0:
379,269,16392,1,2,0:0:0:0:
273,233,16486,5,10,0:0:0:0:
207,230,16579,1,0,0:0:0:0:
176,174,16673,1,0,0:0:0:0:
209,117,16767,1,2,0:0:0:0:
337,117,16861,1,10,0:0:0:0:
402,114,16954,1,0,0:0:0:0:
433,58,17048,1,0,0:0:0:0:
400,1,17142,1,0,0:0:0:0:
295,21,17236,6,0,L|367:21,1,68.2000020812989,8|0,0:0|0:0,0:0:0:0:
482,21,17423,2,0,L|457:109,1,68.2000020812989,2|0,0:0|0:0,0:0:0:0:
351,145,17611,2,0,L|248:145,1,68.2000020812989,10|0,0:0|0:0,0:0:0:0:
395,226,17798,2,0,L|498:226,1,68.2000020812989,2|0,0:0|0:0,0:0:0:0:
293,328,17986,6,0,L|279:239,1,68.2000020812989,10|0,0:0|0:0,0:0:0:0:
378,216,18173,2,0,L|364:127,1,68.2000020812989,0|0,0:0|0:0,0:0:0:0:
253,144,18361,1,10,0:0:0:0:
320,138,18454,1,0,0:0:0:0:
388,132,18548,1,0,0:0:0:0:
456,126,18642,1,2,0:0:0:0:
261,26,18736,6,0,L|153:21,1,68.2000020812989,10|0,0:0|0:0,0:0:0:0:
300,79,18923,2,0,L|408:74,1,68.2000020812989,2|0,0:0|0:0,0:0:0:0:
242,127,19111,1,10,0:0:0:0:
191,166,19204,1,0,0:0:0:0:
208,228,19298,1,0,0:0:0:0:
271,235,19392,1,2,0:0:0:0:
119,316,19486,6,0,L|32:314,2,68.2000020812989,10|0|0,0:0|0:0|0:0,0:0:0:0:
218,322,19767,1,2,0:0:0:0:
119,316,19861,1,10,0:0:0:0:
61,286,19954,1,0,0:0:0:0:
63,222,20048,1,0,0:0:0:0:
122,196,20142,1,0,0:0:0:0:
218,186,20236,6,0,L|234:93,1,68.2000020812989,8|0,0:0|0:0,0:0:0:0:
325,107,20423,2,0,L|341:14,1,68.2000020812989,0|0,0:0|0:0,0:0:0:0:
226,37,20611,2,0,L|131:27,1,68.2000020812989,10|0,0:0|0:0,0:0:0:0:
257,114,20798,2,0,L|352:104,1,68.2000020812989,0|0,0:0|0:0,0:0:0:0:
137,130,20986,5,10,0:0:0:0:
83,167,21079,1,0,0:0:0:0:
90,232,21173,1,0,0:0:0:0:
150,257,21267,1,0,0:0:0:0:
252,199,21361,5,10,0:0:0:0:
306,236,21454,1,0,0:0:0:0:
299,301,21548,1,0,0:0:0:0:
239,326,21642,1,2,0:0:0:0:
341,350,21736,6,0,L|235:341,1,68.2000020812989,10|0,0:0|0:0,0:0:0:0:
171,141,21923,2,0,L|238:146,1,68.2000020812989,2|0,0:0|0:0,0:0:0:0:
341,47,22111,2,0,L|235:38,2,68.2000020812989,10|0|0,0:0|0:0|0:0,0:0:0:0:
238,82,22392,1,2,0:0:0:0:
409,207,22486,6,0,L|515:198,2,68.2000020812989,10|0|0,0:0|0:0|0:0,0:0:0:0:
305,216,22767,1,2,0:0:0:0:
201,192,22861,1,10,0:0:0:0:
269,186,22954,1,0,0:0:0:0:
337,181,23048,1,0,0:0:0:0:
405,176,23142,1,0,0:0:0:0:
311,269,23236,6,0,L|286:171,1,68.2000020812989,8|0,0:0|0:0,0:0:0:0:
383,161,23423,2,0,L|405:78,1,68.2000020812989,0|0,0:0|0:0,0:0:0:0:
296,57,23611,2,0,L|220:47,1,68.2000020812989,10|0,0:0|0:0,0:0:0:0:
124,111,23798,2,0,L|200:101,1,68.2000020812989,0|0,0:0|0:0,0:0:0:0:
397,135,23986,6,0,L|498:123,3,68.2000020812989,10|0|0|0,0:0|0:0|0:0|0:0,0:0:0:0:
351,107,24361,6,0,L|413:45,3,68.2000020812989,10|0|0|2,0:0|0:0|0:0|0:0,0:0:0:0:
274,72,24736,6,0,L|301:-11,3,68.2000020812989,10|0|0|0,0:0|0:0|0:0|0:0,0:0:0:0:
168,71,25111,6,0,L|170:-21,3,68.2000020812989,10|0|0|2,0:0|0:0|0:0|0:0,0:0:0:0:
405,52,25486,6,0,P|453:151|313:228,1,279.000010643006,14|2,0:0|0:0,0:0:0:0:
107,51,25861,6,0,P|64:173|177:235,1,279.000010643006,14|0,0:0|0:0,0:0:0:0:
356,25,26236,6,0,L|80:49,1,223.199993188477,12|0,0:0|0:0,0:0:0:0:
378,44,26611,6,0,L|156:25,1,223.199993188477,14|0,0:0|0:0,0:0:0:0:
358,92,26986,5,14,0:0:0:0:
397,144,27079,1,0,0:0:0:0:
377,207,27173,1,0,0:0:0:0:
314,227,27267,1,0,0:0:0:0:
427,179,27361,1,10,0:0:0:0:
481,214,27454,1,0,0:0:0:0:
484,280,27548,1,0,0:0:0:0:
431,320,27642,1,2,0:0:0:0:
317,329,27736,6,0,L|216:324,3,68.2000020812989,10|0|0|0,0:0|0:0|0:0|0:0,0:0:0:0:
135,325,28111,2,0,L|154:245,1,68.2000020812989,10|0,0:0|0:0,0:0:0:0:
263,229,28298,2,0,L|282:149,1,68.2000020812989,2|2,0:0|0:0,0:0:0:0:
162,156,28486,5,10,0:0:0:0:
95,150,28579,1,0,0:0:0:0:
55,98,28673,1,0,0:0:0:0:
65,33,28767,1,2,0:0:0:0:
176,262,28861,1,10,0:0:0:0:
243,256,28954,1,0,0:0:0:0:
283,204,29048,1,0,0:0:0:0:
273,139,29142,1,0,0:0:0:0:
149,81,29236,6,0,L|178:157,1,68.2000020812989,8|0,0:0|0:0,0:0:0:0:
284,183,29423,2,0,L|393:183,1,68.2000020812989,2|0,0:0|0:0,0:0:0:0:
233,230,29611,2,0,L|208:166,1,68.2000020812989,10|0,0:0|0:0,0:0:0:0:
338,120,29798,2,0,L|447:120,1,68.2000020812989,2|0,0:0|0:0,0:0:0:0:
244,40,29986,6,0,L|137:60,1,68.2000020812989,10|0,0:0|0:0,0:0:0:0:
83,119,30173,2,0,L|15:131,1,68.2000020812989,0|0,0:0|0:0,0:0:0:0:
125,163,30361,1,10,0:0:0:0:
167,212,30454,1,0,0:0:0:0:
142,271,30548,1,0,0:0:0:0:
77,276,30642,1,2,0:0:0:0:
284,41,30736,6,0,L|391:61,1,68.2000020812989,10|0,0:0|0:0,0:0:0:0:
258,133,30923,2,0,L|325:145,1,68.2000020812989,2|0,0:0|0:0,0:0:0:0:
431,163,31111,1,10,0:0:0:0:
363,84,31204,1,0,0:0:0:0:
369,64,31298,1,0,0:0:0:0:
457,32,31392,1,2,0:0:0:0:
240,327,31486,6,0,L|144:312,2,68.2000020812989,10|0|0,0:0|0:0|0:0,0:0:0:0:
336,341,31767,1,2,0:0:0:0:
240,327,31861,1,10,0:0:0:0:
173,327,31954,1,0,0:0:0:0:
130,277,32048,1,0,0:0:0:0:
141,212,32142,1,0,0:0:0:0:
238,198,32236,6,0,L|267:101,1,68.2000020812989,8|0,0:0|0:0,0:0:0:0:
353,128,32423,2,0,L|382:31,1,68.2000020812989,0|0,0:0|0:0,0:0:0:0:
261,29,32611,2,0,L|345:28,1,68.2000020812989,10|0,0:0|0:0,0:0:0:0:
437,172,32798,2,0,L|466:75,1,68.2000020812989,0|0,0:0|0:0,0:0:0:0:
241,105,32986,5,10,0:0:0:0:
175,111,33079,1,0,0:0:0:0:
145,169,33173,1,0,0:0:0:0:
177,226,33267,1,0,0:0:0:0:
262,257,33361,1,10,0:0:0:0:
194,267,33454,1,0,0:0:0:0:
127,278,33548,1,0,0:0:0:0:
222,326,33642,1,2,0:0:0:0:
127,278,33736,5,10,0:0:0:0:
66,254,33829,1,0,0:0:0:0:
60,189,33923,1,2,0:0:0:0:
116,156,34017,1,0,0:0:0:0:
212,121,34111,2,0,L|132:113,2,68.2000020812989,10|0|0,0:0|0:0|0:0,0:0:0:0:
304,134,34392,1,2,0:0:0:0:
180,159,34486,5,10,0:0:0:0:
156,219,34579,1,0,0:0:0:0:
192,274,34673,1,0,0:0:0:0:
258,273,34767,1,0,0:0:0:0:
356,258,34861,1,10,0:0:0:0:
287,256,34954,1,0,0:0:0:0:
219,255,35048,1,0,0:0:0:0:
314,199,35142,1,2,0:0:0:0:
218,260,35236,5,10,0:0:0:0:
152,256,35329,1,0,0:0:0:0:
117,201,35423,1,2,0:0:0:0:
142,140,35517,1,0,0:0:0:0:
255,57,35611,2,0,L|342:48,2,68.2000020812989,10|0|0,0:0|0:0|0:0,0:0:0:0:
142,140,35892,1,2,0:0:0:0:
325,204,35986,5,10,0:0:0:0:
366,157,36079,1,0,0:0:0:0:
327,108,36173,1,0,0:0:0:0:
225,108,36267,1,0,0:0:0:0:
327,108,36361,1,10,0:0:0:0:
259,108,36454,1,0,0:0:0:0:
191,108,36548,1,0,0:0:0:0:
293,108,36642,1,2,0:0:0:0:
184,108,36736,5,10,0:0:0:0:
252,108,36829,1,0,0:0:0:0:
320,108,36923,1,0,0:0:0:0:
219,108,37017,1,0,0:0:0:0:
109,207,37111,1,10,0:0:0:0:
67,160,37204,1,0,0:0:0:0:
106,111,37298,1,0,0:0:0:0:
219,108,37392,1,2,0:0:0:0:
395,105,37486,6,0,L|507:104,1,68.2000020812989,10|0,0:0|0:0,0:0:0:0:
350,130,37673,2,0,L|334:50,1,68.2000020812989,0|2,0:0|0:0,0:0:0:0:
222,169,37861,2,0,L|110:168,1,68.2000020812989,10|0,0:0|0:0,0:0:0:0:
267,137,38048,2,0,L|283:57,1,68.2000020812989
398,169,38236,5,10,0:2:0:0:
490,159,38329,1,0,0:0:0:0:
387,118,38423,1,2,0:2:0:0:
479,108,38516,1,0,0:0:0:0:
375,66,38611,5,10,0:2:0:0:
296,101,38704,1,0,0:0:0:0:
296,187,38798,1,0,0:0:0:0:
374,223,38892,1,0,0:0:0:0:
185,236,38986,6,0,L|401:221,1,186,10|0,0:2|0:0,0:0:0:0:
462,220,39361,1,10,0:2:0:0:
288,306,39548,6,0,L|288:223,1,62,0|0,0:0|0:0,0:0:0:0:
389,182,39736,2,0,L|306:182,1,62,10|0,0:2|0:0,0:0:0:0:
427,83,39923,1,0,0:0:0:0:
244,122,40111,6,0,L|165:122,1,62,10|0,0:2|0:0,0:0:0:0:
282,108,40298,2,0,L|282:29,1,62,0|0,0:0|0:0,0:0:0:0:
383,37,40486,1,10,0:2:0:0:
201,258,40673,6,0,L|201:175,1,62,0|0,0:0|0:0,0:0:0:0:
302,134,40861,2,0,L|219:134,1,62,10|0,0:2|0:0,0:0:0:0:
340,35,41048,1,0,0:0:0:0:
153,88,41236,6,0,L|74:88,3,62,10|0|0|0,0:2|0:0|0:0|0:0,0:0:0:0:
183,182,41611,6,0,L|183:115,1,62,10|0,0:2|0:0,0:0:0:0:
91,88,41798,2,0,L|170:88,1,62,0|0,0:0|0:0,0:0:0:0:
327,236,41986,6,0,L|111:221,1,186,10|0,0:2|0:0,0:0:0:0:
50,220,42361,1,10,0:2:0:0:
224,306,42548,6,0,L|224:223,1,62,0|0,0:0|0:0,0:0:0:0:
123,182,42736,2,0,L|206:182,1,62,10|0,0:2|0:0,0:0:0:0:
85,83,42923,1,0,0:0:0:0:
268,122,43111,6,0,L|347:122,1,62,10|0,0:2|0:0,0:0:0:0:
230,108,43298,2,0,L|230:29,1,62,0|0,0:0|0:0,0:0:0:0:
129,37,43486,1,10,0:2:0:0:
311,258,43673,6,0,L|311:175,1,62,0|0,0:0|0:0,0:0:0:0:
210,134,43861,2,0,L|293:134,1,62,10|0,0:2|0:0,0:0:0:0:
172,35,44048,1,0,0:0:0:0:
360,129,44236,5,10,0:2:0:0:
443,126,44329,1,8,0:0:0:0:
360,129,44423,2,0,L|360:58,1,62,8|0,0:0|0:0,0:0:0:0:
251,26,44611,6,0,L|172:26,3,62,10|8|8|8,0:2|0:0|0:0|0:0,0:0:0:0:
417,66,44986,6,0,P|473:108|415:193,1,186,10|0,0:2|0:0,0:0:0:0:
337,193,45361,1,10,0:2:0:0:
160,276,45548,6,0,L|160:193,1,62,0|0,0:0|0:0,0:0:0:0:
261,152,45736,2,0,L|178:152,1,62,10|0,0:2|0:0,0:0:0:0:
299,53,45923,1,0,0:0:0:0:
118,137,46111,6,0,L|39:137,1,62,10|0,0:2|0:0,0:0:0:0:
156,123,46298,2,0,L|156:44,1,62,0|0,0:0|0:0,0:0:0:0:
257,52,46486,1,10,0:2:0:0:
452,333,46673,6,0,L|452:250,1,62,0|0,0:0|0:0,0:0:0:0:
351,209,46861,2,0,L|434:209,1,62,10|0,0:2|0:0,0:0:0:0:
313,110,47048,1,0,0:0:0:0:
131,213,47236,6,0,L|52:213,3,62,10|0|0|0,0:2|0:0|0:0|0:0,0:0:0:0:
169,203,47611,6,0,L|169:119,1,62,10|0,0:2|0:0,0:0:0:0:
270,106,47798,2,0,L|369:105,1,62,0|0,0:0|0:0,0:0:0:0:
95,66,47986,6,0,P|39:108|97:193,1,186,10|0,0:2|0:0,0:0:0:0:
175,193,48361,1,10,0:2:0:0:
352,276,48548,6,0,L|352:193,1,62,0|0,0:0|0:0,0:0:0:0:
251,152,48736,2,0,L|334:152,1,62,10|0,0:2|0:0,0:0:0:0:
213,53,48923,1,0,0:0:0:0:
394,137,49111,6,0,L|473:137,1,62,10|0,0:2|0:0,0:0:0:0:
356,123,49298,2,0,L|356:44,1,62,0|0,0:0|0:0,0:0:0:0:
171,143,49486,6,0,L|128:143,1,31,10|0,0:0|0:0,0:0:0:0:
372,143,49673,2,0,L|248:141,1,124,2|0,0:2|0:0,0:0:0:0:
396,230,50048,2,0,L|409:152,1,62,2|0,0:2|0:0,0:0:0:0:
309,196,50236,6,0,L|198:190,1,82.6666666666667
175,193,50423,1,2,0:2:0:0:
369,280,50611,2,0,L|442:269,3,62,0|0|2|0,0:0|0:0|0:2|0:0,0:0:0:0:
245,258,50986,6,0,L|460:228,1,186,10|0,0:2|0:0,0:0:0:0:
343,196,51361,1,10,0:2:0:0:
163,142,51548,6,0,L|193:72,1,62,0|0,0:0|0:0,0:0:0:0:
282,55,51736,2,0,L|217:50,1,62,10|0,0:2|0:0,0:0:0:0:
314,99,51923,1,0,0:0:0:0:
116,231,52111,6,0,L|51:226,1,62,10|0,0:2|0:0,0:0:0:0:
150,198,52299,2,0,L|180:128,1,62,0|0,0:0|0:0,0:0:0:0:
270,131,52486,1,10,0:2:0:0:
73,322,52673,6,0,L|103:252,1,62,0|0,0:0|0:0,0:0:0:0:
192,235,52861,2,0,L|127:230,1,62,10|0,0:2|0:0,0:0:0:0:
224,279,53048,1,0,0:0:0:0:
25,349,53236,6,0,L|110:349,3,62,10|0|0|0,0:2|0:0|0:0|0:0,0:0:0:0:
8,351,53611,2,0,L|8:262,1,62,10|0,0:2|0:0,0:0:0:0:
107,287,53798,2,0,L|107:198,1,62,0|0,0:0|0:0,0:0:0:0:
267,258,53986,6,0,L|52:228,1,186,10|0,0:2|0:0,0:0:0:0:
169,196,54361,1,10,0:2:0:0:
349,142,54548,6,0,L|319:72,1,62,0|0,0:0|0:0,0:0:0:0:
230,55,54736,2,0,L|295:50,1,62,10|0,0:2|0:0,0:0:0:0:
198,99,54923,1,0,0:0:0:0:
396,231,55111,6,0,L|461:226,1,62,10|0,0:2|0:0,0:0:0:0:
362,198,55299,2,0,L|332:128,1,62,0|0,0:0|0:0,0:0:0:0:
242,131,55486,1,10,0:2:0:0:
439,322,55673,6,0,L|409:252,1,62,2|0,0:2|0:0,0:0:0:0:
320,235,55861,2,0,L|385:230,1,62,10|0,0:2|0:0,0:0:0:0:
288,279,56048,1,2,0:2:0:0:
415,371,56236,5,10,0:2:0:0:
493,362,56329,1,0,0:0:0:0:
415,371,56423,2,0,L|385:301,1,62,2|0,0:2|0:0,0:0:0:0:
297,285,56611,6,0,L|204:291,1,62,10|0,0:2|0:0,0:0:0:0:
334,168,56798,2,0,L|427:174,1,62,2|0,0:2|0:0,0:0:0:0:
202,164,56986,6,0,P|124:73|196:38,1,186,10|0,0:2|0:0,0:0:0:0:
242,33,57361,1,10,0:2:0:0:
438,133,57548,6,0,L|408:63,1,62,0|0,0:0|0:0,0:0:0:0:
319,46,57736,2,0,L|384:41,1,62,10|0,0:2|0:0,0:0:0:0:
287,90,57923,1,0,0:0:0:0:
102,255,58111,6,0,L|37:250,1,62,10|0,0:2|0:0,0:0:0:0:
136,222,58299,2,0,L|166:152,1,62,0|0,0:0|0:0,0:0:0:0:
256,155,58486,1,10,0:2:0:0:
438,133,58673,6,0,L|408:63,1,62,0|0,0:0|0:0,0:0:0:0:
319,46,58861,2,0,L|384:41,1,62,10|0,0:2|0:0,0:0:0:0:
287,90,59048,1,0,0:0:0:0:
86,28,59236,6,0,L|13:27,1,62,10|0,0:2|0:0,0:0:0:0:
123,86,59423,2,0,L|153:163,1,62,0|0,0:0|0:0,0:0:0:0:
44,215,59611,2,0,L|181:214,1,124,10|0,0:2|0:0,0:0:0:0:
424,21,59986,6,0,L|541:20,2,62,10|8|8,0:2|0:0|0:0,0:0:0:0:
267,44,60361,2,0,L|150:43,2,62,10|8|8,0:2|0:0|0:0,0:0:0:0:
443,68,60736,5,10,0:2:0:0:
364,75,60829,1,8,0:0:0:0:
284,81,60923,1,8,0:0:0:0:
354,133,61017,1,8,0:0:0:0:
424,176,61111,1,10,0:2:0:0:
339,193,61204,1,8,0:0:0:0:
253,205,61298,1,8,0:0:0:0:
330,253,61392,1,8,0:0:0:0:
490,303,61486,6,0,L|228:287,1,186.000007095337,12|0,0:2|0:0,0:0:0:0:
144,170,61767,2,0,P|93:237|158:291,1,186.000007095337,12|0,0:2|0:0,0:0:0:0:
317,140,62048,6,0,L|131:151,1,186.000007095337,12|0,0:2|0:0,0:0:0:0:
291,307,62329,2,0,P|355:253|304:186,1,186.000007095337,12|0,0:2|0:0,0:0:0:0:
116,111,62611,5,12,0:2:0:0:
81,159,62657,1,8,0:0:0:0:
99,216,62704,1,8,0:0:0:0:
156,235,62751,1,8,0:0:0:0:
303,197,62798,1,8,0:0:0:0:
337,245,62844,1,8,0:0:0:0:
319,302,62891,1,8,0:0:0:0:
262,321,62938,1,8,0:0:0:0:
116,314,62986,6,0,P|66:257|141:191,1,186.000007095337,8|0,0:0|0:0,0:0:0:0:
241,184,63548,1,2,0:0:0:0:
370,137,63736,2,0,L|165:139,1,186.000007095337,8|0,0:0|0:0,0:0:0:0:
292,220,64298,1,2,0:0:0:0:
396,314,64486,6,0,P|446:257|371:191,1,186.000007095337,8|0,0:0|0:0,0:0:0:0:
271,184,65048,1,2,0:0:0:0:
142,137,65236,2,0,L|347:139,1,186.000007095337,8|2,0:0|0:0,0:0:0:0:
220,220,65798,1,0,0:0:0:0:
356,233,65986,6,0,P|338:301|210:342,1,186.000007095337,8|0,0:0|0:0,0:0:0:0:
111,349,66548,1,2,0:0:0:0:
247,358,66736,2,0,L|256:241,1,93.0000035476686,8|0,0:0|0:0,0:0:0:0:
102,264,67111,2,0,L|93:147,1,93.0000035476686,0|2,0:0|0:0,0:0:0:0:
261,156,67486,6,0,P|362:140|383:50,1,186.000007095337,8|0,0:0|0:0,0:0:0:0:
248,31,68048,2,0,L|217:26,2,31.0000011825562,2|2|2,0:0|0:0|0:0,0:0:0:0:
309,78,68236,2,0,L|420:68,3,93.0000035476686,2|2|2|2,0:0|0:0|0:0|0:0,0:0:0:0:
217,299,68986,6,0,L|205:193,1,93.0000035476686,8|0,0:0|0:0,0:0:0:0:
360,193,69361,2,0,L|372:87,1,93.0000035476686,2|2,0:0|0:0,0:0:0:0:
217,45,69736,1,8,0:0:0:0:
118,104,69923,1,0,0:0:0:0:
154,213,70111,1,2,0:0:0:0:
268,204,70298,1,2,0:0:0:0:
436,205,70486,6,0,L|229:180,1,186.000007095337,8|2,0:0|0:0,0:0:0:0:
375,121,71048,1,2,0:0:0:0:
247,103,71236,2,0,L|114:89,1,93.0000035476686,8|0,0:0|0:0,0:0:0:0:
273,196,71611,2,0,L|406:182,1,93.0000035476686,2|2,0:0|0:0,0:0:0:0:
223,333,71986,5,8,0:0:0:0:
104,344,72173,1,0,0:0:0:0:
32,250,72361,1,2,0:0:0:0:
74,139,72548,1,2,0:0:0:0:
214,111,72736,2,0,L|110:96,1,93.0000035476686,8|0,0:0|0:0,0:0:0:0:
265,166,73111,2,0,L|369:151,1,93.0000035476686,8|2,0:0|0:0,0:0:0:0:
185,313,73486,5,8,0:0:0:0:
329,285,73642,1,2,0:0:0:0:
367,277,73736,1,0,0:0:0:0:
329,285,73798,1,0,0:0:0:0:
274,285,73861,1,2,0:0:0:0:
215,273,73954,1,2,0:0:0:0:
190,219,74048,1,2,0:0:0:0:
219,167,74142,1,2,0:0:0:0:
306,153,74236,6,0,L|325:108,1,46.5000017738343,2|0,0:0|0:0,0:0:0:0:
411,86,74423,2,0,L|430:41,1,46.5000017738343,2|0,0:0|0:0,0:0:0:0:
331,244,74611,2,0,L|312:199,1,46.5000017738343,2|0,0:0|0:0,0:0:0:0:
226,177,74798,2,0,L|207:132,1,46.5000017738343,2|0,0:0|0:0,0:0:0:0:
28,82,74986,6,0,L|144:76,1,105.400002010345,10|0,0:2|0:0,0:0:0:0:
301,157,75361,2,0,L|279:281,1,105.400002010345,2|0,0:2|0:0,0:0:0:0:
118,163,75736,2,0,L|234:157,1,105.400002010345,10|0,0:2|0:0,0:0:0:0:
391,238,76111,2,0,L|369:362,1,105.400002010345,2|0,0:2|0:0,0:0:0:0:
191,357,76486,6,0,L|46:347,1,105.400002010345,10|0,0:2|0:0,0:0:0:0:
266,289,76861,2,0,L|283:177,1,105.400002010345,2|0,0:2|0:0,0:0:0:0:
94,56,77236,2,0,L|109:160,1,105.400002010345,10|0,0:2|0:0,0:0:0:0:
289,220,77611,2,0,L|183:227,1,105.400002010345,2|0,0:2|0:0,0:0:0:0:
386,290,77986,6,0,L|394:138,1,105.400002010345,10|0,0:2|0:0,0:0:0:0:
212,156,78361,2,0,L|73:145,1,105.400002010345,2|0,0:2|0:0,0:0:0:0:
295,367,78736,2,0,L|303:215,1,105.400002010345,10|0,0:2|0:0,0:0:0:0:
121,233,79111,2,0,L|-18:222,1,105.400002010345,2|0,0:2|0:0,0:0:0:0:
197,143,79486,6,0,L|314:128,1,105.400002010345,10|0,0:2|0:0,0:0:0:0:
110,234,79861,2,0,L|148:354,1,105.400002010345,2|0,0:2|0:0,0:0:0:0:
338,134,80236,2,0,L|221:119,1,105.400002010345,10|0,0:2|0:0,0:0:0:0:
34,180,80611,2,0,L|72:300,1,105.400002010345,2|0,0:2|0:0,0:0:0:0:
462,194,80986,6,0,L|310:193,1,124,10|0,0:2|0:0,0:0:0:0:
256,194,81267,1,0,0:0:0:0:
338,193,81361,2,0,B|399:192|399:192|325:192,1,124,2|0,0:2|0:0,0:0:0:0:
256,194,81642,1,0,0:0:0:0:
174,192,81736,6,0,B|112:192|112:192|174:193,1,124,10|0,0:2|0:0,0:0:0:0:
256,194,82017,1,0,0:0:0:0:
173,193,82111,2,0,L|50:194,1,124,2|0,0:2|0:0,0:0:0:0:
132,193,82392,1,0,0:0:0:0:
214,193,82486,6,0,L|358:193,1,124,10|0,0:2|0:0,0:0:0:0:
256,194,82767,1,0,0:0:0:0:
174,192,82861,2,0,B|112:192|112:192|174:193,1,124,2|0,0:2|0:0,0:0:0:0:
256,194,83142,1,0,0:0:0:0:
338,192,83236,6,0,L|352:106,1,62,10|0,0:2|0:0,0:0:0:0:
174,192,83423,2,0,L|160:106,1,62,0|0,0:0|0:0,0:0:0:0:
256,194,83611,2,0,L|103:194,1,124,2|0,0:2|0:0,0:0:0:0:
214,194,83892,1,0,0:0:0:0:
50,194,83986,6,0,L|202:193,1,124,10|0,0:2|0:0,0:0:0:0:
256,194,84267,1,0,0:0:0:0:
174,193,84361,2,0,B|113:192|113:192|187:192,1,124,2|0,0:2|0:0,0:0:0:0:
256,194,84642,1,0,0:0:0:0:
338,192,84736,6,0,B|400:192|400:192|338:193,1,124,10|0,0:2|0:0,0:0:0:0:
256,194,85017,1,0,0:0:0:0:
339,193,85111,2,0,L|462:194,1,124,2|0,0:2|0:0,0:0:0:0:
380,193,85392,1,0,0:0:0:0:
298,193,85486,6,0,L|154:193,1,124,10|0,0:2|0:0,0:0:0:0:
256,194,85767,1,0,0:0:0:0:
338,192,85861,2,0,B|400:192|400:192|338:193,1,124,2|0,0:2|0:0,0:0:0:0:
256,194,86142,1,0,0:0:0:0:
174,193,86236,6,0,L|174:47,1,124,10|0,0:2|0:0,0:0:0:0:
256,194,86517,1,0,0:0:0:0:
338,193,86611,2,0,L|338:47,1,124,10|0,0:2|0:0,0:0:0:0:
256,194,86892,1,0,0:0:0:0:
424,194,86986,5,14,0:2:0:0:
256,192,87079,12,0,89611,0:0:0:0:
375,332,92236,5,2,0:2:0:0:
393,224,92611,1,2,0:2:0:0:
238,176,92986,1,2,0:2:0:0:
220,68,93267,1,2,0:2:0:0:
305,102,93361,2,0,L|313:37,1,49.6,0|2,0:0|0:2,0:0:0:0:
215,172,93548,2,0,L|223:107,1,49.6,0|0,0:0|0:0,0:0:0:0:
308,161,93736,5,2,0:2:0:0:
215,173,94111,1,2,0:2:0:0:
28,220,94486,1,2,0:2:0:0:
215,173,94861,6,0,L|318:154,1,99.2,2|0,0:2|0:0,0:0:0:0:
28,220,95236,2,0,L|341:183,1,310,2|0,0:0|0:0,0:0:0:0:
250,156,95517,1,0,0:0:0:0:
164,144,95611,6,0,L|141:83,1,62,2|0,0:2|0:0,0:0:0:0:
235,74,95798,2,0,L|258:13,1,62,2|0,0:2|0:0,0:0:0:0:
347,36,95986,1,2,0:2:0:0:
266,36,96079,1,0,0:0:0:0:
185,36,96173,2,0,L|237:92,1,62,0|0,0:0|0:0,0:0:0:0:
388,178,96361,6,0,L|469:175,1,62,2|0,0:2|0:0,0:0:0:0:
341,140,96548,2,0,L|37:157,1,271.25,2|0,0:0|0:0,0:0:0:0:
70,155,96736,2,0,L|231:167,1,124,2|0,0:2|0:0,0:0:0:0:
29,353,97111,1,2,0:2:0:0:
207,248,97298,2,0,L|131:252,1,62,0|0,0:0|0:0,0:0:0:0:
341,326,97486,6,0,L|349:215,1,99.2,2|0,0:2|0:0,0:0:0:0:
192,240,97861,2,0,L|184:129,1,99.2,2|0,0:2|0:0,0:0:0:0:
356,107,98236,1,2,0:2:0:0:
230,66,98423,1,0,0:0:0:0:
153,119,98517,2,0,L|84:121,1,49.6,0|2,0:0|0:2,0:0:0:0:
187,176,98704,2,0,L|262:177,2,49.6,0|0|0,0:0|0:0|0:0,0:0:0:0:
290,229,98986,6,0,L|413:219,1,99.2,2|0,0:2|0:0,0:0:0:0:
200,301,99361,2,0,L|214:192,1,99.2,2|0,0:3|0:0,0:0:0:0:
371,153,99736,2,0,L|385:44,1,99.2,2|0,0:3|0:0,0:0:0:0:
300,50,100017,1,0,0:0:0:0:
208,79,100111,6,0,L|320:79,1,99.2,2|0,0:2|0:0,0:0:0:0:
462,257,100486,2,0,L|350:257,1,99.2,2|0,0:2|0:0,0:0:0:0:
173,256,100861,1,2,0:2:0:0:
314,251,101048,1,0,0:0:0:0:
228,310,101142,2,0,L|220:237,1,49.6,0|2,0:0|0:2,0:0:0:0:
314,251,101329,2,0,L|373:248,2,49.6,0|0|0,0:0|0:0|0:0,0:0:0:0:
220,193,101611,6,0,L|357:190,1,99.2,2|0,0:2|0:0,0:0:0:0:
153,179,101986,2,0,P|140:106|196:75,1,99.2,2|0,0:3|0:0,0:0:0:0:
334,68,102361,2,0,L|208:69,1,99.2,2|0,0:3|0:0,0:0:0:0:
297,24,102642,1,0,0:0:0:0:
395,24,102736,6,0,L|256:24,1,99.2,2|0,0:2|0:0,0:0:0:0:
137,169,103111,2,0,L|276:169,1,99.2,2|0,0:2|0:0,0:0:0:0:
34,290,103486,1,2,0:2:0:0:
157,333,103673,2,0,L|170:280,1,49.6,0|0,0:0|0:0,0:0:0:0:
93,235,103861,2,0,L|157:229,1,49.6,2|0,0:2|0:0,0:0:0:0:
233,186,104048,2,0,L|169:180,1,49.6,0|0,0:0|0:0,0:0:0:0:
93,145,104236,6,0,L|205:137,1,99.2,2|0,0:2|0:0,0:0:0:0:
351,82,104611,2,0,L|221:75,1,99.2,2|0,0:3|0:0,0:0:0:0:
428,61,104986,1,2,0:3:0:0:
400,42,105048,1,0,0:0:0:0:
373,23,105111,1,0,0:0:0:0:
346,4,105173,1,0,0:0:0:0:
178,78,105361,6,0,P|165:125|208:174,1,99.2,2|2,0:2|0:2,0:0:0:0:
327,214,105736,2,0,L|199:226,1,99.2,2|2,0:2|0:2,0:0:0:0:
92,243,106111,1,2,0:2:0:0:
260,307,106298,2,0,L|269:247,1,49.6,2|0,0:2|0:0,0:0:0:0:
180,229,106486,2,0,L|121:219,1,49.6,2|0,0:2|0:0,0:0:0:0:
215,126,106673,2,0,L|274:116,1,49.6,2|0,0:2|0:0,0:0:0:0:
169,61,106861,2,0,L|52:51,1,99.2,2|2,0:2|0:2,0:0:0:0:
379,221,107236,6,0,L|8:205,1,310,2|2,0:0|0:2,0:0:0:0:
163,189,107517,1,0,0:0:0:0:
256,162,107611,2,0,L|275:160,1,15.5,2|0,0:2|0:0,0:0:0:0:
256,162,107704,2,0,L|275:160,1,15.5,0|0,0:0|0:0,0:0:0:0:
190,162,107798,2,0,L|190:92,1,62,2|0,0:2|0:0,0:0:0:0:
401,55,107986,5,2,0:0:0:0:
493,58,108079,1,2,0:0:0:0:
401,55,108173,1,2,0:0:0:0:
493,58,108266,1,10,0:0:0:0:
276,269,108361,5,0,0:0:0:0:
112,324,108548,2,0,L|105:249,1,62,8|0,0:0|0:0,0:0:0:0:
252,192,108829,2,0,L|259:117,1,62,8|0,0:0|0:0,0:0:0:0:
80,275,109111,6,0,L|73:200,1,62,8|0,0:0|0:0,0:0:0:0:
252,192,109392,2,0,L|259:117,1,62,8|0,0:0|0:0,0:0:0:0:
37,190,109673,6,0,L|30:115,1,62,8|0,0:0|0:0,0:0:0:0:
252,192,109954,2,0,L|259:117,1,62,8|0,0:0|0:0,0:0:0:0:
23,183,110236,6,0,L|142:183,3,62,8|8|8|8,0:0|0:0|0:0|0:0,0:0:0:0:
255,180,110611,6,0,P|287:112|254:92,1,124,8|0,0:0|0:0,0:0:0:0:
152,98,110892,2,0,L|166:36,1,62,8|0,0:0|0:0,0:0:0:0:
360,98,111173,6,0,L|346:36,1,62,8|0,0:0|0:0,0:0:0:0:
125,196,111454,2,0,L|197:157,1,62,8|0,0:0|0:0,0:0:0:0:
387,196,111736,6,0,L|315:157,1,62,8|0,0:0|0:0,0:0:0:0:
114,287,112017,2,0,L|208:289,1,62,8|0,0:0|0:0,0:0:0:0:
398,287,112298,6,0,L|304:289,1,62,8|0,0:0|0:0,0:0:0:0:
120,124,112579,2,0,L|200:119,1,62,8|0,0:0|0:0,0:0:0:0:
392,124,112861,6,0,L|312:119,3,62,8|8|8|8,0:0|0:0|0:0|0:0,0:0:0:0:
171,183,113236,6,0,P|148:240|198:270,1,124,8|0,0:0|0:0,0:0:0:0:
286,288,113517,2,0,L|136:306,1,124,8|0,0:0|0:0,0:0:0:0:
274,96,113798,6,0,P|297:153|247:183,1,124,8|0,0:0|0:0,0:0:0:0:
159,201,114079,2,0,L|309:219,1,124,8|0,0:0|0:0,0:0:0:0:
162,302,114361,6,0,L|5:284,1,124,8|0,0:0|0:0,0:0:0:0:
151,118,114642,2,0,L|308:100,1,124,8|0,0:0|0:0,0:0:0:0:
162,335,114923,6,0,L|319:317,1,124,8|0,0:0|0:0,0:0:0:0:
173,151,115204,2,0,L|16:133,1,124,8|0,0:0|0:0,0:0:0:0:
178,90,115486,6,0,L|249:88,3,62,8|8|8|8,0:0|0:0|0:0|0:0,0:0:0:0:
421,90,115861,5,8,0:0:0:0:
440,136,115907,1,8,0:0:0:0:
421,182,115954,1,8,0:0:0:0:
374,201,116001,1,8,0:0:0:0:
223,205,116048,1,8,0:0:0:0:
204,251,116094,1,8,0:0:0:0:
223,297,116141,1,8,0:0:0:0:
270,316,116188,1,8,0:0:0:0:
389,302,116236,5,2,0:2:0:0:
420,269,116282,1,0,0:0:0:0:
422,223,116329,1,0,0:0:0:0:
394,188,116376,1,0,0:0:0:0:
349,181,116423,1,0,0:0:0:0:
304,188,116470,1,0,0:0:0:0:
276,223,116517,1,0,0:0:0:0:
278,269,116564,1,0,0:0:0:0:
309,302,116610,5,2,0:2:0:0:
389,302,116704,5,2,0:2:0:0:
309,302,116798,5,2,0:2:0:0:
389,302,116892,5,2,0:2:0:0:
199,360,116986,5,2,0:0:0:0:
325,375,117173,2,0,L|335:274,1,62,2|0,0:2|0:0,0:0:0:0:
131,158,117361,6,0,L|359:141,1,186.000007095337,12|0,0:2|0:0,0:0:0:0:
109,227,117642,6,0,P|106:133|185:90,1,186.000007095337,12|0,0:2|0:0,0:0:0:0:
381,158,117923,6,0,L|153:141,1,186.000007095337,12|0,0:2|0:0,0:0:0:0:
403,227,118204,6,0,P|406:133|327:90,1,186.000007095337,12|0,0:2|0:0,0:0:0:0:
89,61,118486,6,0,P|22:175|127:239,1,279.000010643006,2|0,0:2|0:0,0:0:0:0:
316,239,118861,5,10,0:0:0:0:
346,174,118954,1,0,0:0:0:0:
309,112,119048,1,0,0:0:0:0:
238,107,119142,1,0,0:0:0:0:
117,65,119236,1,10,0:0:0:0:
190,56,119329,1,0,0:0:0:0:
264,48,119423,1,0,0:0:0:0:
338,39,119517,1,2,0:0:0:0:
238,107,119611,6,0,L|142:118,3,74.3999977294923,10|0|0|0,0:0|0:0|0:0|0:0,0:0:0:0:
287,158,119986,1,10,0:0:0:0:
321,218,120079,1,0,0:0:0:0:
274,269,120173,1,2,0:0:0:0:
166,269,120267,1,2,0:0:0:0:
274,269,120361,5,10,0:0:0:0:
345,259,120454,1,0,0:0:0:0:
388,201,120548,1,0,0:0:0:0:
376,129,120642,1,2,0:0:0:0:
257,154,120736,1,10,0:0:0:0:
185,144,120829,1,0,0:0:0:0:
142,86,120923,1,0,0:0:0:0:
154,14,121017,1,0,0:0:0:0:
276,52,121111,6,0,L|293:161,1,74.3999977294923,8|0,0:0|0:0,0:0:0:0:
186,187,121298,2,0,L|87:187,1,74.3999977294923,2|0,0:0|0:0,0:0:0:0:
235,266,121486,2,0,L|218:375,1,74.3999977294923,10|0,0:0|0:0,0:0:0:0:
100,348,121673,2,0,L|1:348,1,74.3999977294923,2|0,0:0|0:0,0:0:0:0:
215,232,121861,6,0,L|312:233,1,74.3999977294923,10|0,0:0|0:0,0:0:0:0:
174,241,122048,2,0,L|163:168,1,74.3999977294923,0|0,0:0|0:0,0:0:0:0:
270,158,122236,1,10,0:0:0:0:
342,153,122329,1,0,0:0:0:0:
391,99,122423,1,0,0:0:0:0:
388,27,122517,1,2,0:0:0:0:
196,56,122611,6,0,L|105:49,1,74.3999977294923,10|0,0:0|0:0,0:0:0:0:
222,123,122798,2,0,L|313:116,1,74.3999977294923,2|0,0:0|0:0,0:0:0:0:
412,115,122986,1,10,0:0:0:0:
455,168,123079,1,0,0:0:0:0:
413,223,123173,1,0,0:0:0:0:
314,236,123267,1,2,0:0:0:0:
148,293,123361,6,0,L|69:287,2,74.3999977294923,10|0|0,0:0|0:0|0:0,0:0:0:0:
255,311,123642,1,2,0:0:0:0:
148,293,123736,1,10,0:0:0:0:
80,268,123829,1,0,0:0:0:0:
62,199,123923,1,0,0:0:0:0:
107,144,124017,1,0,0:0:0:0:
226,149,124111,6,0,L|198:63,1,74.3999977294923,8|0,0:0|0:0,0:0:0:0:
98,227,124298,2,0,L|70:141,1,74.3999977294923,0|0,0:0|0:0,0:0:0:0:
193,127,124486,2,0,L|320:114,1,74.3999977294923,10|0,0:0|0:0,0:0:0:0:
149,248,124673,2,0,L|22:235,1,74.3999977294923,0|0,0:0|0:0,0:0:0:0:
250,349,124861,5,10,0:0:0:0:
316,324,124954,1,0,0:0:0:0:
332,254,125048,1,0,0:0:0:0:
283,203,125142,1,0,0:0:0:0:
397,163,125236,1,10,0:0:0:0:
467,151,125329,1,0,0:0:0:0:
495,85,125423,1,0,0:0:0:0:
455,26,125517,1,2,0:0:0:0:
344,36,125611,6,0,L|320:131,1,74.3999977294923,10|0,0:0|0:0,0:0:0:0:
215,164,125798,2,0,L|105:164,1,74.3999977294923,2|0,0:0|0:0,0:0:0:0:
264,233,125986,2,0,L|387:233,2,74.3999977294923,10|0|0,0:0|0:0|0:0,0:0:0:0:
160,228,126267,1,2,0:0:0:0:
325,108,126361,6,0,L|448:108,2,74.3999977294923,10|0|0,0:0|0:0|0:0,0:0:0:0:
221,103,126642,1,2,0:0:0:0:
119,111,126736,1,10,0:0:0:0:
82,172,126829,1,0,0:0:0:0:
111,238,126923,1,0,0:0:0:0:
181,253,127017,1,0,0:0:0:0:
297,272,127111,5,8,0:0:0:0:
222,274,127204,1,0,0:0:0:0:
148,276,127298,1,0,0:0:0:0:
73,278,127392,1,0,0:0:0:0:
190,326,127486,1,10,0:0:0:0:
276,326,127579,1,0,0:0:0:0:
180,303,127673,1,0,0:0:0:0:
266,303,127766,1,0,0:0:0:0:
420,273,127861,5,10,0:0:0:0:
453,209,127954,1,0,0:0:0:0:
422,144,128048,1,0,0:0:0:0:
352,129,128142,1,0,0:0:0:0:
234,120,128236,2,0,L|149:122,3,74.3999977294923,10|0|0|2,0:0|0:0|0:0|0:0,0:0:0:0:
287,159,128611,5,10,0:0:0:0:
255,224,128704,1,0,0:0:0:0:
191,261,128798,1,0,0:0:0:0:
118,254,128892,1,0,0:0:0:0:
228,321,128986,2,0,L|313:323,3,74.3999977294923,10|0|0|2,0:0|0:0|0:0|0:0,0:0:0:0:
68,159,129361,6,0,L|388:129,1,279.000010643006,14|2,0:0|0:0,0:0:0:0:
166,132,129736,6,0,L|444:159,1,279.000010643006,14|0,0:0|0:0,0:0:0:0:
251,287,130111,6,0,P|154:265|127:106,1,223.199993188477,12|0,0:0|0:0,0:0:0:0:
261,287,130486,6,0,P|358:265|385:106,1,223.199993188477,14|0,0:0|0:0,0:0:0:0:
199,89,130861,5,14,0:0:0:0:
156,146,130954,1,0,0:0:0:0:
181,213,131048,1,0,0:0:0:0:
251,228,131142,1,0,0:0:0:0:
123,143,131236,1,10,0:0:0:0:
70,191,131329,1,0,0:0:0:0:
83,261,131423,1,0,0:0:0:0:
150,288,131517,1,2,0:0:0:0:
255,310,131611,6,0,L|148:314,3,74.3999977294923,10|0|0|0,0:0|0:0|0:0|0:0,0:0:0:0:
71,314,131986,2,0,L|45:231,1,74.3999977294923,10|0,0:0|0:0,0:0:0:0:
153,185,132173,2,0,L|179:102,1,74.3999977294923,2|2,0:0|0:0,0:0:0:0:
290,90,132361,5,10,0:0:0:0:
215,84,132454,1,0,0:0:0:0:
141,78,132548,1,0,0:0:0:0:
250,162,132642,1,2,0:0:0:0:
141,78,132736,2,0,L|171:166,1,74.3999977294923,10|0,0:0|0:0,0:0:0:0:
272,199,132923,2,0,L|346:196,1,74.3999977294923
151,236,133111,6,0,L|57:239,2,74.3999977294923,8|0|2,0:0|0:0|0:0,0:0:0:0:
255,146,133392,2,0,L|161:149,2,74.3999977294923,0|10|0,0:0|0:0|0:0,0:0:0:0:
350,269,133673,2,0,L|436:264,1,74.3999977294923,2|0,0:0|0:0,0:0:0:0:
205,328,133861,6,0,L|108:305,1,74.3999977294923,10|0,0:0|0:0,0:0:0:0:
32,281,134048,2,0,L|68:204,1,74.3999977294923,0|0,0:0|0:0,0:0:0:0:
175,223,134236,1,10,0:0:0:0:
104,218,134329,1,0,0:0:0:0:
81,152,134423,1,0,0:0:0:0:
132,104,134517,1,2,0:0:0:0:
307,328,134611,6,0,L|404:305,1,74.3999977294923,10|0,0:0|0:0,0:0:0:0:
480,281,134798,2,0,L|444:204,1,74.3999977294923,2|0,0:0|0:0,0:0:0:0:
337,223,134986,1,10,0:0:0:0:
407,218,135079,1,0,0:0:0:0:
430,152,135173,1,0,0:0:0:0:
379,104,135267,1,2,0:0:0:0:
210,107,135361,6,0,L|130:113,2,74.3999977294923,10|0|0,0:0|0:0|0:0,0:0:0:0:
312,101,135642,1,2,0:0:0:0:
210,107,135736,1,10,0:0:0:0:
150,145,135829,1,0,0:0:0:0:
152,216,135923,1,0,0:0:0:0:
213,252,136017,1,0,0:0:0:0:
328,257,136111,6,0,L|349:179,1,74.3999977294923,8|0,0:0|0:0,0:0:0:0:
445,172,136298,2,0,L|468:88,1,74.3999977294923,0|0,0:0|0:0,0:0:0:0:
362,53,136486,2,0,L|287:49,3,74.3999977294923,10|0|0|0,0:0|0:0|0:0|0:0,0:0:0:0:
134,160,136861,5,10,0:0:0:0:
127,232,136954,1,0,0:0:0:0:
171,289,137048,1,0,0:0:0:0:
243,301,137142,1,0,0:0:0:0:
354,322,137236,2,0,L|260:335,2,74.3999977294923,10|0|0,0:0|0:0|0:0,0:0:0:0:
460,310,137517,1,2,0:0:0:0:
354,322,137611,5,10,0:0:0:0:
282,330,137704,1,0,0:0:0:0:
234,277,137798,1,2,0:0:0:0:
247,207,137892,1,0,0:0:0:0:
355,142,137986,2,0,L|462:130,2,74.3999977294923,10|0|0,0:0|0:0|0:0,0:0:0:0:
247,207,138267,1,2,0:0:0:0:
355,142,138361,5,10,0:0:0:0:
362,214,138454,1,0,0:0:0:0:
318,271,138548,1,0,0:0:0:0:
246,283,138642,1,0,0:0:0:0:
135,304,138736,2,0,L|229:317,2,74.3999977294923,10|0|0,0:0|0:0|0:0,0:0:0:0:
29,292,139017,1,2,0:0:0:0:
135,304,139111,5,10,0:0:0:0:
206,312,139204,1,0,0:0:0:0:
254,259,139298,1,2,0:0:0:0:
241,189,139392,1,0,0:0:0:0:
134,124,139486,2,0,L|27:112,2,74.3999977294923,10|0|0,0:0|0:0|0:0,0:0:0:0:
241,189,139767,1,2,0:0:0:0:
415,185,139861,5,14,0:0:0:0:
462,136,139954,1,0,0:0:0:0:
418,85,140048,1,0,0:0:0:0:
316,71,140142,1,0,0:0:0:0:
418,85,140236,1,10,0:0:0:0:
343,90,140329,1,0,0:0:0:0:
269,95,140423,1,0,0:0:0:0:
371,117,140517,1,2,0:0:0:0:
269,95,140611,5,10,0:0:0:0:
237,159,140704,1,0,0:0:0:0:
268,224,140798,1,0,0:0:0:0:
338,241,140892,1,0,0:0:0:0:
450,275,140986,2,0,L|357:280,2,74.3999977294923,10|0|0,0:0|0:0|0:0,0:0:0:0:
338,241,141267,1,2,0:0:0:0:
122,339,141361,5,14,0:0:0:0:
68,298,141454,1,0,0:0:0:0:
106,243,141548,1,0,0:0:0:0:
207,252,141642,1,0,0:0:0:0:
106,243,141736,1,10,0:0:0:0:
179,234,141829,1,0,0:0:0:0:
253,225,141923,1,0,0:0:0:0:
154,195,142017,1,2,0:0:0:0:
253,225,142111,5,10,0:0:0:0:
179,234,142205,1,0,0:0:0:0:
106,243,142298,1,0,0:0:0:0:
207,252,142392,1,0,0:0:0:0:
307,335,142486,1,10,0:0:0:0:
360,294,142579,1,0,0:0:0:0:
322,239,142673,1,0,0:0:0:0:
222,248,142767,1,2,0:0:0:0:
390,211,142861,5,10,0:0:0:0:
216,126,143048,1,8,0:0:0:0:
141,120,143141,1,2,0:0:0:0:
67,115,143235,1,2,0:0:0:0:
279,17,143423,2,0,L|130:27,1,148.799995458985,8|2,0:0|0:2,0:0:0:0:
309,137,143798,2,0,L|515:123,1,148.799995458985,8|2,0:0|0:2,0:0:0:0:
233,17,144173,2,0,L|381:27,1,148.799995458985,8|2,0:0|0:2,0:0:0:0:
193,338,144548,6,0,L|99:338,2,74.3999977294923,8|8|10,0:0|0:0|0:2,0:0:0:0:
400,161,144923,2,0,L|494:161,2,74.3999977294923,8|8|10,0:0|0:0|0:2,0:0:0:0:
212,301,145298,1,8,0:0:0:0:
164,248,145391,1,8,0:0:0:0:
186,180,145485,1,10,0:2:0:0:
255,165,145579,1,0,0:0:0:0:
360,75,145673,1,8,0:0:0:0:
287,84,145766,1,8,0:0:0:0:
174,130,145861,5,10,0:2:0:0:
101,139,145954,1,8,0:0:0:0:
208,194,146048,1,8,0:0:0:0:
281,203,146141,1,8,0:0:0:0:
389,79,146236,5,10,0:2:0:0:
316,88,146329,1,8,0:0:0:0:
423,143,146423,1,8,0:0:0:0:
496,152,146516,1,8,0:0:0:0:
383,237,146611,5,10,0:2:0:0:
289,262,146704,1,8,0:0:0:0:
389,237,146798,5,8,0:0:0:0:
298,262,146891,1,8,0:0:0:0:
395,237,146986,5,10,0:2:0:0:
307,262,147079,1,8,0:0:0:0:
401,237,147173,5,8,0:0:0:0:
316,262,147266,1,8,0:0:0:0:
90,303,147361,5,12,0:0:0:0:
256,192,147454,12,0,151861,0:0:0:0:
