osu file format v14

[General]
AudioFilename: audio.mp3
AudioLeadIn: 0
PreviewTime: 117337
Countdown: 1
SampleSet: Normal
StackLeniency: 0.7
Mode: 1
LetterboxInBreaks: 0
EpilepsyWarning: 1
WidescreenStoryboard: 0

[Editor]
DistanceSpacing: 1.4
BeatDivisor: 4
GridSize: 32
TimelineZoom: 2.699999

[Metadata]
Title:conflict
TitleUnicode:conflict
Artist:siromaru + cranky
ArtistUnicode:siromaru + cranky
Creator:Antti
Version:ura oni
Source:THE BMS OF FIGHTERS 2011 - Intersection of conflict -
Tags:iimo pico HARMONIC SCHRANZ electronic conlang constructed language english BOF2011 FRENZ Arcaea SOUND VOLTEX III GRAVITY WARS maimai FiNALE DX Cytus II Deemo VOEZ Synchronica Taiko no Tatsujin 太鼓の達人 CHUNITHM O.N.G.E.K.I ongeki Muse Dash TAPSONIC TOP Groove Coaster Waiwai Party!!!! 2 Original Style RHYTHMVADERS WACCA SEVEN's CODE Dance Rail Respect PUMP IT UP Orzmic TAKUMI video rhythm game featured artist fa mappers' guild mappers mpg mg felinegroove feline groove
BeatmapID:4137845
BeatmapSetID:1991509

[Difficulty]
HPDrainRate:6
CircleSize:2
OverallDifficulty:6
ApproachRate:10
SliderMultiplier:1.4
SliderTickRate:1

[Events]
//Background and Video events
0,0,"bg.jpg",0,0
Video,1340,"output.mp4"
//Break Periods
2,49686,50536
2,63186,74535
//Storyboard Layer 0 (Background)
//Storyboard Layer 1 (Fail)
//Storyboard Layer 2 (Pass)
//Storyboard Layer 3 (Foreground)
//Storyboard Layer 4 (Overlay)
//Storyboard Sound Samples

[TimingPoints]
1486,375,4,1,0,70,1,8
2986,375,4,1,0,70,1,0
14608,-99.009900990099,4,1,0,70,0,0
14701,-98.0392156862745,4,1,0,70,0,0
14795,-97.0873786407767,4,1,0,70,0,0
14889,-96.1538461538461,4,1,0,70,0,0
14986,-95.2380952380952,4,1,0,75,0,1
38608,-96.1538461538461,4,1,0,75,0,1
38701,-97.0873786407767,4,1,0,75,0,1
38795,-98.0392156862745,4,1,0,75,0,1
38889,-99.009900990099,4,1,0,75,0,1
38986,-100,4,1,0,70,0,0
49673,-100,4,1,0,60,0,0
50798,-100,4,1,0,70,0,0
61392,-83.3333333333333,4,1,0,70,0,0
61673,-86.9565217391304,4,1,0,70,0,0
61954,-90.9090909090909,4,1,0,70,0,0
62236,-95.2380952380952,4,1,0,70,0,0
62423,-100,4,1,0,70,0,0
62986,375,32,1,0,70,1,0
63173,-100,32,1,0,55,0,0
74798,-100,32,1,0,60,0,0
74986,375,4,1,0,65,1,0
80986,-100,4,1,0,70,0,0
86986,375,7,1,0,65,1,0
87173,-100,7,1,0,60,0,0
97486,-100,7,1,0,65,0,0
102923,-100,7,1,0,63,0,0
103298,-100,7,1,0,60,0,0
103673,-100,7,1,0,58,0,0
104048,-100,7,1,0,55,0,0
105361,375,4,1,0,60,1,0
107142,-100,4,1,0,65,0,0
108267,-100,4,1,0,70,0,0
108545,-99.6486226257018,4,1,0,70,0,0
108826,-99.2997059263321,4,1,0,70,0,0
109108,-98.9519954305014,4,1,0,70,0,0
109389,-98.6079316958485,4,1,0,70,0,0
109670,-98.2662523429022,4,1,0,70,0,0
109951,-97.9269326713936,4,1,0,70,0,0
110233,-97.588753229895,4,1,0,70,0,0
110326,-97.4777375477053,4,1,0,70,0,0
110420,-97.3657845221513,4,1,0,70,0,0
110514,-97.2540883573346,4,1,0,70,0,0
110608,-97.1426481702709,4,1,0,70,0,0
110889,-96.8110307963312,4,1,0,70,0,0
111170,-96.4816698145189,4,1,0,70,0,0
111451,-96.1545422734896,4,1,0,70,0,0
111733,-95.828473165863,4,1,0,70,0,0
112014,-95.5057526366251,4,1,0,70,0,0
112295,-95.1851984567791,4,1,0,70,0,0
112576,-94.8667888859789,4,1,0,70,0,0
112858,-94.5493806653695,4,1,0,70,0,0
112951,-94.4451687071121,4,1,0,70,0,0
113045,-94.3400693729209,4,1,0,70,0,0
113139,-94.2352036894696,4,1,0,70,0,0
113233,-94.1305708784654,4,1,0,70,0,0
113514,-93.8191664704497,4,1,0,70,0,0
113795,-93.5098156557656,4,1,0,70,0,0
114076,-93.2024981871769,4,1,0,70,0,0
114358,-92.8961111629208,4,1,0,70,0,0
114639,-92.5928077615755,4,1,0,70,0,0
114920,-92.2914784703403,4,1,0,70,0,0
115201,-91.9921040784051,4,1,0,70,0,0
115483,-91.69361055817,4,1,0,70,0,0
115576,-91.5955955035517,4,1,0,70,0,0
115670,-91.4967392302746,4,1,0,70,0,0
115764,-91.3980961119394,4,1,0,70,0,0
115858,-91.2996654598781,4,1,0,70,0,0
115951,-91.2024903578745,4,1,0,70,0,0
116045,-91.1044803420562,4,1,0,70,0,0
116139,-91.0066807514418,4,1,0,70,0,0
116233,-90.9090909090909,4,1,0,70,0,0
117267,-83.3333333333333,4,1,0,70,0,0
117454,-86.9565217391304,4,1,0,70,0,0
117736,-90.9090909090909,4,1,0,70,0,0
118017,-95.2380952380952,4,1,0,70,0,0
118298,-100,4,1,0,70,0,0
118861,375,4,1,0,75,1,1
118861,-95.2380952380952,4,1,0,75,0,1
147361,-95.2380952380952,4,1,0,75,0,0

[HitObjects]
256,192,2986,5,12,0:0:0:0:
256,192,3173,1,0,0:0:0:0:
256,192,3267,1,8,0:0:0:0:
256,192,3361,1,8,0:0:0:0:
256,192,3548,1,0,0:0:0:0:
256,192,3642,1,0,0:0:0:0:
256,192,3736,1,8,0:0:0:0:
256,192,3923,1,0,0:0:0:0:
256,192,4017,1,0,0:0:0:0:
256,192,4111,1,8,0:0:0:0:
256,192,4298,1,0,0:0:0:0:
256,192,4392,1,0,0:0:0:0:
256,192,4486,1,8,0:0:0:0:
256,192,4673,1,0,0:0:0:0:
256,192,4767,1,8,0:0:0:0:
256,192,4861,1,8,0:0:0:0:
256,192,5048,1,0,0:0:0:0:
256,192,5142,1,0,0:0:0:0:
256,192,5236,1,8,0:0:0:0:
256,192,5423,1,0,0:0:0:0:
256,192,5517,1,0,0:0:0:0:
256,192,5611,1,8,0:0:0:0:
256,192,5798,1,0,0:0:0:0:
256,192,5892,1,0,0:0:0:0:
256,192,5986,1,8,0:0:0:0:
256,192,6173,1,0,0:0:0:0:
256,192,6267,1,8,0:0:0:0:
256,192,6361,1,8,0:0:0:0:
256,192,6548,1,0,0:0:0:0:
256,192,6642,1,0,0:0:0:0:
256,192,6736,1,8,0:0:0:0:
256,192,6923,1,0,0:0:0:0:
256,192,7017,1,0,0:0:0:0:
256,192,7111,1,8,0:0:0:0:
256,192,7298,1,0,0:0:0:0:
256,192,7392,1,0,0:0:0:0:
256,192,7486,1,8,0:0:0:0:
256,192,7673,1,0,0:0:0:0:
256,192,7767,1,8,0:0:0:0:
256,192,7861,1,8,0:0:0:0:
256,192,8048,1,0,0:0:0:0:
256,192,8142,1,0,0:0:0:0:
256,192,8236,1,8,0:0:0:0:
256,192,8423,1,0,0:0:0:0:
256,192,8517,1,0,0:0:0:0:
256,192,8611,1,8,0:0:0:0:
256,192,8704,1,8,0:0:0:0:
256,192,8798,1,8,0:0:0:0:
256,192,8892,1,0,0:0:0:0:
256,192,8986,1,0,0:0:0:0:
256,192,9173,1,8,0:0:0:0:
256,192,9267,1,8,0:0:0:0:
256,192,9361,1,0,0:0:0:0:
256,192,9548,1,8,0:0:0:0:
256,192,9642,1,8,0:0:0:0:
256,192,9736,1,0,0:0:0:0:
256,192,9923,1,8,0:0:0:0:
256,192,10017,1,8,0:0:0:0:
256,192,10111,1,0,0:0:0:0:
256,192,10298,1,8,0:0:0:0:
256,192,10392,1,0,0:0:0:0:
256,192,10486,1,0,0:0:0:0:
256,192,10673,1,8,0:0:0:0:
256,192,10767,1,8,0:0:0:0:
256,192,10861,1,0,0:0:0:0:
256,192,11048,1,8,0:0:0:0:
256,192,11142,1,8,0:0:0:0:
256,192,11236,1,0,0:0:0:0:
256,192,11423,1,8,0:0:0:0:
256,192,11517,1,8,0:0:0:0:
256,192,11611,1,0,0:0:0:0:
256,192,11798,1,8,0:0:0:0:
256,192,11892,1,0,0:0:0:0:
256,192,11986,1,0,0:0:0:0:
256,192,12173,1,8,0:0:0:0:
256,192,12267,1,8,0:0:0:0:
256,192,12361,1,0,0:0:0:0:
256,192,12548,1,8,0:0:0:0:
256,192,12642,1,0,0:0:0:0:
256,192,12736,1,0,0:0:0:0:
256,192,12923,1,8,0:0:0:0:
256,192,13017,1,8,0:0:0:0:
256,192,13111,1,0,0:0:0:0:
256,192,13298,1,8,0:0:0:0:
256,192,13392,1,0,0:0:0:0:
256,192,13486,1,0,0:0:0:0:
256,192,13579,1,0,0:0:0:0:
256,192,13673,1,8,0:0:0:0:
256,192,13861,1,0,0:0:0:0:
256,192,13954,1,0,0:0:0:0:
256,192,14048,1,8,0:0:0:0:
256,192,14236,1,0,0:0:0:0:
256,192,14329,1,0,0:0:0:0:
256,192,14423,1,8,0:0:0:0:
256,192,14611,1,0,0:0:0:0:
256,192,14704,1,0,0:0:0:0:
256,192,14798,1,8,0:0:0:0:
256,192,14892,1,0,0:0:0:0:
256,192,14986,1,8,0:0:0:0:
256,192,15079,1,8,0:0:0:0:
256,192,15173,1,8,0:0:0:0:
256,192,15267,1,0,0:0:0:0:
256,192,15361,1,8,0:0:0:0:
256,192,15454,1,8,0:0:0:0:
256,192,15548,1,0,0:0:0:0:
256,192,15642,1,0,0:0:0:0:
256,192,15736,1,8,0:0:0:0:
256,192,15829,1,8,0:0:0:0:
256,192,15923,1,0,0:0:0:0:
256,192,16017,1,0,0:0:0:0:
256,192,16111,1,8,0:0:0:0:
256,192,16204,1,8,0:0:0:0:
256,192,16298,1,0,0:0:0:0:
256,192,16392,1,8,0:0:0:0:
256,192,16486,1,8,0:0:0:0:
256,192,16579,1,8,0:0:0:0:
256,192,16673,1,0,0:0:0:0:
256,192,16767,1,0,0:0:0:0:
256,192,16861,1,8,0:0:0:0:
256,192,16954,1,8,0:0:0:0:
256,192,17048,1,0,0:0:0:0:
256,192,17142,1,8,0:0:0:0:
256,192,17236,1,8,0:0:0:0:
256,192,17329,1,8,0:0:0:0:
256,192,17423,1,0,0:0:0:0:
256,192,17517,1,0,0:0:0:0:
256,192,17611,1,8,0:0:0:0:
256,192,17704,1,0,0:0:0:0:
256,192,17798,1,8,0:0:0:0:
256,192,17892,1,0,0:0:0:0:
256,192,17986,1,8,0:0:0:0:
256,192,18079,1,8,0:0:0:0:
256,192,18173,1,8,0:0:0:0:
256,192,18267,1,0,0:0:0:0:
256,192,18361,1,8,0:0:0:0:
256,192,18454,1,8,0:0:0:0:
256,192,18548,1,0,0:0:0:0:
256,192,18642,1,0,0:0:0:0:
256,192,18736,1,8,0:0:0:0:
256,192,18829,1,0,0:0:0:0:
256,192,18923,1,8,0:0:0:0:
256,192,19017,1,8,0:0:0:0:
256,192,19111,1,8,0:0:0:0:
256,192,19204,1,8,0:0:0:0:
256,192,19298,1,0,0:0:0:0:
256,192,19392,1,0,0:0:0:0:
256,192,19486,1,8,0:0:0:0:
256,192,19579,1,8,0:0:0:0:
256,192,19673,1,0,0:0:0:0:
256,192,19767,1,8,0:0:0:0:
256,192,19861,1,8,0:0:0:0:
256,192,19954,1,8,0:0:0:0:
256,192,20048,1,0,0:0:0:0:
256,192,20142,1,8,0:0:0:0:
256,192,20236,1,8,0:0:0:0:
256,192,20329,1,0,0:0:0:0:
256,192,20423,1,0,0:0:0:0:
256,192,20517,1,0,0:0:0:0:
256,192,20611,1,8,0:0:0:0:
256,192,20704,1,8,0:0:0:0:
256,192,20798,1,0,0:0:0:0:
256,192,20892,1,0,0:0:0:0:
256,192,20986,1,8,0:0:0:0:
256,192,21079,1,8,0:0:0:0:
256,192,21173,1,8,0:0:0:0:
256,192,21267,1,0,0:0:0:0:
256,192,21361,1,8,0:0:0:0:
256,192,21454,1,8,0:0:0:0:
256,192,21548,1,8,0:0:0:0:
256,192,21642,1,0,0:0:0:0:
256,192,21736,1,8,0:0:0:0:
256,192,21829,1,0,0:0:0:0:
256,192,21923,1,8,0:0:0:0:
256,192,22017,1,0,0:0:0:0:
256,192,22111,1,8,0:0:0:0:
256,192,22204,1,8,0:0:0:0:
256,192,22298,1,0,0:0:0:0:
256,192,22392,1,8,0:0:0:0:
256,192,22486,1,8,0:0:0:0:
256,192,22579,1,8,0:0:0:0:
256,192,22673,1,0,0:0:0:0:
256,192,22767,1,8,0:0:0:0:
256,192,22861,1,8,0:0:0:0:
256,192,22954,1,0,0:0:0:0:
256,192,23048,1,0,0:0:0:0:
256,192,23142,1,8,0:0:0:0:
256,192,23236,1,8,0:0:0:0:
256,192,23329,1,0,0:0:0:0:
256,192,23423,1,0,0:0:0:0:
256,192,23517,1,0,0:0:0:0:
256,192,23611,1,8,0:0:0:0:
256,192,23704,1,8,0:0:0:0:
256,192,23798,1,0,0:0:0:0:
256,192,23892,1,0,0:0:0:0:
256,192,23986,1,8,0:0:0:0:
256,192,24079,1,8,0:0:0:0:
256,192,24173,1,8,0:0:0:0:
256,192,24267,1,0,0:0:0:0:
256,192,24361,1,8,0:0:0:0:
256,192,24454,1,8,0:0:0:0:
256,192,24548,1,8,0:0:0:0:
256,192,24642,1,0,0:0:0:0:
256,192,24736,1,8,0:0:0:0:
256,192,24829,1,8,0:0:0:0:
256,192,24923,1,0,0:0:0:0:
256,192,25017,1,0,0:0:0:0:
256,192,25111,1,8,0:0:0:0:
256,192,25204,1,0,0:0:0:0:
256,192,25298,1,0,0:0:0:0:
256,192,25392,1,0,0:0:0:0:
256,192,25486,1,8,0:0:0:0:
256,192,25673,1,0,0:0:0:0:
256,192,25767,1,8,0:0:0:0:
256,192,25861,1,8,0:0:0:0:
256,192,26048,1,0,0:0:0:0:
256,192,26142,1,0,0:0:0:0:
256,192,26236,1,8,0:0:0:0:
256,192,26423,1,0,0:0:0:0:
256,192,26517,1,8,0:0:0:0:
256,192,26611,1,8,0:0:0:0:
256,192,26798,1,0,0:0:0:0:
256,192,26892,1,0,0:0:0:0:
256,192,26986,1,8,0:0:0:0:
256,192,27079,1,8,0:0:0:0:
256,192,27173,1,8,0:0:0:0:
256,192,27267,1,0,0:0:0:0:
256,192,27361,1,8,0:0:0:0:
256,192,27454,1,8,0:0:0:0:
256,192,27548,1,0,0:0:0:0:
256,192,27642,1,0,0:0:0:0:
256,192,27736,1,8,0:0:0:0:
256,192,27829,1,0,0:0:0:0:
256,192,27923,1,0,0:0:0:0:
256,192,28017,1,0,0:0:0:0:
256,192,28111,1,8,0:0:0:0:
256,192,28204,1,0,0:0:0:0:
256,192,28298,1,0,0:0:0:0:
256,192,28392,1,8,0:0:0:0:
256,192,28486,1,8,0:0:0:0:
256,192,28579,1,0,0:0:0:0:
256,192,28673,1,8,0:0:0:0:
256,192,28767,1,8,0:0:0:0:
256,192,28861,1,8,0:0:0:0:
256,192,28954,1,0,0:0:0:0:
256,192,29048,1,8,0:0:0:0:
256,192,29142,1,8,0:0:0:0:
256,192,29236,1,8,0:0:0:0:
256,192,29329,1,0,0:0:0:0:
256,192,29423,1,8,0:0:0:0:
256,192,29517,1,0,0:0:0:0:
256,192,29611,1,8,0:0:0:0:
256,192,29704,1,8,0:0:0:0:
256,192,29798,1,8,0:0:0:0:
256,192,29892,1,0,0:0:0:0:
256,192,29986,1,8,0:0:0:0:
256,192,30079,1,8,0:0:0:0:
256,192,30173,1,0,0:0:0:0:
256,192,30267,1,0,0:0:0:0:
256,192,30361,1,8,0:0:0:0:
256,192,30454,1,8,0:0:0:0:
256,192,30548,1,0,0:0:0:0:
256,192,30642,1,0,0:0:0:0:
256,192,30736,1,8,0:0:0:0:
256,192,30829,1,8,0:0:0:0:
256,192,30923,1,8,0:0:0:0:
256,192,31017,1,0,0:0:0:0:
256,192,31111,1,8,0:0:0:0:
256,192,31204,1,8,0:0:0:0:
256,192,31298,1,0,0:0:0:0:
256,192,31392,1,8,0:0:0:0:
256,192,31486,1,8,0:0:0:0:
256,192,31579,1,0,0:0:0:0:
256,192,31673,1,0,0:0:0:0:
256,192,31767,1,8,0:0:0:0:
256,192,31861,1,8,0:0:0:0:
256,192,31954,1,0,0:0:0:0:
256,192,32048,1,8,0:0:0:0:
256,192,32142,1,8,0:0:0:0:
256,192,32236,1,8,0:0:0:0:
256,192,32329,1,0,0:0:0:0:
256,192,32423,1,8,0:0:0:0:
256,192,32517,1,0,0:0:0:0:
256,192,32611,1,8,0:0:0:0:
256,192,32704,1,8,0:0:0:0:
256,192,32798,1,0,0:0:0:0:
256,192,32892,1,0,0:0:0:0:
256,192,32986,1,8,0:0:0:0:
256,192,33079,1,8,0:0:0:0:
256,192,33173,1,8,0:0:0:0:
256,192,33267,1,0,0:0:0:0:
256,192,33361,1,8,0:0:0:0:
256,192,33454,1,0,0:0:0:0:
256,192,33548,1,0,0:0:0:0:
256,192,33642,1,8,0:0:0:0:
256,192,33736,1,8,0:0:0:0:
256,192,33829,1,0,0:0:0:0:
256,192,33923,1,0,0:0:0:0:
256,192,34017,1,0,0:0:0:0:
256,192,34111,1,8,0:0:0:0:
256,192,34204,1,0,0:0:0:0:
256,192,34298,1,0,0:0:0:0:
256,192,34392,1,8,0:0:0:0:
256,192,34486,1,8,0:0:0:0:
256,192,34579,1,0,0:0:0:0:
256,192,34673,1,0,0:0:0:0:
256,192,34767,1,0,0:0:0:0:
256,192,34861,1,8,0:0:0:0:
256,192,34954,1,0,0:0:0:0:
256,192,35048,1,0,0:0:0:0:
256,192,35142,1,8,0:0:0:0:
256,192,35236,1,8,0:0:0:0:
256,192,35329,1,8,0:0:0:0:
256,192,35423,1,0,0:0:0:0:
256,192,35517,1,8,0:0:0:0:
256,192,35611,1,8,0:0:0:0:
256,192,35704,1,0,0:0:0:0:
256,192,35798,1,0,0:0:0:0:
256,192,35892,1,8,0:0:0:0:
256,192,35986,1,8,0:0:0:0:
256,192,36079,1,8,0:0:0:0:
256,192,36173,1,0,0:0:0:0:
256,192,36267,1,8,0:0:0:0:
256,192,36361,1,8,0:0:0:0:
256,192,36454,1,0,0:0:0:0:
256,192,36548,1,0,0:0:0:0:
256,192,36642,1,8,0:0:0:0:
256,192,36736,1,8,0:0:0:0:
256,192,36829,1,8,0:0:0:0:
256,192,36923,1,8,0:0:0:0:
256,192,37017,1,0,0:0:0:0:
256,192,37111,1,8,0:0:0:0:
256,192,37204,1,8,0:0:0:0:
256,192,37298,1,0,0:0:0:0:
256,192,37392,1,8,0:0:0:0:
256,192,37486,1,8,0:0:0:0:
256,192,37579,1,8,0:0:0:0:
256,192,37673,1,0,0:0:0:0:
256,192,37767,1,0,0:0:0:0:
256,192,37861,1,8,0:0:0:0:
256,192,37954,1,8,0:0:0:0:
256,192,38048,1,0,0:0:0:0:
256,192,38142,1,0,0:0:0:0:
256,192,38236,1,8,0:0:0:0:
256,192,38329,1,0,0:0:0:0:
256,192,38423,1,8,0:0:0:0:
256,192,38517,1,8,0:0:0:0:
256,192,38611,1,8,0:0:0:0:
256,192,38704,1,0,0:0:0:0:
256,192,38798,1,8,0:0:0:0:
256,192,38892,1,8,0:0:0:0:
256,192,38986,1,0,0:0:0:0:
256,192,39173,1,0,0:0:0:0:
256,192,39267,1,8,0:0:0:0:
256,192,39361,1,0,0:0:0:0:
256,192,39548,1,8,0:0:0:0:
256,192,39642,1,8,0:0:0:0:
256,192,39736,1,0,0:0:0:0:
256,192,39829,1,8,0:0:0:0:
256,192,39923,1,8,0:0:0:0:
256,192,40017,1,8,0:0:0:0:
256,192,40111,1,0,0:0:0:0:
256,192,40298,1,0,0:0:0:0:
256,192,40392,1,8,0:0:0:0:
256,192,40486,1,8,0:0:0:0:
256,192,40673,1,0,0:0:0:0:
256,192,40767,1,8,0:0:0:0:
256,192,40861,1,0,0:0:0:0:
256,192,40954,1,8,0:0:0:0:
256,192,41048,1,8,0:0:0:0:
256,192,41142,1,8,0:0:0:0:
256,192,41236,1,0,0:0:0:0:
256,192,41329,1,0,0:0:0:0:
256,192,41423,1,0,0:0:0:0:
256,192,41517,1,0,0:0:0:0:
256,192,41611,1,8,0:0:0:0:
256,192,41704,1,8,0:0:0:0:
256,192,41798,1,8,0:0:0:0:
256,192,41892,1,8,0:0:0:0:
256,192,41986,1,0,0:0:0:0:
256,192,42173,1,0,0:0:0:0:
256,192,42267,1,8,0:0:0:0:
256,192,42361,1,0,0:0:0:0:
256,192,42548,1,8,0:0:0:0:
256,192,42642,1,8,0:0:0:0:
256,192,42736,1,0,0:0:0:0:
256,192,42829,1,0,0:0:0:0:
256,192,42923,1,8,0:0:0:0:
256,192,43017,1,0,0:0:0:0:
256,192,43111,1,0,0:0:0:0:
256,192,43298,1,0,0:0:0:0:
256,192,43392,1,8,0:0:0:0:
256,192,43486,1,8,0:0:0:0:
256,192,43673,1,0,0:0:0:0:
256,192,43767,1,8,0:0:0:0:
256,192,43861,1,0,0:0:0:0:
256,192,43954,1,0,0:0:0:0:
256,192,44048,1,8,0:0:0:0:
256,192,44142,1,0,0:0:0:0:
256,192,44236,1,8,0:0:0:0:
256,192,44329,1,8,0:0:0:0:
256,192,44423,1,8,0:0:0:0:
256,192,44611,1,0,0:0:0:0:
256,192,44704,1,8,0:0:0:0:
256,192,44798,1,8,0:0:0:0:
256,192,44892,1,0,0:0:0:0:
256,192,44986,1,0,0:0:0:0:
256,192,45173,1,0,0:0:0:0:
256,192,45267,1,8,0:0:0:0:
256,192,45361,1,0,0:0:0:0:
256,192,45548,1,8,0:0:0:0:
256,192,45642,1,8,0:0:0:0:
256,192,45736,1,0,0:0:0:0:
256,192,45829,1,8,0:0:0:0:
256,192,45923,1,8,0:0:0:0:
256,192,46017,1,8,0:0:0:0:
256,192,46111,1,0,0:0:0:0:
256,192,46298,1,0,0:0:0:0:
256,192,46392,1,8,0:0:0:0:
256,192,46486,1,8,0:0:0:0:
256,192,46673,1,0,0:0:0:0:
256,192,46767,1,8,0:0:0:0:
256,192,46861,1,0,0:0:0:0:
256,192,46954,1,8,0:0:0:0:
256,192,47048,1,8,0:0:0:0:
256,192,47142,1,8,0:0:0:0:
256,192,47236,1,0,0:0:0:0:
256,192,47329,1,0,0:0:0:0:
256,192,47423,1,0,0:0:0:0:
256,192,47517,1,0,0:0:0:0:
256,192,47611,1,8,0:0:0:0:
256,192,47798,1,8,0:0:0:0:
256,192,47892,1,0,0:0:0:0:
256,192,47986,1,0,0:0:0:0:
256,192,48173,1,0,0:0:0:0:
256,192,48267,1,8,0:0:0:0:
256,192,48361,1,0,0:0:0:0:
256,192,48548,1,8,0:0:0:0:
256,192,48642,1,8,0:0:0:0:
256,192,48736,1,0,0:0:0:0:
256,192,48829,1,0,0:0:0:0:
256,192,48923,1,8,0:0:0:0:
256,192,49017,1,0,0:0:0:0:
256,192,49111,1,0,0:0:0:0:
256,192,49298,1,8,0:0:0:0:
256,192,49392,1,8,0:0:0:0:
256,192,49486,1,0,0:0:0:0:
256,192,50986,5,0,0:0:0:0:
256,192,51173,1,8,0:0:0:0:
256,192,51267,1,8,0:0:0:0:
256,192,51361,1,0,0:0:0:0:
256,192,51548,1,8,0:0:0:0:
256,192,51642,1,8,0:0:0:0:
256,192,51736,1,0,0:0:0:0:
256,192,51829,1,8,0:0:0:0:
256,192,51923,1,8,0:0:0:0:
256,192,52111,1,0,0:0:0:0:
256,192,52298,1,8,0:0:0:0:
256,192,52392,1,8,0:0:0:0:
256,192,52486,1,0,0:0:0:0:
256,192,52673,1,8,0:0:0:0:
256,192,52767,1,8,0:0:0:0:
256,192,52861,1,8,0:0:0:0:
256,192,52954,1,0,0:0:0:0:
256,192,53048,1,8,0:0:0:0:
256,192,53236,1,0,0:0:0:0:
256,192,53329,1,0,0:0:0:0:
256,192,53423,1,0,0:0:0:0:
256,192,53517,1,0,0:0:0:0:
256,192,53611,1,8,0:0:0:0:
256,192,53704,1,8,0:0:0:0:
256,192,53798,1,8,0:0:0:0:
256,192,53892,1,8,0:0:0:0:
256,192,53986,1,0,0:0:0:0:
256,192,54173,1,8,0:0:0:0:
256,192,54267,1,8,0:0:0:0:
256,192,54361,1,0,0:0:0:0:
256,192,54548,1,8,0:0:0:0:
256,192,54642,1,8,0:0:0:0:
256,192,54736,1,0,0:0:0:0:
256,192,54829,1,0,0:0:0:0:
256,192,54923,1,8,0:0:0:0:
256,192,55017,1,0,0:0:0:0:
256,192,55111,1,0,0:0:0:0:
256,192,55298,1,8,0:0:0:0:
256,192,55392,1,8,0:0:0:0:
256,192,55486,1,0,0:0:0:0:
256,192,55673,1,8,0:0:0:0:
256,192,55767,1,8,0:0:0:0:
256,192,55861,1,0,0:0:0:0:
256,192,55954,1,8,0:0:0:0:
256,192,56048,1,8,0:0:0:0:
256,192,56236,1,8,0:0:0:0:
256,192,56329,1,0,0:0:0:0:
256,192,56423,1,8,0:0:0:0:
256,192,56517,1,8,0:0:0:0:
256,192,56611,1,0,0:0:0:0:
256,192,56798,1,8,0:0:0:0:
256,192,56892,1,0,0:0:0:0:
256,192,56986,1,0,0:0:0:0:
256,192,57173,1,8,0:0:0:0:
256,192,57267,1,8,0:0:0:0:
256,192,57361,1,0,0:0:0:0:
256,192,57548,1,8,0:0:0:0:
256,192,57642,1,8,0:0:0:0:
256,192,57736,1,0,0:0:0:0:
256,192,57829,1,0,0:0:0:0:
256,192,57923,1,8,0:0:0:0:
256,192,58111,1,0,0:0:0:0:
256,192,58298,1,8,0:0:0:0:
256,192,58392,1,8,0:0:0:0:
256,192,58486,1,0,0:0:0:0:
256,192,58673,1,8,0:0:0:0:
256,192,58767,1,8,0:0:0:0:
256,192,58861,1,8,0:0:0:0:
256,192,58954,1,0,0:0:0:0:
256,192,59048,1,8,0:0:0:0:
256,192,59236,1,0,0:0:0:0:
256,192,59329,1,0,0:0:0:0:
256,192,59423,1,0,0:0:0:0:
256,192,59517,1,0,0:0:0:0:
256,192,59611,1,8,0:0:0:0:
256,192,59798,1,8,0:0:0:0:
256,192,59892,1,8,0:0:0:0:
256,192,59986,1,0,0:0:0:0:
256,192,60079,1,8,0:0:0:0:
256,192,60173,1,0,0:0:0:0:
256,192,60361,1,0,0:0:0:0:
256,192,60454,1,8,0:0:0:0:
256,192,60548,1,0,0:0:0:0:
256,192,60736,1,0,0:0:0:0:
256,192,60829,1,8,0:0:0:0:
256,192,60923,1,0,0:0:0:0:
256,192,61017,1,0,0:0:0:0:
256,192,61111,1,0,0:0:0:0:
256,192,61204,1,0,0:0:0:0:
256,192,61298,1,0,0:0:0:0:
256,192,61486,1,12,0:0:0:0:
256,192,61767,1,4,0:0:0:0:
256,192,62048,1,12,0:0:0:0:
256,192,62329,1,4,0:0:0:0:
256,192,62611,1,8,0:0:0:0:
256,192,62704,1,8,0:0:0:0:
256,192,62798,1,8,0:0:0:0:
256,192,62892,1,8,0:0:0:0:
256,192,62986,1,0,0:0:0:0:
256,192,74986,5,8,0:0:0:0:
256,192,75361,1,0,0:0:0:0:
256,192,75736,1,8,0:0:0:0:
256,192,76111,1,0,0:0:0:0:
256,192,76486,1,8,0:0:0:0:
256,192,76861,1,0,0:0:0:0:
256,192,77236,1,8,0:0:0:0:
256,192,77611,1,0,0:0:0:0:
256,192,77986,1,8,0:0:0:0:
256,192,78361,1,0,0:0:0:0:
256,192,78736,1,8,0:0:0:0:
256,192,79111,1,0,0:0:0:0:
256,192,79486,1,8,0:0:0:0:
256,192,79861,1,0,0:0:0:0:
256,192,80236,1,8,0:0:0:0:
256,192,80611,1,0,0:0:0:0:
256,192,80986,1,8,0:0:0:0:
256,192,81173,1,0,0:0:0:0:
256,192,81267,1,0,0:0:0:0:
256,192,81361,1,8,0:0:0:0:
256,192,81454,1,8,0:0:0:0:
256,192,81642,1,0,0:0:0:0:
256,192,81736,1,0,0:0:0:0:
256,192,81829,1,0,0:0:0:0:
256,192,82017,1,8,0:0:0:0:
256,192,82111,1,0,0:0:0:0:
256,192,82204,1,8,0:0:0:0:
256,192,82298,1,8,0:0:0:0:
256,192,82392,1,0,0:0:0:0:
256,192,82486,1,8,0:0:0:0:
256,192,82673,1,0,0:0:0:0:
256,192,82767,1,8,0:0:0:0:
256,192,82861,1,8,0:0:0:0:
256,192,82954,1,0,0:0:0:0:
256,192,83142,1,0,0:0:0:0:
256,192,83236,1,8,0:0:0:0:
256,192,83329,1,0,0:0:0:0:
256,192,83517,1,8,0:0:0:0:
256,192,83611,1,0,0:0:0:0:
256,192,83704,1,0,0:0:0:0:
256,192,83798,1,8,0:0:0:0:
256,192,83892,1,0,0:0:0:0:
256,192,83986,1,8,0:0:0:0:
256,192,84173,1,8,0:0:0:0:
256,192,84267,1,8,0:0:0:0:
256,192,84361,1,0,0:0:0:0:
256,192,84454,1,0,0:0:0:0:
256,192,84642,1,8,0:0:0:0:
256,192,84736,1,8,0:0:0:0:
256,192,84829,1,0,0:0:0:0:
256,192,85017,1,0,0:0:0:0:
256,192,85111,1,8,0:0:0:0:
256,192,85204,1,0,0:0:0:0:
256,192,85298,1,0,0:0:0:0:
256,192,85392,1,0,0:0:0:0:
256,192,85486,1,8,0:0:0:0:
256,192,85673,1,8,0:0:0:0:
256,192,85767,1,0,0:0:0:0:
256,192,85861,1,0,0:0:0:0:
256,192,85954,1,8,0:0:0:0:
256,192,86142,1,8,0:0:0:0:
256,192,86236,1,8,0:0:0:0:
256,192,86329,1,8,0:0:0:0:
256,192,86517,1,0,0:0:0:0:
256,192,86611,1,0,0:0:0:0:
256,192,86704,1,0,0:0:0:0:
256,192,86798,1,0,0:0:0:0:
256,192,86892,1,0,0:0:0:0:
256,192,86986,1,8,0:0:0:0:
256,192,87267,1,0,0:0:0:0:
256,192,87361,1,0,0:0:0:0:
256,192,87548,1,0,0:0:0:0:
256,192,87829,1,8,0:0:0:0:
256,192,87923,1,8,0:0:0:0:
256,192,88111,1,0,0:0:0:0:
256,192,88392,1,8,0:0:0:0:
256,192,88486,1,8,0:0:0:0:
256,192,88673,1,0,0:0:0:0:
256,192,88954,1,0,0:0:0:0:
256,192,89048,1,8,0:0:0:0:
256,192,89236,1,0,0:0:0:0:
256,192,89423,1,8,0:0:0:0:
256,192,89611,1,0,0:0:0:0:
256,192,89892,1,0,0:0:0:0:
256,192,89986,1,0,0:0:0:0:
256,192,90173,1,0,0:0:0:0:
256,192,90454,1,8,0:0:0:0:
256,192,90548,1,8,0:0:0:0:
256,192,90736,1,0,0:0:0:0:
256,192,91017,1,8,0:0:0:0:
256,192,91111,1,8,0:0:0:0:
256,192,91298,1,0,0:0:0:0:
256,192,91579,1,0,0:0:0:0:
256,192,91673,1,8,0:0:0:0:
256,192,91861,1,8,0:0:0:0:
256,192,92048,1,8,0:0:0:0:
256,192,92236,1,0,0:0:0:0:
256,192,92517,1,0,0:0:0:0:
256,192,92611,1,8,0:0:0:0:
256,192,92798,1,0,0:0:0:0:
256,192,92892,1,0,0:0:0:0:
256,192,92986,1,0,0:0:0:0:
256,192,93079,1,8,0:0:0:0:
256,192,93173,1,8,0:0:0:0:
256,192,93361,1,0,0:0:0:0:
256,192,93454,1,0,0:0:0:0:
256,192,93548,1,0,0:0:0:0:
256,192,93642,1,8,0:0:0:0:
256,192,93736,1,8,0:0:0:0:
256,192,93923,1,0,0:0:0:0:
256,192,94017,1,0,0:0:0:0:
256,192,94111,1,0,0:0:0:0:
256,192,94204,1,8,0:0:0:0:
256,192,94298,1,8,0:0:0:0:
256,192,94486,1,0,0:0:0:0:
256,192,94673,1,8,0:0:0:0:
256,192,94767,1,8,0:0:0:0:
256,192,94861,1,0,0:0:0:0:
256,192,95142,1,0,0:0:0:0:
256,192,95236,1,8,0:0:0:0:
256,192,95423,1,8,0:0:0:0:
256,192,95517,1,8,0:0:0:0:
256,192,95611,1,0,0:0:0:0:
256,192,95798,1,8,0:0:0:0:
256,192,95986,1,0,0:0:0:0:
256,192,96079,1,0,0:0:0:0:
256,192,96173,1,8,0:0:0:0:
256,192,96267,1,0,0:0:0:0:
256,192,96361,1,8,0:0:0:0:
256,192,96454,1,8,0:0:0:0:
256,192,96548,1,0,0:0:0:0:
256,192,96736,1,8,0:0:0:0:
256,192,96923,1,8,0:0:0:0:
256,192,97111,1,0,0:0:0:0:
256,192,97204,1,8,0:0:0:0:
256,192,97298,1,8,0:0:0:0:
256,192,97392,1,8,0:0:0:0:
256,192,97486,1,0,0:0:0:0:
256,192,97673,1,0,0:0:0:0:
256,192,97767,1,0,0:0:0:0:
256,192,97861,1,8,0:0:0:0:
256,192,98048,1,0,0:0:0:0:
256,192,98236,1,0,0:0:0:0:
256,192,98329,1,0,0:0:0:0:
256,192,98423,1,0,0:0:0:0:
256,192,98517,1,8,0:0:0:0:
256,192,98611,1,8,0:0:0:0:
256,192,98704,1,0,0:0:0:0:
256,192,98798,1,0,0:0:0:0:
256,192,98892,1,8,0:0:0:0:
256,192,98986,1,8,0:0:0:0:
256,192,99173,1,0,0:0:0:0:
256,192,99267,1,0,0:0:0:0:
256,192,99361,1,8,0:0:0:0:
256,192,99454,1,8,0:0:0:0:
256,192,99548,1,8,0:0:0:0:
256,192,99736,1,0,0:0:0:0:
256,192,99923,1,8,0:0:0:0:
256,192,100017,1,8,0:0:0:0:
256,192,100111,1,0,0:0:0:0:
256,192,100392,1,0,0:0:0:0:
256,192,100486,1,8,0:0:0:0:
256,192,100673,1,0,0:0:0:0:
256,192,100767,1,0,0:0:0:0:
256,192,100861,1,8,0:0:0:0:
256,192,100954,1,0,0:0:0:0:
256,192,101048,1,0,0:0:0:0:
256,192,101142,1,8,0:0:0:0:
256,192,101236,1,8,0:0:0:0:
256,192,101329,1,0,0:0:0:0:
256,192,101423,1,0,0:0:0:0:
256,192,101517,1,0,0:0:0:0:
256,192,101611,1,8,0:0:0:0:
256,192,101798,1,0,0:0:0:0:
256,192,101892,1,0,0:0:0:0:
256,192,101986,1,8,0:0:0:0:
256,192,102079,1,0,0:0:0:0:
256,192,102173,1,0,0:0:0:0:
256,192,102361,1,8,0:0:0:0:
256,192,102548,1,0,0:0:0:0:
256,192,102642,1,0,0:0:0:0:
256,192,102736,1,8,0:0:0:0:
256,192,103111,1,0,0:0:0:0:
256,192,103486,1,0,0:0:0:0:
256,192,103861,1,0,0:0:0:0:
256,192,104236,1,0,0:0:0:0:
256,192,104611,1,8,0:0:0:0:
256,192,104986,1,8,0:0:0:0:
256,192,105361,1,0,0:0:0:0:
256,192,105548,1,0,0:0:0:0:
256,192,105736,1,0,0:0:0:0:
256,192,105923,1,0,0:0:0:0:
256,192,106111,1,0,0:0:0:0:
256,192,106298,1,0,0:0:0:0:
256,192,106392,1,0,0:0:0:0:
256,192,106486,1,0,0:0:0:0:
256,192,106579,1,0,0:0:0:0:
256,192,106673,1,0,0:0:0:0:
256,192,106767,1,0,0:0:0:0:
256,192,106861,1,8,0:0:0:0:
256,192,107048,1,0,0:0:0:0:
256,192,107236,1,8,0:0:0:0:
256,192,107423,1,0,0:0:0:0:
256,192,107517,1,0,0:0:0:0:
256,192,107611,1,8,0:0:0:0:
256,192,107704,1,8,0:0:0:0:
256,192,107986,1,8,0:0:0:0:
256,192,108079,1,8,0:0:0:0:
256,192,108173,1,8,0:0:0:0:
256,192,108267,1,0,0:0:0:0:
256,192,108548,1,0,0:0:0:0:
256,192,108829,1,0,0:0:0:0:
256,192,109111,1,0,0:0:0:0:
256,192,109392,1,0,0:0:0:0:
256,192,109673,1,0,0:0:0:0:
256,192,109954,1,0,0:0:0:0:
256,192,110236,1,0,0:0:0:0:
256,192,110329,1,0,0:0:0:0:
256,192,110423,1,0,0:0:0:0:
256,192,110517,1,0,0:0:0:0:
256,192,110611,1,0,0:0:0:0:
256,192,110892,1,0,0:0:0:0:
256,192,111173,1,0,0:0:0:0:
256,192,111454,1,0,0:0:0:0:
256,192,111736,1,0,0:0:0:0:
256,192,112017,1,0,0:0:0:0:
256,192,112298,1,0,0:0:0:0:
256,192,112579,1,0,0:0:0:0:
256,192,112861,1,0,0:0:0:0:
256,192,112954,1,0,0:0:0:0:
256,192,113048,1,0,0:0:0:0:
256,192,113142,1,0,0:0:0:0:
256,192,113236,1,0,0:0:0:0:
256,192,113517,1,0,0:0:0:0:
256,192,113798,1,0,0:0:0:0:
256,192,114079,1,0,0:0:0:0:
256,192,114361,1,0,0:0:0:0:
256,192,114642,1,0,0:0:0:0:
256,192,114923,1,0,0:0:0:0:
256,192,115204,1,0,0:0:0:0:
256,192,115486,1,0,0:0:0:0:
256,192,115579,1,0,0:0:0:0:
256,192,115673,1,0,0:0:0:0:
256,192,115767,1,0,0:0:0:0:
256,192,115861,1,8,0:0:0:0:
256,192,115954,1,8,0:0:0:0:
256,192,116048,1,8,0:0:0:0:
256,192,116142,1,8,0:0:0:0:
256,192,116236,1,0,0:0:0:0:
256,192,116611,1,8,0:0:0:0:
256,192,116704,1,8,0:0:0:0:
256,192,116798,1,8,0:0:0:0:
256,192,116892,1,8,0:0:0:0:
256,192,116986,1,0,0:0:0:0:
256,192,117173,1,0,0:0:0:0:
256,192,117361,1,12,0:0:0:0:
256,192,117642,1,4,0:0:0:0:
256,192,117923,1,12,0:0:0:0:
256,192,118204,1,4,0:0:0:0:
256,192,118486,1,8,0:0:0:0:
256,192,118861,1,8,0:0:0:0:
256,192,118954,1,8,0:0:0:0:
256,192,119048,1,0,0:0:0:0:
256,192,119142,1,0,0:0:0:0:
256,192,119236,1,8,0:0:0:0:
256,192,119329,1,8,0:0:0:0:
256,192,119423,1,8,0:0:0:0:
256,192,119517,1,0,0:0:0:0:
256,192,119611,1,8,0:0:0:0:
256,192,119704,1,0,0:0:0:0:
256,192,119798,1,0,0:0:0:0:
256,192,119892,1,0,0:0:0:0:
256,192,119986,1,8,0:0:0:0:
256,192,120079,1,8,0:0:0:0:
256,192,120173,1,0,0:0:0:0:
256,192,120267,1,8,0:0:0:0:
256,192,120361,1,8,0:0:0:0:
256,192,120454,1,0,0:0:0:0:
256,192,120548,1,0,0:0:0:0:
256,192,120642,1,0,0:0:0:0:
256,192,120736,1,8,0:0:0:0:
256,192,120829,1,8,0:0:0:0:
256,192,120923,1,0,0:0:0:0:
256,192,121017,1,0,0:0:0:0:
256,192,121111,1,8,0:0:0:0:
256,192,121204,1,8,0:0:0:0:
256,192,121298,1,0,0:0:0:0:
256,192,121392,1,0,0:0:0:0:
256,192,121486,1,8,0:0:0:0:
256,192,121579,1,0,0:0:0:0:
256,192,121673,1,8,0:0:0:0:
256,192,121767,1,0,0:0:0:0:
256,192,121861,1,8,0:0:0:0:
256,192,121954,1,8,0:0:0:0:
256,192,122048,1,8,0:0:0:0:
256,192,122142,1,0,0:0:0:0:
256,192,122236,1,8,0:0:0:0:
256,192,122329,1,0,0:0:0:0:
256,192,122423,1,0,0:0:0:0:
256,192,122517,1,0,0:0:0:0:
256,192,122611,1,8,0:0:0:0:
256,192,122704,1,0,0:0:0:0:
256,192,122798,1,8,0:0:0:0:
256,192,122892,1,0,0:0:0:0:
256,192,122986,1,8,0:0:0:0:
256,192,123079,1,8,0:0:0:0:
256,192,123173,1,0,0:0:0:0:
256,192,123267,1,0,0:0:0:0:
256,192,123361,1,8,0:0:0:0:
256,192,123454,1,8,0:0:0:0:
256,192,123548,1,0,0:0:0:0:
256,192,123642,1,8,0:0:0:0:
256,192,123736,1,8,0:0:0:0:
256,192,123829,1,0,0:0:0:0:
256,192,123923,1,0,0:0:0:0:
256,192,124017,1,8,0:0:0:0:
256,192,124111,1,8,0:0:0:0:
256,192,124204,1,0,0:0:0:0:
256,192,124298,1,0,0:0:0:0:
256,192,124392,1,0,0:0:0:0:
256,192,124486,1,8,0:0:0:0:
256,192,124579,1,0,0:0:0:0:
256,192,124673,1,0,0:0:0:0:
256,192,124767,1,0,0:0:0:0:
256,192,124861,1,8,0:0:0:0:
256,192,124954,1,8,0:0:0:0:
256,192,125048,1,8,0:0:0:0:
256,192,125142,1,0,0:0:0:0:
256,192,125236,1,8,0:0:0:0:
256,192,125329,1,8,0:0:0:0:
256,192,125423,1,0,0:0:0:0:
256,192,125517,1,0,0:0:0:0:
256,192,125611,1,8,0:0:0:0:
256,192,125704,1,0,0:0:0:0:
256,192,125798,1,8,0:0:0:0:
256,192,125892,1,0,0:0:0:0:
256,192,125986,1,8,0:0:0:0:
256,192,126079,1,8,0:0:0:0:
256,192,126173,1,0,0:0:0:0:
256,192,126267,1,8,0:0:0:0:
256,192,126361,1,8,0:0:0:0:
256,192,126454,1,8,0:0:0:0:
256,192,126548,1,0,0:0:0:0:
256,192,126642,1,0,0:0:0:0:
256,192,126736,1,8,0:0:0:0:
256,192,126829,1,0,0:0:0:0:
256,192,126923,1,0,0:0:0:0:
256,192,127017,1,8,0:0:0:0:
256,192,127111,1,8,0:0:0:0:
256,192,127204,1,8,0:0:0:0:
256,192,127298,1,0,0:0:0:0:
256,192,127392,1,0,0:0:0:0:
256,192,127486,1,8,0:0:0:0:
256,192,127579,1,8,0:0:0:0:
256,192,127673,1,0,0:0:0:0:
256,192,127767,1,0,0:0:0:0:
256,192,127861,1,8,0:0:0:0:
256,192,127954,1,8,0:0:0:0:
256,192,128048,1,8,0:0:0:0:
256,192,128142,1,0,0:0:0:0:
256,192,128236,1,8,0:0:0:0:
256,192,128329,1,8,0:0:0:0:
256,192,128423,1,8,0:0:0:0:
256,192,128517,1,0,0:0:0:0:
256,192,128611,1,8,0:0:0:0:
256,192,128704,1,8,0:0:0:0:
256,192,128798,1,0,0:0:0:0:
256,192,128892,1,0,0:0:0:0:
256,192,128986,1,8,0:0:0:0:
256,192,129079,1,0,0:0:0:0:
256,192,129173,1,0,0:0:0:0:
256,192,129267,1,0,0:0:0:0:
256,192,129361,1,8,0:0:0:0:
256,192,129548,1,0,0:0:0:0:
256,192,129642,1,8,0:0:0:0:
256,192,129736,1,8,0:0:0:0:
256,192,129923,1,0,0:0:0:0:
256,192,130017,1,0,0:0:0:0:
256,192,130111,1,8,0:0:0:0:
256,192,130298,1,0,0:0:0:0:
256,192,130392,1,8,0:0:0:0:
256,192,130486,1,8,0:0:0:0:
256,192,130673,1,0,0:0:0:0:
256,192,130767,1,0,0:0:0:0:
256,192,130861,1,8,0:0:0:0:
256,192,130954,1,8,0:0:0:0:
256,192,131048,1,0,0:0:0:0:
256,192,131142,1,0,0:0:0:0:
256,192,131236,1,8,0:0:0:0:
256,192,131329,1,8,0:0:0:0:
256,192,131423,1,0,0:0:0:0:
256,192,131517,1,0,0:0:0:0:
256,192,131611,1,8,0:0:0:0:
256,192,131704,1,8,0:0:0:0:
256,192,131798,1,8,0:0:0:0:
256,192,131892,1,0,0:0:0:0:
256,192,131986,1,8,0:0:0:0:
256,192,132079,1,0,0:0:0:0:
256,192,132173,1,8,0:0:0:0:
256,192,132267,1,0,0:0:0:0:
256,192,132361,1,8,0:0:0:0:
256,192,132454,1,8,0:0:0:0:
256,192,132548,1,0,0:0:0:0:
256,192,132642,1,8,0:0:0:0:
256,192,132736,1,0,0:0:0:0:
256,192,132829,1,0,0:0:0:0:
256,192,132923,1,8,0:0:0:0:
256,192,133017,1,8,0:0:0:0:
256,192,133111,1,8,0:0:0:0:
256,192,133204,1,0,0:0:0:0:
256,192,133298,1,8,0:0:0:0:
256,192,133392,1,8,0:0:0:0:
256,192,133486,1,0,0:0:0:0:
256,192,133579,1,0,0:0:0:0:
256,192,133673,1,8,0:0:0:0:
256,192,133767,1,0,0:0:0:0:
256,192,133861,1,8,0:0:0:0:
256,192,133954,1,8,0:0:0:0:
256,192,134048,1,8,0:0:0:0:
256,192,134142,1,0,0:0:0:0:
256,192,134236,1,8,0:0:0:0:
256,192,134329,1,8,0:0:0:0:
256,192,134423,1,0,0:0:0:0:
256,192,134517,1,0,0:0:0:0:
256,192,134611,1,8,0:0:0:0:
256,192,134704,1,0,0:0:0:0:
256,192,134798,1,8,0:0:0:0:
256,192,134892,1,0,0:0:0:0:
256,192,134986,1,8,0:0:0:0:
256,192,135079,1,8,0:0:0:0:
256,192,135173,1,0,0:0:0:0:
256,192,135267,1,8,0:0:0:0:
256,192,135361,1,8,0:0:0:0:
256,192,135454,1,8,0:0:0:0:
256,192,135548,1,0,0:0:0:0:
256,192,135642,1,8,0:0:0:0:
256,192,135736,1,8,0:0:0:0:
256,192,135829,1,0,0:0:0:0:
256,192,135923,1,0,0:0:0:0:
256,192,136017,1,8,0:0:0:0:
256,192,136111,1,8,0:0:0:0:
256,192,136204,1,0,0:0:0:0:
256,192,136298,1,8,0:0:0:0:
256,192,136392,1,8,0:0:0:0:
256,192,136486,1,8,0:0:0:0:
256,192,136579,1,0,0:0:0:0:
256,192,136673,1,0,0:0:0:0:
256,192,136767,1,0,0:0:0:0:
256,192,136861,1,8,0:0:0:0:
256,192,136954,1,8,0:0:0:0:
256,192,137048,1,8,0:0:0:0:
256,192,137142,1,0,0:0:0:0:
256,192,137236,1,8,0:0:0:0:
256,192,137329,1,0,0:0:0:0:
256,192,137423,1,0,0:0:0:0:
256,192,137517,1,8,0:0:0:0:
256,192,137611,1,8,0:0:0:0:
256,192,137704,1,0,0:0:0:0:
256,192,137798,1,0,0:0:0:0:
256,192,137892,1,0,0:0:0:0:
256,192,137986,1,8,0:0:0:0:
256,192,138079,1,0,0:0:0:0:
256,192,138173,1,0,0:0:0:0:
256,192,138267,1,8,0:0:0:0:
256,192,138361,1,8,0:0:0:0:
256,192,138454,1,0,0:0:0:0:
256,192,138548,1,0,0:0:0:0:
256,192,138642,1,0,0:0:0:0:
256,192,138736,1,8,0:0:0:0:
256,192,138829,1,8,0:0:0:0:
256,192,138923,1,0,0:0:0:0:
256,192,139017,1,8,0:0:0:0:
256,192,139111,1,0,0:0:0:0:
256,192,139204,1,0,0:0:0:0:
256,192,139298,1,8,0:0:0:0:
256,192,139392,1,0,0:0:0:0:
256,192,139486,1,8,0:0:0:0:
256,192,139579,1,8,0:0:0:0:
256,192,139673,1,0,0:0:0:0:
256,192,139861,1,12,0:0:0:0:
256,192,140048,1,0,0:0:0:0:
256,192,140142,1,8,0:0:0:0:
256,192,140236,1,8,0:0:0:0:
256,192,140329,1,0,0:0:0:0:
256,192,140423,1,0,0:0:0:0:
256,192,140517,1,8,0:0:0:0:
256,192,140611,1,8,0:0:0:0:
256,192,140704,1,0,0:0:0:0:
256,192,140798,1,8,0:0:0:0:
256,192,140892,1,0,0:0:0:0:
256,192,140986,1,8,0:0:0:0:
256,192,141079,1,8,0:0:0:0:
256,192,141173,1,0,0:0:0:0:
256,192,141361,1,12,0:0:0:0:
256,192,141548,1,0,0:0:0:0:
256,192,141642,1,0,0:0:0:0:
256,192,141736,1,8,0:0:0:0:
256,192,141829,1,8,0:0:0:0:
256,192,141923,1,0,0:0:0:0:
256,192,142017,1,0,0:0:0:0:
256,192,142111,1,8,0:0:0:0:
256,192,142204,1,0,0:0:0:0:
256,192,142298,1,8,0:0:0:0:
256,192,142392,1,8,0:0:0:0:
256,192,142486,1,8,0:0:0:0:
256,192,142579,1,8,0:0:0:0:
256,192,142673,1,0,0:0:0:0:
256,192,142767,1,0,0:0:0:0:
256,192,142861,1,8,0:0:0:0:
256,192,143048,1,0,0:0:0:0:
256,192,143236,1,8,0:0:0:0:
256,192,143423,1,0,0:0:0:0:
256,192,143611,1,8,0:0:0:0:
256,192,143798,1,0,0:0:0:0:
256,192,143986,1,8,0:0:0:0:
256,192,144173,1,0,0:0:0:0:
256,192,144361,1,8,0:0:0:0:
256,192,144548,1,0,0:0:0:0:
256,192,144642,1,0,0:0:0:0:
256,192,144736,1,8,0:0:0:0:
256,192,144923,1,0,0:0:0:0:
256,192,145017,1,0,0:0:0:0:
256,192,145111,1,8,0:0:0:0:
256,192,145298,1,0,0:0:0:0:
256,192,145392,1,0,0:0:0:0:
256,192,145486,1,8,0:0:0:0:
256,192,145673,1,0,0:0:0:0:
256,192,145767,1,0,0:0:0:0:
256,192,145861,1,8,0:0:0:0:
256,192,145954,1,8,0:0:0:0:
256,192,146048,1,8,0:0:0:0:
256,192,146142,1,0,0:0:0:0:
256,192,146236,1,8,0:0:0:0:
256,192,146329,1,8,0:0:0:0:
256,192,146423,1,0,0:0:0:0:
256,192,146517,1,0,0:0:0:0:
256,192,146611,1,8,0:0:0:0:
256,192,146704,1,0,0:0:0:0:
256,192,146798,1,0,0:0:0:0:
256,192,146892,1,0,0:0:0:0:
256,192,146986,1,8,0:0:0:0:
256,192,147079,1,8,0:0:0:0:
256,192,147173,1,8,0:0:0:0:
256,192,147267,1,8,0:0:0:0:
256,192,147361,1,0,0:0:0:0:
