osu file format v14

[General]
AudioFilename: audio.mp3
AudioLeadIn: 0
PreviewTime: 117079
Countdown: 0
SampleSet: Soft
StackLeniency: 0.7
Mode: 0
LetterboxInBreaks: 0
WidescreenStoryboard: 1

[Editor]
Bookmarks: 14986,23986,26986,38986,50986,62986,74986,86986,97486,107986,118861,130861,142861,147361
DistanceSpacing: 1.2
BeatDivisor: 4
GridSize: 16
TimelineZoom: 3.799998

[Metadata]
Title:conflict
TitleUnicode:conflict
Artist:siromaru + cranky
ArtistUnicode:siromaru + cranky
Creator:Icekalt
Version:Hard
Source:osu!
Tags:ataraxia mappers guild mpg electronic pico video game SOUND VOLTEX III GRAVITY WARS BMS Arcarea
BeatmapID:1956592
BeatmapSetID:936126

[Difficulty]
HPDrainRate:5
CircleSize:3.3
OverallDifficulty:6
ApproachRate:7.8
SliderMultiplier:1.4
SliderTickRate:1

[Events]
//Background and Video events
0,0,"painting-3995999_1920.jpg",0,0
//Break Periods
2,63186,74207
2,87186,94082
//Storyboard Layer 0 (Background)
//Storyboard Layer 1 (Fail)
//Storyboard Layer 2 (Pass)
//Storyboard Layer 3 (Foreground)
//Storyboard Sound Samples

[TimingPoints]
2986,375,4,2,1,70,1,0
8986,-100,4,2,1,70,0,0
11236,-100,4,2,1,70,0,0
14986,-83.3333333333333,4,2,1,70,0,0
16486,-83.3333333333333,4,2,1,70,0,0
17986,-83.3333333333333,4,2,1,70,0,0
23986,-83.3333333333333,4,2,1,70,0,0
24361,-83.3333333333333,4,2,1,70,0,0
24736,-83.3333333333333,4,2,1,70,0,0
25111,-83.3333333333333,4,2,1,70,0,0
25486,-83.3333333333333,4,2,1,70,0,0
25767,-83.3333333333333,4,2,1,70,0,0
26142,-83.3333333333333,4,2,1,70,0,0
26517,-83.3333333333333,4,2,1,70,0,0
26986,-83.3333333333333,4,2,1,70,0,0
29986,-83.3333333333333,4,2,1,70,0,0
38986,-100,4,2,1,80,0,0
49486,-100,4,2,1,80,0,0
50986,-100,4,2,1,80,0,0
60361,-100,4,2,1,80,0,0
61486,-100,4,2,1,80,0,0
61767,-100,4,2,1,80,0,0
62048,-100,4,2,1,80,0,0
62329,-100,4,2,1,80,0,0
62611,-100,4,2,1,65,0,0
62986,-100,4,2,1,100,0,0
68986,-100,4,2,1,100,0,0
69642,-100,4,2,1,5,0,0
69736,-100,4,2,1,100,0,0
71142,-100,4,2,1,5,0,0
71236,-100,4,2,1,100,0,0
72267,-100,4,2,1,5,0,0
72361,-100,4,2,1,100,0,0
73673,-100,4,2,1,40,0,0
74236,-100,4,2,1,60,0,0
74986,-100,4,2,1,70,0,0
77986,-100,4,2,1,70,0,0
80236,-100,4,2,1,70,0,0
80611,-100,4,2,1,70,0,0
80986,-100,4,2,1,70,0,0
81923,-100,4,2,1,70,0,0
83611,-100,4,2,1,50,0,0
83798,-100,4,2,1,70,0,0
83986,-100,4,2,1,60,0,0
84736,-100,4,2,1,60,0,0
85486,-100,4,2,1,60,0,0
86986,-100,4,2,1,60,0,0
95611,-100,4,2,1,60,0,0
97486,-100,4,2,1,70,0,0
99361,-100,4,2,1,70,0,0
99454,-100,4,2,1,5,0,0
99736,-100,4,2,1,70,0,0
99829,-100,4,2,1,5,0,0
99923,-100,4,2,1,70,0,0
102079,-100,4,2,1,5,0,0
102361,-100,4,2,1,70,0,0
102454,-100,4,2,1,5,0,0
102548,-100,4,2,1,70,0,0
104611,-100,4,2,1,70,0,0
104704,-100,4,2,1,5,0,0
104986,-100,4,2,1,70,0,0
105079,-100,4,2,1,5,0,0
105173,-100,4,2,1,70,0,0
107236,-100,4,2,1,70,0,0
108267,-100,4,2,1,80,0,0
109673,-100,4,2,1,80,0,0
110892,-100,4,2,1,80,0,0
111454,-100,4,2,1,80,0,0
112017,-100,4,2,1,80,0,0
112579,-100,4,2,1,80,0,0
113517,-100,4,2,1,80,0,0
114079,-100,4,2,1,80,0,0
114642,-100,4,2,1,80,0,0
115204,-100,4,2,1,80,0,0
116986,-100,4,2,1,85,0,0
117173,-100,4,2,1,85,0,0
117923,-100,4,2,1,85,0,0
118486,-100,4,2,1,85,0,0
118861,375,4,2,1,85,1,0
118861,-76.9230769230769,4,2,1,85,0,0
127861,-76.9230769230769,4,2,1,85,0,0
128236,-76.9230769230769,4,2,1,85,0,0
128611,-76.9230769230769,4,2,1,85,0,0
128986,-76.9230769230769,4,2,1,85,0,0
129267,-76.9230769230769,4,2,1,85,0,0
130861,-76.9230769230769,4,2,1,85,0,0
133861,-76.9230769230769,4,2,1,85,0,0
143048,-76.9230769230769,4,2,1,85,0,0
147361,-76.9230769230769,4,2,1,30,0,0
148861,-76.9230769230769,4,2,1,5,0,0

[Colours]
Combo1 : 50,205,73
Combo2 : 0,176,176
Combo3 : 2,157,41
Combo4 : 0,128,128

[HitObjects]
138,272,2986,6,0,P|128:197|139:126,2,140,4|0|0,0:1|3:0|3:0,0:0:0:0:
260,340,4111,2,0,P|303:327|352:335,1,70,0|0,3:0|0:0,0:0:0:0:
358,249,4486,2,0,P|315:236|266:244,1,70,0|0,3:0|0:0,0:0:0:0:
256,160,4861,2,0,P|299:147|348:155,1,70,0|0,3:0|0:0,0:0:0:0:
386,92,5236,1,0,3:0:0:0:
281,19,5517,5,2,0:0:0:0:
260,16,5611,2,0,P|220:26|178:47,1,70,0|2,3:0|0:0,0:0:0:0:
108,8,5986,1,0,3:0:0:0:
20,163,6267,1,2,0:0:0:0:
41,160,6361,2,0,P|81:170|123:191,1,70,0|0,3:0|0:0,0:0:0:0:
193,152,6736,1,0,3:2:0:0:
281,307,7017,5,2,0:0:0:0:
260,304,7111,2,0,P|220:314|178:335,1,70,0|2,3:0|0:0,0:0:0:0:
108,296,7486,1,0,3:0:0:0:
313,204,7861,2,0,P|377:219|421:289,1,140,0|0,3:0|3:0,0:0:0:0:
491,91,8611,2,0,L|484:44,3,35,0|0|0|0,3:0|3:0|3:0|3:0,0:0:0:0:
435,25,8986,6,0,P|372:18|300:52,1,140,0|0,3:0|3:0,0:0:0:0:
98,96,9736,2,0,P|161:89|233:123,1,140,0|0,3:0|3:0,0:0:0:0:
444,227,10486,1,0,3:0:0:0:
313,196,10861,1,0,3:0:0:0:
162,332,11236,1,0,3:0:0:0:
293,301,11611,1,0,3:0:0:0:
256,192,11986,12,4,14236,3:2:0:0:
331,349,14986,6,0,P|304:273|326:196,1,125.999996154785,4|0,3:2|0:0,0:0:0:0:
330,211,15361,2,0,P|397:213|376:123,1,167.999994873047,8|0,0:1|3:0,0:0:0:0:
135,33,16111,2,0,P|179:43|211:76,1,83.9999974365235,8|2,0:1|0:0,0:0:0:0:
167,151,16392,1,2,0:0:0:0:
167,151,16486,6,0,P|172:234|229:297,1,167.999994873047,0|8,3:0|0:1,0:0:0:0:
322,345,17048,1,0,0:0:0:0:
399,244,17236,2,0,B|422:186|402:146|368:128,1,125.999996154785,0|0,3:0|3:0,0:0:0:0:
354,132,17611,1,8,0:1:0:0:
406,51,17798,1,2,3:2:0:0:
304,4,17986,6,0,P|225:43|132:45,1,167.999994873047,0|8,3:0|0:1,0:0:0:0:
8,147,18642,1,2,0:0:0:0:
8,147,18736,2,0,P|82:193|178:203,1,167.999994873047,0|8,3:0|0:1,0:0:0:0:
266,315,19392,1,8,0:1:0:0:
266,315,19486,2,0,P|326:298|341:232,1,125.999996154785,0|0,3:0|3:0,0:0:0:0:
326,227,19861,2,0,P|276:199|258:77,1,167.999994873047,8|0,0:1|3:0,0:0:0:0:
502,6,20611,2,0,P|513:60|508:97,1,83.9999974365235,8|0,0:1|0:0,0:0:0:0:
408,146,20986,6,0,P|406:200|472:224,1,125.999996154785,4|0,3:2|3:0,0:0:0:0:
489,214,21361,2,0,P|512:250|508:303,1,83.9999974365235,8|0,0:1|0:0,0:0:0:0:
429,358,21736,2,0,P|371:379|261:371,1,167.999994873047,0|8,3:0|0:1,0:0:0:0:
140,296,22392,1,0,3:0:0:0:
140,296,22486,2,0,L|129:208,1,83.9999974365235,0|0,3:0|0:0,0:0:0:0:
187,153,22767,1,0,3:0:0:0:
187,153,22861,2,0,L|199:64,1,83.9999974365235,8|0,0:1|3:0,0:0:0:0:
99,16,23236,1,0,3:0:0:0:
216,238,23611,1,8,0:1:0:0:
431,92,23986,6,0,P|371:134|311:146,1,125.999996154785,4|0,0:0|3:1,0:0:0:0:
283,180,24361,2,0,P|320:202|406:208,1,125.999996154785,8|0,0:1|3:1,0:0:0:0:
415,257,24736,2,0,P|360:280|293:279,1,125.999996154785,8|0,0:1|3:1,0:0:0:0:
262,318,25111,2,0,P|311:351|378:360,1,125.999996154785,8|2,0:1|3:0,0:0:0:0:
424,344,25486,5,4,0:0:0:0:
480,145,25861,1,2,3:2:0:0:
288,57,26236,1,2,3:2:0:0:
212,336,26611,1,2,3:2:0:0:
29,92,26986,6,0,P|104:89|160:147,1,125.999996154785,4|0,3:1|3:1,0:0:0:0:
143,142,27361,2,0,P|220:177|252:109,1,167.999994873047,8|0,0:1|3:1,0:0:0:0:
453,130,28111,2,0,P|409:140|377:173,1,83.9999974365235,8|0,0:1|0:0,0:0:0:0:
345,244,28392,1,2,0:0:0:0:
345,244,28486,6,0,P|340:161|283:98,1,167.999994873047,4|0,3:2|3:0,0:0:0:0:
192,168,29048,1,0,3:0:0:0:
85,91,29236,2,0,B|27:100|-2:144|9:184,1,125.999996154785,8|0,0:1|3:0,0:0:0:0:
25,194,29611,1,0,3:0:0:0:
0,307,29798,1,0,3:0:0:0:
112,383,29986,6,0,P|191:344|284:342,1,167.999994873047,4|8,3:2|0:1,0:0:0:0:
182,192,30642,1,0,3:0:0:0:
182,192,30736,2,0,P|256:238|352:248,1,167.999994873047,0|8,3:0|0:1,0:0:0:0:
491,354,31392,1,8,0:1:0:0:
491,354,31486,2,0,P|431:337|416:271,1,125.999996154785,4|0,0:0|3:0,0:0:0:0:
427,251,31861,2,0,P|477:223|495:101,1,167.999994873047,8|0,0:1|3:1,0:0:0:0:
309,1,32611,2,0,P|284:47|282:83,1,83.9999974365235,8|8,0:1|0:1,0:0:0:0:
351,161,32986,6,0,P|353:215|287:239,1,125.999996154785,4|0,0:0|0:0,0:0:0:0:
269,227,33361,2,0,P|227:228|184:238,1,83.9999974365235,8|0,0:1|0:0,0:0:0:0:
141,327,33736,2,0,P|199:348|309:340,1,167.999994873047,0|8,3:1|0:1,0:0:0:0:
414,263,34392,1,0,3:0:0:0:
414,263,34486,2,0,L|403:175,1,83.9999974365235,0|0,3:0|0:0,0:0:0:0:
448,113,34767,1,0,0:0:0:0:
448,113,34861,2,0,P|434:56|412:24,1,83.9999974365235,8|0,0:1|0:0,0:0:0:0:
303,11,35236,6,0,P|235:55|279:139,1,167.999994873047,0|8,3:0|0:1,0:0:0:0:
300,226,35798,1,0,0:0:0:0:
209,298,35986,2,0,B|137:308|146:265|65:288,1,125.999996154785,4|0,3:2|0:0,0:0:0:0:
62,300,36361,1,8,0:1:0:0:
5,201,36548,1,0,3:0:0:0:
106,130,36736,2,0,P|112:61|38:85,1,167.999994873047,4|8,3:2|0:1,0:0:0:0:
155,224,37392,5,8,0:1:0:0:
155,224,37486,2,0,P|249:214|269:183,1,125.999996154785,4|0,3:2|3:0,0:0:0:0:
300,150,37861,2,0,P|206:140|186:109,1,125.999996154785,0|2,3:0|0:0,0:0:0:0:
152,78,38236,2,0,P|246:68|266:37,1,125.999996154785,2|2,3:2|0:0,0:0:0:0:
228,4,38611,1,2,3:2:0:0:
410,144,38986,5,0,3:0:0:0:
471,231,39173,1,0,0:0:0:0:
471,231,39267,1,0,3:0:0:0:
471,231,39361,1,0,3:0:0:0:
405,314,39548,6,0,P|339:284|298:285,1,105,0|0,3:0|3:1,0:0:0:0:
276,301,39923,1,8,0:1:0:0:
217,214,40111,2,0,P|283:184|324:185,1,105,0|0,3:0|3:1,0:0:0:0:
346,201,40486,1,8,0:1:0:0:
404,114,40673,2,0,P|338:84|297:85,1,105,0|0,3:0|3:1,0:0:0:0:
275,101,41048,1,8,0:1:0:0:
166,59,41236,2,0,L|119:55,1,35,0|0,3:0|0:0,0:0:0:0:
90,72,41423,1,0,3:0:0:0:
45,154,41611,1,8,0:1:0:0:
133,172,41798,1,8,0:1:0:0:
204,252,41986,5,4,3:2:0:0:
142,314,42173,1,0,0:0:0:0:
142,314,42267,1,0,3:0:0:0:
142,314,42361,1,0,3:0:0:0:
241,355,42548,6,0,L|376:361,1,105,0|0,3:0|3:1,0:0:0:0:
366,336,42923,1,8,0:1:0:0:
306,249,43111,2,0,L|171:255,1,105,0|0,3:0|3:1,0:0:0:0:
181,230,43486,1,8,0:1:0:0:
241,144,43673,2,0,L|376:150,1,105,0|0,3:0|3:1,0:0:0:0:
366,125,44048,1,8,0:1:0:0:
296,51,44236,5,8,0:1:0:0:
296,51,44329,1,8,0:1:0:0:
296,51,44423,1,8,0:1:0:0:
388,0,44611,2,0,L|396:50,3,35,0|0|0|0,3:0|3:0|3:0|3:0,0:0:0:0:
437,64,44986,2,0,P|463:129|420:199,1,140,4|0,3:2|3:0,0:0:0:0:
332,162,45548,6,0,P|309:143|256:192,1,105,0|0,3:0|3:1,0:0:0:0:
242,204,45923,1,8,0:1:0:0:
259,307,46111,2,0,P|236:326|183:277,1,105,0|0,3:0|3:1,0:0:0:0:
169,265,46486,1,8,0:1:0:0:
169,160,46673,2,0,P|146:141|93:190,1,105,0|0,3:0|3:1,0:0:0:0:
79,202,47048,1,8,0:1:0:0:
19,300,47236,5,8,0:1:0:0:
19,300,47329,1,0,3:0:0:0:
19,300,47423,1,0,3:0:0:0:
119,332,47611,1,0,3:1:0:0:
217,367,47798,1,0,3:0:0:0:
296,297,47986,6,0,L|312:138,1,140,4|0,3:2|3:1,0:0:0:0:
258,61,48548,2,0,P|229:44|181:91,1,105,0|0,3:0|3:1,0:0:0:0:
181,114,48923,1,8,0:1:0:0:
136,215,49111,2,0,B|66:247|61:192|-18:222,1,140,0|2,3:0|0:0,0:0:0:0:
12,299,49673,1,4,0:0:0:0:
42,377,49861,2,0,B|126:382|136:289|208:266|268:349|309:390|374:360|376:313|364:279|309:268,1,385,2|0,0:3|3:0,0:0:0:0:
318,269,50986,6,0,L|305:108,1,140,4|0,0:0|3:0,0:0:0:0:
208,60,51548,2,0,P|174:102|113:98,1,105,0|0,3:0|0:1,0:0:0:0:
105,91,51923,1,8,0:1:0:0:
45,177,52111,2,0,P|79:219|140:215,1,105,0|0,3:0|3:1,0:0:0:0:
148,208,52486,1,8,0:1:0:0:
208,293,52673,2,0,P|174:335|113:331,1,105,0|0,3:0|3:1,0:0:0:0:
105,324,53048,1,8,0:1:0:0:
0,270,53236,5,0,3:1:0:0:
0,270,53329,1,0,3:0:0:0:
0,270,53423,1,0,3:0:0:0:
60,168,53611,2,0,L|64:121,3,35,8|8|8|8,0:1|0:1|0:1|0:1,0:0:0:0:
4,75,53986,2,0,P|17:37|117:26,1,140,4|0,3:2|3:0,0:0:0:0:
178,118,54548,6,0,L|293:124,1,105,0|0,3:0|3:1,0:0:0:0:
298,146,54923,1,8,0:1:0:0:
359,231,55111,2,0,L|244:237,1,105,0|0,3:0|3:1,0:0:0:0:
239,259,55486,1,8,0:1:0:0:
177,343,55673,2,0,L|292:349,1,105,0|0,3:0|3:1,0:0:0:0:
297,371,56048,1,8,0:1:0:0:
399,328,56236,5,2,0:0:0:0:
399,328,56329,1,2,0:0:0:0:
399,328,56423,1,0,3:0:0:0:
407,223,56611,2,0,L|412:142,1,70,8|8,0:1|0:1,0:0:0:0:
481,58,56986,6,0,P|437:13|362:34,1,140,4|0,3:2|3:0,0:0:0:0:
318,127,57548,2,0,P|266:130|245:80,1,105,0|0,3:0|0:1,0:0:0:0:
229,68,57923,1,8,0:1:0:0:
138,14,58111,2,0,P|86:11|65:61,1,105,0|0,3:0|3:1,0:0:0:0:
49,73,58486,1,8,0:1:0:0:
122,147,58673,2,0,P|125:199|75:220,1,105,0|0,3:0|3:1,0:0:0:0:
63,236,59048,1,8,0:1:0:0:
112,329,59236,6,0,L|174:339,3,35,0|0|0|0,3:3|3:3|3:3|3:3,0:0:0:0:
193,358,59611,2,0,L|255:348,3,35,8|8|8|8,0:1|0:1|0:1|0:1,0:0:0:0:
270,321,59986,6,0,P|300:265|300:200,1,105,0|0,3:0|0:0,0:0:0:0:
281,203,60361,5,0,3:0:0:0:
333,112,60548,1,8,0:1:0:0:
263,32,60736,1,8,0:1:0:0:
263,32,60829,1,0,3:0:0:0:
263,32,60923,1,0,3:1:0:0:
173,87,61111,2,0,L|116:107,3,35,8|8|8|8,0:1|0:1|0:1|0:1,0:0:0:0:
117,146,61486,6,0,B|120:193|120:193|114:200|114:200|120:264,3,105,4|2|2|2,3:2|3:2|3:2|3:2,0:0:0:0:
231,333,62611,2,0,L|227:286,4,35,0|0|0|0|4,3:0|3:0|3:0|3:0|0:1,0:0:0:0:
342,293,74986,6,0,P|362:231|359:138,1,140,4|8,3:1|0:1,0:0:0:0:
239,323,75736,2,0,P|188:281|140:202,1,140,0|8,3:0|0:1,0:0:0:0:
168,83,76486,2,0,P|148:145|151:238,1,140,0|8,3:0|0:1,0:0:0:0:
271,53,77236,2,0,P|321:94|369:173,1,140,0|8,3:0|0:1,0:0:0:0:
258,343,77986,6,0,P|238:281|241:188,1,140,4|8,3:1|0:1,0:0:0:0:
361,373,78736,2,0,P|411:331|459:252,1,140,0|8,3:0|0:1,0:0:0:0:
432,133,79486,2,0,P|452:195|449:288,1,140,4|0,3:2|3:0,0:0:0:0:
329,103,80236,2,0,P|278:144|230:223,1,140,8|0,0:1|1:1,0:0:0:0:
256,309,80798,1,8,0:1:0:0:
168,367,80986,6,0,P|114:339|56:333,1,105,4|0,3:1|3:0,0:0:0:0:
45,346,81361,1,8,0:1:0:0:
8,247,81548,1,0,1:1:0:0:
8,247,81642,1,0,1:0:0:0:
8,247,81736,2,0,P|30:199|130:209,1,140,4|8,3:2|0:1,0:0:0:0:
261,128,82486,6,0,P|239:80|139:90,1,140,4|0,0:0|3:0,0:0:0:0:
111,165,83048,1,0,3:0:0:0:
194,229,83236,2,0,L|250:239,4,35,8|0|0|0|0,0:1|3:0|3:0|3:0|1:0,0:0:0:0:
356,354,83986,6,0,L|371:206,1,140,0|8,3:0|0:1,0:0:0:0:
232,323,84736,2,0,L|217:175,1,140,0|8,3:0|0:1,0:0:0:0:
139,114,85298,1,0,3:0:0:0:
33,110,85486,2,0,P|102:72|145:16,1,140,4|8,3:2|0:1,0:0:0:0:
333,109,86236,2,0,P|264:71|221:15,1,140,0|8,3:0|0:1,0:0:0:0:
183,214,86986,5,2,0:0:0:0:
256,192,94861,12,2,96736,0:2:0:0:
360,265,97486,6,0,L|374:114,1,140,2|8,0:0|0:0,0:0:0:0:
313,39,98048,2,0,P|245:17|189:24,1,105,2|0,0:0|0:0,0:0:0:0:
195,40,98423,1,8,0:0:0:0:
227,140,98611,2,0,P|249:208|242:264,1,105,2|0,0:0|0:0,0:0:0:0:
226,258,98986,1,8,0:0:0:0:
148,317,99173,1,2,0:0:0:0:
54,364,99361,6,0,L|75:220,1,140,10|10,0:0|0:0,0:0:0:0:
27,134,99923,1,8,0:0:0:0:
88,61,100111,2,0,P|147:48|182:123,1,140,2|8,0:0|0:0,0:0:0:0:
236,206,100673,2,0,L|355:215,1,105,2|0,0:0|0:0,0:0:0:0:
369,205,101048,1,8,0:0:0:0:
390,308,101236,2,0,L|271:299,1,105,2|0,0:2|0:2,0:0:0:0:
257,309,101611,1,8,0:2:0:0:
92,374,101986,6,0,L|86:226,1,140,8|10,0:2|0:2,0:0:0:0:
168,174,102548,1,8,0:0:0:0:
254,229,102736,2,0,P|316:231|331:148,1,140,2|10,0:0|0:0,0:0:0:0:
266,96,103298,2,0,P|260:61|301:4,1,105,2|0,0:0|0:0,0:0:0:0:
320,15,103673,1,8,0:0:0:0:
413,63,103861,2,0,P|443:81|457:150,1,105,2|0,0:0|0:0,0:0:0:0:
447,166,104236,1,8,0:0:0:0:
396,249,104423,1,8,0:0:0:0:
342,331,104611,6,0,L|188:344,1,140,10|10,0:0|0:0,0:0:0:0:
68,232,105361,2,0,B|72:175|171:121|194:227|249:246|323:209|370:157|351:20|192:-8|192:63|195:147|111:131|64:69|79:25,1,560,10|2,0:0|0:2,0:0:0:0:
314,15,107236,2,0,B|357:-11|447:1|431:46,2,140,0|2|2,3:0|0:0|0:0,0:0:0:0:
220,156,108267,6,0,P|159:172|95:143,2,105,0|0|0,3:0|3:0|3:0,0:0:0:0:
286,305,109111,2,0,P|289:254|299:228,1,70,0|0,3:0|0:3,0:0:0:0:
353,180,109392,2,0,P|350:129|340:103,1,70,0|0,3:0|0:0,0:0:0:0:
278,62,109673,1,8,3:0:0:0:
119,161,109954,6,0,P|153:205|158:251,1,70,8|0,3:0|0:3,0:0:0:0:
86,265,110236,2,0,P|51:220|46:174,1,70,8|0,3:0|3:0,0:0:0:0:
37,122,110517,2,0,P|33:102|14:74,1,35,8|0,3:0|0:0,0:0:0:0:
147,31,110798,5,0,3:0:0:0:
156,50,110892,2,0,P|200:76|232:78,1,70,8|4,3:0|0:3,0:0:0:0:
286,130,111173,2,0,P|330:104|362:102,1,70,8|4,3:0|0:3,0:0:0:0:
413,166,111454,2,0,L|426:243,1,70,8|4,3:0|0:3,0:0:0:0:
371,305,111736,2,0,L|382:235,1,70,8|4,3:0|0:3,0:0:0:0:
463,313,112017,1,8,3:0:0:0:
291,373,112298,6,0,P|238:371|194:357,1,70,8|4,3:0|0:3,0:0:0:0:
146,330,112579,2,0,P|199:328|243:314,1,70,8|0,3:0|0:0,0:0:0:0:
260,246,112861,2,0,L|301:241,4,35,0|0|0|0|8,3:0|3:0|3:0|3:0|1:3,0:0:0:0:
165,191,113423,5,8,3:0:0:0:
149,174,113517,2,0,P|129:138|127:89,1,70,8|4,1:3|3:0,0:0:0:0:
202,65,113798,2,0,P|208:30|226:0,1,70,8|4,1:3|3:0,0:0:0:0:
304,46,114079,2,0,P|321:75|328:110,1,70,8|4,1:3|3:0,0:0:0:0:
405,155,114360,2,0,P|398:189|380:219,1,70,8|4,1:3|3:0,0:0:0:0:
302,263,114642,1,4,1:2:0:0:
159,325,114829,5,4,3:0:0:0:
149,308,114923,2,0,L|143:227,1,70,4|4,1:2|3:0,0:0:0:0:
208,174,115204,2,0,L|214:93,1,70,4|4,3:2|3:0,0:0:0:0:
160,26,115486,1,4,1:2:0:0:
142,23,115579,1,4,1:2:0:0:
124,20,115673,1,4,1:2:0:0:
106,18,115767,1,4,1:2:0:0:
88,16,115861,6,0,B|54:75|148:165|52:285|52:285|119:322|134:222|231:262|211:319|150:299,1,490,0|2,1:0|0:1,0:0:0:0:
246,373,117361,6,0,P|297:340|324:341,1,70,4|8,1:0|3:0,0:0:0:0:
341,292,117642,2,0,P|290:259|263:260,1,70,4|8,1:0|3:0,0:0:0:0:
225,205,117923,2,0,P|276:172|303:173,1,70,4|0,1:2|0:0,0:0:0:0:
354,114,118204,2,0,P|303:81|276:82,1,70,4|8,1:3|1:3,0:0:0:0:
278,57,118486,1,4,1:0:0:0:
89,164,118861,6,0,P|84:226|111:304,1,136.499993751526,4|0,3:1|0:0,0:0:0:0:
137,319,119236,2,0,P|203:313|175:222,1,181.999991668702,8|4,0:1|3:2,0:0:0:0:
309,67,119986,2,0,P|353:77|385:129,1,90.9999958343508,8|0,0:1|1:0,0:0:0:0:
331,182,120267,1,0,1:0:0:0:
331,182,120361,6,0,P|336:265|400:351,1,181.999991668702,0|8,3:0|0:1,0:0:0:0:
472,288,120923,1,0,1:0:0:0:
502,193,121111,2,0,P|491:130|467:86,1,90.9999958343508,0|0,3:0|0:0,0:0:0:0:
413,52,121486,1,8,0:1:0:0:
347,104,121673,1,0,1:0:0:0:
252,29,121861,6,0,P|168:34|130:117,1,181.999991668702,4|8,3:1|1:1,0:0:0:0:
20,230,122517,1,0,3:0:0:0:
20,230,122611,2,0,P|92:200|207:218,1,181.999991668702,0|8,3:1|0:1,0:0:0:0:
90,380,123267,1,0,1:0:0:0:
90,380,123361,2,0,P|79:318|153:298,1,136.499993751526,4|0,3:1|3:0,0:0:0:0:
178,331,123736,2,0,P|247:341|347:298,1,181.999991668702,8|0,0:1|3:0,0:0:0:0:
502,133,124486,2,0,P|500:178|450:218,1,90.9999958343508,8|0,0:1|1:0,0:0:0:0:
355,211,124861,6,0,P|303:206|292:115,1,136.499993751526,4|0,3:1|3:0,0:0:0:0:
265,111,125236,2,0,P|218:109|168:133,1,90.9999958343508,8|0,0:1|0:0,0:0:0:0:
187,249,125611,2,0,P|174:193|56:144,1,181.999991668702,0|8,3:0|0:1,0:0:0:0:
284,33,126267,1,0,0:0:0:0:
284,33,126361,2,0,L|396:49,1,90.9999958343508,0|0,3:0|0:0,0:0:0:0:
437,111,126642,1,0,1:0:0:0:
437,111,126736,2,0,L|448:203,1,90.9999958343508,8|0,0:1|0:0,0:0:0:0:
504,263,127111,1,0,3:0:0:0:
292,359,127486,1,8,0:1:0:0:
285,149,127861,6,0,P|225:107|156:98,1,136.499993751526,4|0,3:1|3:0,0:0:0:0:
72,113,128236,2,0,P|141:136|210:126,1,136.499993751526,8|0,0:1|3:0,0:0:0:0:
275,69,128611,2,0,P|348:70|409:103,1,136.499993751526,8|0,0:1|3:0,0:0:0:0:
468,165,128986,2,0,P|397:143|348:94,1,136.499993751526,8|0,0:1|1:0,0:0:0:0:
285,150,129361,5,2,3:2:0:0:
421,336,129736,1,0,3:0:0:0:
180,235,130111,1,2,3:2:0:0:
215,11,130486,1,4,3:2:0:0:
21,165,130861,6,0,P|92:158|167:201,1,136.499993751526,4|0,3:1|3:0,0:0:0:0:
150,231,131236,2,0,P|227:266|233:176,1,181.999991668702,8|0,0:1|1:0,0:0:0:0:
440,82,131986,2,0,P|390:91|358:124,1,90.9999958343508,8|0,0:1|0:0,0:0:0:0:
337,202,132267,1,0,1:0:0:0:
337,202,132361,6,0,P|390:248|511:239,1,181.999991668702,4|8,3:1|0:1,0:0:0:0:
449,355,132923,1,0,3:0:0:0:
449,355,133017,1,0,3:0:0:0:
449,355,133111,2,0,B|377:375|385:322|288:344,1,136.499993751526,0|0,1:0|3:0,0:0:0:0:
304,358,133486,1,8,0:1:0:0:
222,293,133673,1,0,1:0:0:0:
107,369,133861,6,0,P|186:330|184:222,1,181.999991668702,4|8,3:1|0:1,0:0:0:0:
61,126,134517,1,0,3:0:0:0:
61,126,134611,2,0,B|169:107|127:169|249:151,1,181.999991668702,0|8,3:0|0:1,0:0:0:0:
392,22,135267,1,0,3:0:0:0:
392,22,135361,2,0,P|332:39|320:118,1,136.499993751526,4|0,3:1|3:0,0:0:0:0:
354,149,135736,2,0,P|343:230|232:248,1,181.999991668702,8|0,0:1|3:0,0:0:0:0:
255,0,136486,2,0,P|230:46|231:85,1,90.9999958343508,8|0,0:1|0:0,0:0:0:0:
189,201,136861,6,0,P|143:198|100:111,1,136.499993751526,4|0,3:1|0:0,0:0:0:0:
72,104,137236,2,0,P|77:54|113:24,1,90.9999958343508,8|0,0:1|0:0,0:0:0:0:
183,63,137517,1,0,1:0:0:0:
183,63,137611,2,0,P|202:126|198:249,1,181.999991668702,0|8,3:0|0:1,0:0:0:0:
24,358,138267,1,0,1:0:0:0:
24,358,138361,2,0,P|65:326|107:315,1,90.9999958343508,4|0,3:1|0:0,0:0:0:0:
198,328,138642,1,0,1:0:0:0:
198,328,138736,2,0,P|239:360|281:371,1,90.9999958343508,8|0,0:1|0:0,0:0:0:0:
396,279,139111,6,0,P|416:203|327:195,1,181.999991668702,0|8,3:0|0:1,0:0:0:0:
245,247,139673,1,0,0:0:0:0:
180,168,139861,2,0,B|160:98|203:101|172:16,1,136.499993751526,4|0,3:1|0:0,0:0:0:0:
158,22,140236,1,8,0:1:0:0:
71,75,140423,1,8,0:1:0:0:
27,166,140611,2,0,L|45:340,1,136.499993751526,4|0,3:1|0:0,0:0:0:0:
80,344,140986,2,0,P|110:322|124:319,1,45.4999979171754,8|0,0:1|0:0,0:0:0:0:
238,361,141267,5,0,1:0:0:0:
238,361,141361,2,0,P|332:351|357:308,1,136.499993751526,4|0,3:1|0:0,0:0:0:0:
326,240,141736,2,0,P|232:250|207:293,1,136.499993751526,12|0,0:1|1:0,0:0:0:0:
139,240,142111,2,0,P|233:250|258:293,1,136.499993751526,4|0,3:1|1:0,0:0:0:0:
238,361,142486,1,8,0:1:0:0:
352,322,142673,1,8,0:1:0:0:
430,373,142861,1,6,3:2:0:0:
493,258,143048,6,0,P|491:211|462:147,1,90.9999958343508,8|0,0:1|3:0,0:0:0:0:
437,43,143423,2,0,L|438:133,1,90.9999958343508,8|0,0:1|3:0,0:0:0:0:
306,201,143798,2,0,L|304:110,1,90.9999958343508,8|0,0:1|3:0,0:0:0:0:
173,18,144173,2,0,L|174:108,1,90.9999958343508,8|4,0:1|0:1,0:0:0:0:
74,224,144548,6,0,L|25:213,2,45.4999979171754,0|0|8,3:0|3:0|0:1,0:0:0:0:
217,256,144923,2,0,L|261:265,2,45.4999979171754,8|8|12,3:0|3:0|0:1,0:0:0:0:
42,312,145298,1,0,3:0:0:0:
42,312,145392,1,0,3:0:0:0:
42,312,145486,1,0,3:0:0:0:
224,342,145673,1,0,3:0:0:0:
224,342,145767,1,0,3:0:0:0:
224,342,145861,1,8,3:1:0:0:
256,192,145954,12,8,147361,3:1:0:0:
