osu file format v14

[General]
AudioFilename: audio.mp3
AudioLeadIn: 0
PreviewTime: 117079
Countdown: 0
SampleSet: Soft
StackLeniency: 0.7
Mode: 0
LetterboxInBreaks: 0
WidescreenStoryboard: 0

[Editor]
Bookmarks: 14986,23986,26986,38986,50986,62986,74986,86986,97486,107986,118861,130861,142861,147361
DistanceSpacing: 0.5
BeatDivisor: 4
GridSize: 16
TimelineZoom: 3.799998

[Metadata]
Title:conflict
TitleUnicode:conflict
Artist:siromaru + cranky
ArtistUnicode:siromaru + cranky
Creator:Icekalt
Version:Encounter
Source:osu!
Tags:ataraxia mappers guild mpg electronic pico video game SOUND VOLTEX III GRAVITY WARS BMS Arcarea
BeatmapID:1955676
BeatmapSetID:936126

[Difficulty]
HPDrainRate:5
CircleSize:3.8
OverallDifficulty:8.6
ApproachRate:9.4
SliderMultiplier:2
SliderTickRate:1

[Events]
//Background and Video events
0,0,"painting-3995999_1920.jpg",0,0
//Break Periods
2,63186,68446
//Storyboard Layer 0 (Background)
//Storyboard Layer 1 (Fail)
//Storyboard Layer 2 (Pass)
//Storyboard Layer 3 (Foreground)
//Storyboard Sound Samples

[TimingPoints]
2986,375,4,2,1,70,1,0
8986,-83.3333333333333,4,2,1,70,0,0
11236,-71.4285714285714,4,2,1,70,0,0
14986,-66.6666666666667,4,2,1,70,0,0
16486,-58.8235294117647,4,2,1,70,0,0
17986,-55.5555555555556,4,2,1,70,0,0
23986,-50,4,2,1,70,0,0
24361,-45.4545454545455,4,2,1,70,0,0
24736,-41.6666666666667,4,2,1,70,0,0
25111,-38.4615384615385,4,2,1,70,0,0
25486,-50,4,2,1,70,0,0
25767,-47.6190476190476,4,2,1,70,0,0
26142,-45.4545454545455,4,2,1,70,0,0
26517,-43.4782608695652,4,2,1,70,0,0
26986,-57.1428571428571,4,2,1,70,0,0
29986,-54.054054054054,4,2,1,70,0,0
38986,-66.6666666666667,4,2,1,80,0,0
49486,-100,4,2,1,80,0,0
50986,-62.5,4,2,1,80,0,0
60361,-55.5555555555556,4,2,1,80,0,0
61486,-43.4782608695652,4,2,1,80,0,0
61767,-50,4,2,1,80,0,0
62048,-58.8235294117647,4,2,1,80,0,0
62329,-71.4285714285714,4,2,1,80,0,0
62611,-71.4285714285714,4,2,1,65,0,0
62986,-71.4285714285714,4,2,1,100,0,0
68986,-133.333333333333,4,2,1,100,0,0
69642,-133.333333333333,4,2,1,5,0,0
69736,-133.333333333333,4,2,1,100,0,0
71142,-133.333333333333,4,2,1,5,0,0
71236,-133.333333333333,4,2,1,100,0,0
72267,-133.333333333333,4,2,1,5,0,0
72361,-133.333333333333,4,2,1,100,0,0
73673,-133.333333333333,4,2,1,40,0,0
74236,-133.333333333333,4,2,1,60,0,0
74986,-76.9230769230769,4,2,1,70,0,0
77986,-71.4285714285714,4,2,1,70,0,0
80236,-66.6666666666667,4,2,1,70,0,0
80611,-71.4285714285714,4,2,1,70,0,0
80986,-66.6666666666667,4,2,1,70,0,0
81923,-62.5,4,2,1,70,0,0
83611,-62.5,4,2,1,50,0,0
83798,-62.5,4,2,1,70,0,0
83986,-58.8235294117647,4,2,1,60,0,0
84736,-55.5555555555556,4,2,1,60,0,0
85486,-52.6315789473684,4,2,1,60,0,0
86986,-100,4,2,1,60,0,0
95611,-71.4285714285714,4,2,1,60,0,0
97486,-71.4285714285714,4,2,1,70,0,0
99361,-125,4,2,1,70,0,0
99454,-125,4,2,1,5,0,0
99736,-125,4,2,1,70,0,0
99829,-125,4,2,1,5,0,0
99923,-125,4,2,1,70,0,0
102079,-125,4,2,1,5,0,0
102361,-125,4,2,1,70,0,0
102454,-125,4,2,1,5,0,0
102548,-125,4,2,1,70,0,0
104611,-125,4,2,1,70,0,0
104704,-125,4,2,1,5,0,0
104986,-125,4,2,1,70,0,0
105079,-125,4,2,1,5,0,0
105173,-125,4,2,1,70,0,0
107236,-66.6666666666667,4,2,1,70,0,0
108267,-100,4,2,1,80,0,0
109673,-83.3333333333333,4,2,1,80,0,0
110892,-66.6666666666667,4,2,1,80,0,0
111454,-58.8235294117647,4,2,1,80,0,0
112017,-52.6315789473684,4,2,1,80,0,0
112579,-47.6190476190476,4,2,1,80,0,0
113517,-43.4782608695652,4,2,1,80,0,0
114079,-41.6666666666667,4,2,1,80,0,0
114642,-40,4,2,1,80,0,0
115204,-38.4615384615385,4,2,1,80,0,0
116986,-58.8235294117647,4,2,1,85,0,0
117173,-40,4,2,1,85,0,0
117923,-50,4,2,1,85,0,0
118486,-285.714285714284,4,2,1,85,0,0
118861,375,4,2,1,85,1,0
118861,-55.5555555555556,4,2,1,85,0,0
127861,-50,4,2,1,85,0,0
128236,-47.6190476190476,4,2,1,85,0,0
128611,-45.4545454545455,4,2,1,85,0,0
128986,-43.4782608695652,4,2,1,85,0,0
129267,-40,4,2,1,85,0,0
130861,-50,4,2,1,85,0,0
133861,-45.4545454545455,4,2,1,85,0,0
143048,-62.5,4,2,1,85,0,0
147361,-117.647058823529,4,2,1,55,0,0
148861,-117.647058823529,4,2,1,5,0,0

[Colours]
Combo1 : 50,205,73
Combo2 : 0,176,176
Combo3 : 2,157,41
Combo4 : 0,128,128

[HitObjects]
270,35,2986,6,0,P|221:43|176:64,1,100,4|0,0:1|0:0,0:0:0:0:
348,74,3361,2,0,P|389:104|435:74,1,100,0|0,3:0|0:0,0:0:0:0:
460,239,3736,2,0,P|471:182|505:131,1,100,0|0,3:0|0:0,0:0:0:0:
383,329,4111,6,0,P|351:262|254:231,1,150,0|0,3:0|0:0,0:0:0:0:
265,240,4486,2,0,P|297:173|394:142,1,150,0|0,3:0|0:0,0:0:0:0:
384,150,4861,2,0,P|352:83|255:52,1,150,0|0,3:0|0:0,0:0:0:0:
229,109,5236,6,0,P|189:119|126:119,1,100,0|0,3:0|0:0,0:0:0:0:
29,259,5517,1,0,0:0:0:0:
13,250,5611,2,0,P|40:211|86:223,1,100,0|0,3:0|0:0,0:0:0:0:
155,346,5986,2,0,L|171:228,1,100,0|0,3:0|0:0,0:0:0:0:
299,295,6267,1,0,0:0:0:0:
317,291,6361,2,0,P|300:246|253:245,1,100,0|0,3:0|0:0,0:0:0:0:
144,349,6736,2,0,L|160:231,1,100,0|0,3:0|0:0,0:0:0:0:
104,85,7017,1,0,0:0:0:0:
90,89,7111,2,0,P|83:141|103:207,1,100,0|0,3:0|0:0,0:0:0:0:
314,72,7486,6,0,L|213:62,1,100,0|0,3:0|0:0,0:0:0:0:
278,160,7767,1,0,0:0:0:0:
294,170,7861,2,0,L|395:160,1,100,0|0,3:0|0:0,0:0:0:0:
230,313,8236,2,0,P|256:272|319:302,1,100,0|0,3:0|0:0,0:0:0:0:
106,377,8611,1,0,3:0:0:0:
100,322,8704,1,0,3:0:0:0:
94,267,8798,1,0,3:0:0:0:
88,212,8892,1,0,3:0:0:0:
82,157,8986,6,0,P|119:106|175:121,1,119.999996337891,0|0,3:0|0:0,0:0:0:0:
220,24,9267,1,0,0:0:0:0:
236,33,9361,2,0,B|264:120|264:120|247:170|270:214,1,179.999994506836,0|0,3:0|0:0,0:0:0:0:
376,320,9736,2,0,L|390:181,1,119.999996337891,0|0,3:0|0:0,0:0:0:0:
212,379,10017,1,0,0:0:0:0:
197,362,10111,2,0,L|183:223,1,119.999996337891,0|0,3:0|0:0,0:0:0:0:
442,88,10486,2,0,P|350:93|302:122,1,119.999996337891,0|0,3:0|0:0,0:0:0:0:
300,244,10767,1,0,0:0:0:0:
276,231,10861,2,0,P|274:138|300:88,1,119.999996337891,0|0,3:0|0:0,0:0:0:0:
87,118,11236,6,0,P|151:160|171:292,1,209.999993591309,0|0,3:0|0:0,0:0:0:0:
61,317,11611,2,0,P|108:280|146:346,1,139.999995727539,0|0,3:0|0:0,0:0:0:0:
309,361,11986,2,0,P|281:278|332:153,1,209.999993591309,2|0,3:2|0:0,0:0:0:0:
428,245,12361,2,0,B|377:271|377:271|339:241|341:187,1,139.999995727539,2|0,3:2|0:0,0:0:0:0:
273,69,12736,1,2,3:2:0:0:
223,242,12923,1,2,0:2:0:0:
127,19,13111,1,2,3:2:0:0:
45,294,13298,1,2,0:2:0:0:
253,52,13486,5,2,3:2:0:0:
267,102,13579,1,2,3:2:0:0:
257,152,13673,1,0,1:2:0:0:
39,261,13861,5,2,3:2:0:0:
108,212,13954,1,2,3:2:0:0:
186,206,14048,1,0,1:0:0:0:
241,232,14142,1,0,1:0:0:0:
279,273,14236,1,0,1:0:0:0:
325,277,14329,1,2,3:2:0:0:
361,259,14423,1,2,3:2:0:0:
377,260,14611,5,2,1:2:0:0:
315,316,14704,1,2,1:2:0:0:
231,305,14798,1,2,1:2:0:0:
200,226,14892,1,2,1:2:0:0:
242,153,14986,6,0,P|253:108|245:66,1,75.0000028610231,4|0,3:2|0:0,0:0:0:0:
99,20,15173,2,0,P|134:31|163:55,1,75.0000028610231,2|0,0:0|0:0,0:0:0:0:
11,238,15361,2,0,P|39:150|109:110,1,150.000005722046,8|0,0:1|0:0,0:0:0:0:
124,274,15642,1,0,0:0:0:0:
97,314,15736,2,0,P|139:370|232:342,1,150.000005722046,0|2,3:0|0:0,0:0:0:0:
333,149,16017,1,0,0:0:0:0:
293,203,16111,1,8,0:1:0:0:
287,258,16204,1,0,0:0:0:0:
310,301,16298,1,2,0:0:0:0:
346,324,16392,1,2,0:0:0:0:
385,321,16486,6,0,P|327:259|226:252,1,170.000003242493,0|0,3:0|0:0,0:0:0:0:
127,68,16767,1,0,0:0:0:0:
58,124,16861,2,0,P|32:215|40:294,1,170.000003242493,8|0,0:1|0:0,0:0:0:0:
233,370,17142,1,2,0:0:0:0:
313,279,17236,2,0,B|301:243|254:237|254:237|270:331|325:343|385:330,1,255.000004863739,0|0,3:0|3:0,0:0:0:0:
468,205,17611,2,0,P|463:146|435:106,1,85.0000016212464,8|0,0:1|0:0,0:0:0:0:
304,20,17798,2,0,P|345:25|381:47,1,85.0000016212464,2|2,3:2|0:0,0:0:0:0:
171,229,17986,6,0,B|152:155|188:38|188:38|205:113,1,269.999991760254,0|0,3:0|0:0,0:0:0:0:
83,250,18361,2,0,P|74:309|177:328,1,179.999994506836,8|0,0:1|0:0,0:0:0:0:
336,294,18642,1,2,0:0:0:0:
404,355,18736,2,0,P|384:306|379:255,1,89.9999972534181,0|0,3:0|0:0,0:0:0:0:
326,174,18923,2,0,P|326:121|342:72,1,89.9999972534181,2|0,0:0|0:0,0:0:0:0:
495,36,19111,2,0,B|404:6|411:74|302:49,1,179.999994506836,8|0,0:1|0:0,0:0:0:0:
109,18,19392,1,8,0:1:0:0:
27,74,19486,6,0,P|17:143|32:290,1,179.999994506836,0|0,3:0|0:0,0:0:0:0:
218,363,19767,1,0,3:0:0:0:
304,281,19861,2,0,B|345:214|343:89|237:73|192:125|203:170,1,269.999991760254,8|0,0:1|0:0,0:0:0:0:
404,291,20236,1,0,3:0:0:0:
435,273,20329,1,0,3:0:0:0:
449,249,20423,1,0,3:0:0:0:
454,227,20517,1,0,3:0:0:0:
453,206,20611,2,0,B|447:121|382:123|386:13|386:13|374:57|349:79,1,269.999991760254,8|8,0:1|0:1,0:0:0:0:
297,167,20986,6,0,P|221:119|132:111,1,179.999994506836,4|0,3:2|0:0,0:0:0:0:
0,299,21267,1,0,3:0:0:0:
80,374,21361,2,0,B|190:369|169:249|102:250|125:143,1,269.999991760254,8|0,0:1|0:0,0:0:0:0:
360,90,21736,2,0,P|311:56|275:44,1,89.9999972534181,0|0,3:0|0:0,0:0:0:0:
67,44,21923,2,0,P|123:24|161:23,1,89.9999972534181,0|0,3:0|0:0,0:0:0:0:
249,224,22111,2,0,L|259:327,1,89.9999972534181,8|0,0:1|0:0,0:0:0:0:
341,264,22298,2,0,L|349:174,1,89.9999972534181,0|0,0:0|0:0,0:0:0:0:
126,218,22486,6,0,P|230:195|282:128,1,179.999994506836,0|0,3:0|0:0,0:0:0:0:
427,9,22767,1,0,3:0:0:0:
480,95,22861,2,0,P|446:115|382:126,1,89.9999972534181,8|0,0:1|0:0,0:0:0:0:
130,4,23048,2,0,P|150:37|201:77,1,89.9999972534181,0|0,3:0|0:0,0:0:0:0:
249,224,23236,2,0,B|265:319|143:357|115:255|27:323,1,269.999991760254,0|0,3:0|0:0,0:0:0:0:
147,264,23611,1,8,0:1:0:0:
184,302,23704,1,8,0:1:0:0:
255,316,23798,1,8,0:1:0:0:
333,294,23892,5,8,0:1:0:0:
387,220,23986,2,0,B|408:152|372:88|372:88|341:107|327:131,1,200,4|0,0:0|3:0,0:0:0:0:
191,339,24267,5,0,3:1:0:0:
128,264,24361,2,0,B|89:204|100:120|100:120|144:139|161:161,1,220.000006713867,8|0,0:1|3:0,0:0:0:0:
340,326,24642,5,0,3:1:0:0:
398,226,24736,2,0,B|423:155|378:66|378:66|334:90|320:123,1,239.999992675781,8|0,0:1|3:0,0:0:0:0:
190,362,25017,5,0,3:1:0:0:
116,270,25111,2,0,B|73:210|89:102|89:102|135:113|166:146,1,259.999988098145,8|0,0:1|3:0,0:0:0:0:
357,343,25392,5,2,3:0:0:0:
342,294,25486,2,0,P|264:254|135:286,1,200,4|0,0:0|0:0,0:0:0:0:
31,133,25767,5,2,0:0:0:0:
22,215,25861,2,0,P|45:217|209:96,1,209.999993591309,2|0,3:2|0:0,0:0:0:0:
356,32,26142,5,2,0:0:0:0:
383,138,26236,2,0,P|353:163|245:39,1,220.000006713867,2|0,3:2|0:0,0:0:0:0:
132,337,26517,5,0,0:0:0:0:
150,256,26611,2,0,B|171:205|133:123|133:123|110:228|219:304,1,345.000006580353,2|0,3:2|3:0,0:0:0:0:
226,292,26986,6,0,B|239:258|313:226|311:293|419:270,1,175.00000166893,4|0,3:1|0:0,0:0:0:0:
479,100,27267,1,0,0:0:0:0:
425,30,27361,2,0,P|377:20|322:32,1,87.500000834465,8|0,0:1|0:0,0:0:0:0:
160,123,27548,2,0,P|190:84|240:58,1,87.500000834465,0|0,3:0|0:0,0:0:0:0:
339,243,27736,1,0,3:1:0:0:
346,304,27829,1,2,3:2:0:0:
309,343,27923,1,2,0:0:0:0:
263,349,28017,1,2,0:0:0:0:
232,318,28111,2,0,B|252:259|377:253|339:346|480:319,1,262.500002503395,0|0,3:0|0:0,0:0:0:0:
409,138,28486,6,0,B|397:110|325:120|317:194|338:243,1,175.00000166893,4|0,3:2|0:0,0:0:0:0:
493,78,28767,1,0,3:0:0:0:
412,17,28861,2,0,B|322:-3|306:41|216:31,1,175.00000166893,8|0,0:1|3:0,0:0:0:0:
28,163,29142,1,0,0:0:0:0:
73,255,29236,2,0,P|74:163|91:71,1,175.00000166893,0|0,3:1|0:0,0:0:0:0:
204,339,29517,1,0,3:0:0:0:
275,231,29611,2,0,P|279:169|241:161,1,87.500000834465,8|0,0:1|0:0,0:0:0:0:
177,178,29798,2,0,P|160:216|186:247,1,87.500000834465,8|0,0:1|0:0,0:0:0:0:
485,159,29986,6,0,B|489:103|447:72|447:72|451:47|451:47|396:0|283:15,1,277.499998941422,4|0,3:2|0:0,0:0:0:0:
140,146,30361,2,0,P|161:59|239:114,1,184.999999294281,8|0,0:1|0:0,0:0:0:0:
292,253,30642,1,0,3:0:0:0:
233,323,30736,2,0,P|177:342|96:350,1,92.4999996471405,0|0,3:0|0:0,0:0:0:0:
17,203,30923,2,0,P|73:222|154:230,1,92.4999996471405,0|0,3:0|0:0,0:0:0:0:
338,150,31111,2,0,P|452:165|431:261,1,184.999999294281,8|0,0:1|3:0,0:0:0:0:
390,273,31392,1,0,3:0:0:0:
479,381,31486,6,0,P|387:329|283:359,1,184.999999294281,4|0,0:0|3:0,0:0:0:0:
125,216,31767,1,0,3:0:0:0:
194,119,31861,2,0,B|172:198|172:198|181:303,1,184.999999294281,8|0,0:1|0:0,0:0:0:0:
390,273,32142,1,8,0:1:0:0:
432,228,32236,1,8,0:1:0:0:
429,176,32329,1,0,0:0:0:0:
400,141,32423,1,0,3:0:0:0:
383,108,32517,1,0,3:0:0:0:
384,79,32611,5,8,0:1:0:0:
416,144,32704,1,8,0:1:0:0:
386,211,32798,1,8,0:1:0:0:
312,222,32892,1,8,0:1:0:0:
261,167,32986,6,0,B|197:143|143:195|156:272|225:259|203:378,1,277.499998941422,4|0,0:0|0:0,0:0:0:0:
24,300,33361,2,0,P|81:209|146:230,1,184.999999294281,8|0,0:1|0:0,0:0:0:0:
322,368,33642,1,0,3:0:0:0:
403,281,33736,2,0,B|444:184|406:79|406:79|369:103|326:75,1,277.499998941422,0|0,3:1|3:0,0:0:0:0:
111,73,34111,2,0,P|140:12|240:39,1,184.999999294281,8|0,0:1|3:0,0:0:0:0:
103,210,34392,1,0,3:0:0:0:
187,331,34486,6,0,B|236:252|321:243|321:243|273:202|288:138,1,277.499998941422,0|0,3:0|0:0,0:0:0:0:
129,28,34861,2,0,P|189:110|246:58,1,184.999999294281,8|0,0:1|0:0,0:0:0:0:
411,22,35142,1,0,3:0:0:0:
467,69,35236,1,0,3:0:0:0:
474,129,35329,1,0,3:0:0:0:
451,181,35423,1,0,3:0:0:0:
441,229,35517,1,0,3:0:0:0:
456,259,35611,2,0,B|480:174|432:131|379:141|365:179,1,184.999999294281,8|0,0:1|0:0,0:0:0:0:
233,295,35892,1,8,0:1:0:0:
101,240,35986,6,0,B|139:217|222:211|179:285|321:269,1,184.999999294281,4|0,3:2|0:0,0:0:0:0:
74,374,36267,1,0,0:0:0:0:
7,303,36361,1,8,0:1:0:0:
3,214,36454,1,8,0:1:0:0:
45,149,36548,1,0,3:0:0:0:
98,130,36642,1,0,3:0:0:0:
145,149,36736,6,0,B|70:127|74:16|199:5|246:35|287:96,1,277.499998941422,4|0,3:2|3:0,0:0:0:0:
273,270,37111,2,0,P|292:169|349:102,1,184.999999294281,8|0,0:1|0:0,0:0:0:0:
476,264,37392,1,8,0:1:0:0:
505,157,37486,2,0,B|457:134|403:137|383:238|272:154,1,184.999999294281,4|0,3:2|0:0,0:0:0:0:
126,350,37767,1,0,3:0:0:0:
97,243,37861,2,0,B|145:220|199:223|219:324|330:240,1,184.999999294281,0|0,3:0|0:0,0:0:0:0:
428,65,38142,5,2,0:0:0:0:
425,48,38236,1,2,3:2:0:0:
407,39,38329,1,2,0:0:0:0:
378,45,38423,1,2,0:0:0:0:
363,83,38517,1,2,0:0:0:0:
369,133,38611,1,2,3:2:0:0:
395,190,38704,1,2,3:2:0:0:
369,264,38798,1,2,0:0:0:0:
301,307,38892,1,2,3:0:0:0:
216,289,38986,6,0,P|149:269|49:281,1,150.000005722046,0|0,3:0|0:0,0:0:0:0:
135,200,39267,1,0,3:0:0:0:
129,227,39361,1,0,3:0:0:0:
45,91,39548,6,0,P|121:24|180:41,1,150.000005722046,0|0,3:0|3:1,0:0:0:0:
209,108,39829,1,0,3:1:0:0:
280,52,39923,1,8,0:1:0:0:
38,85,40111,2,0,P|117:18|176:33,1,150.000005722046,0|0,3:0|3:1,0:0:0:0:
210,100,40392,1,0,3:1:0:0:
281,44,40486,1,8,0:1:0:0:
32,79,40673,2,0,P|108:12|172:21,1,150.000005722046,0|0,3:0|3:1,0:0:0:0:
211,92,40954,1,0,3:1:0:0:
282,36,41048,1,8,0:1:0:0:
399,339,41236,5,0,3:0:0:0:
389,298,41329,1,0,3:0:0:0:
381,258,41423,1,0,3:0:0:0:
373,219,41517,1,0,3:0:0:0:
368,179,41611,2,0,L|379:97,1,75.0000028610231,8|8,0:1|0:1,0:0:0:0:
269,239,41798,2,0,L|278:313,1,75.0000028610231,8|8,0:1|0:1,0:0:0:0:
264,332,41986,6,0,B|249:206|249:206|232:186|203:178,1,150.000005722046,4|0,3:2|0:0,0:0:0:0:
292,98,42267,1,0,3:0:0:0:
292,122,42361,1,0,3:0:0:0:
128,267,42548,6,0,P|52:226|82:161,1,150.000005722046,0|0,3:0|3:1,0:0:0:0:
132,100,42829,1,0,3:1:0:0:
51,39,42923,1,8,0:1:0:0:
130,275,43111,2,0,P|55:249|63:167,1,150.000005722046,0|0,3:0|3:1,0:0:0:0:
123,102,43392,1,0,3:1:0:0:
42,41,43486,1,8,0:1:0:0:
131,284,43673,2,0,P|49:254|44:183,1,150.000005722046,0|0,3:0|3:1,0:0:0:0:
113,105,43954,1,0,3:1:0:0:
32,44,44048,1,8,0:1:0:0:
358,99,44236,5,8,0:1:0:0:
257,111,44329,1,8,0:1:0:0:
210,201,44423,1,8,0:1:0:0:
225,205,44611,5,0,3:0:0:0:
261,167,44704,1,0,3:0:0:0:
270,115,44798,1,0,3:0:0:0:
244,69,44892,1,0,3:0:0:0:
196,46,44986,6,0,B|252:73|275:23|349:39,1,150.000005722046,4|0,3:2|0:0,0:0:0:0:
425,131,45267,1,0,3:0:0:0:
430,105,45361,1,0,3:0:0:0:
329,355,45548,6,0,P|266:322|299:254,1,150.000005722046,0|0,3:0|3:1,0:0:0:0:
390,270,45829,1,0,3:1:0:0:
467,205,45923,1,8,0:1:0:0:
333,361,46111,2,0,P|264:335|287:250,1,150.000005722046,0|0,3:0|3:1,0:0:0:0:
376,265,46392,1,0,3:1:0:0:
453,200,46486,1,8,0:1:0:0:
336,369,46673,2,0,P|264:348|260:263,1,150.000005722046,0|0,3:0|3:1,0:0:0:0:
363,260,46954,1,0,3:1:0:0:
440,195,47048,1,8,0:1:0:0:
257,61,47236,5,8,0:1:0:0:
182,41,47329,1,0,3:0:0:0:
112,73,47423,1,0,3:0:0:0:
89,145,47517,1,0,3:0:0:0:
162,194,47611,5,8,0:1:0:0:
163,186,47704,1,0,3:0:0:0:
164,178,47798,1,0,3:0:0:0:
165,170,47892,1,0,3:0:0:0:
167,162,47986,6,0,L|185:331,1,150.000005722046,4|0,3:2|3:0,0:0:0:0:
250,226,48267,1,0,3:1:0:0:
215,232,48361,1,0,3:1:0:0:
384,48,48548,2,0,P|355:120|358:208,1,150.000005722046,0|0,3:0|3:1,0:0:0:0:
405,283,48829,1,0,3:1:0:0:
451,187,48923,1,8,0:1:0:0:
241,364,49111,2,0,P|270:292|267:204,1,150.000005722046,0|0,3:0|3:1,0:0:0:0:
202,138,49392,1,8,0:1:0:0:
185,164,49486,6,0,B|160:171|144:139|140:178|102:178,1,75,2|0,0:0|0:0,0:0:0:0:
112,185,49673,1,4,0:0:0:0:
50,20,49861,1,2,0:3:0:0:
18,259,50048,2,0,L|79:266,1,33.3333333333333,2|2,0:3|0:3,0:0:0:0:
132,277,50236,1,2,0:0:0:0:
188,339,50361,1,2,0:0:0:0:
187,350,50423,1,2,0:0:0:0:
252,236,50611,5,0,3:0:0:0:
259,242,50704,1,0,3:0:0:0:
257,251,50798,1,0,3:0:0:0:
247,255,50892,1,0,3:0:0:0:
236,246,50986,6,0,P|239:166|280:89,1,160,4|0,0:0|0:0,0:0:0:0:
370,0,51267,1,0,3:0:0:0:
381,18,51361,2,0,L|481:23,1,80,0|0,3:0|0:0,0:0:0:0:
276,11,51548,2,0,L|196:7,1,80,0|0,3:0|0:0,0:0:0:0:
323,83,51736,5,8,0:1:0:0:
330,171,51829,1,8,0:1:0:0:
265,232,51923,1,8,0:1:0:0:
467,97,52111,2,0,P|404:52|331:76,1,160,0|0,3:0|3:1,0:0:0:0:
340,176,52392,1,0,3:1:0:0:
271,242,52486,1,8,0:1:0:0:
472,93,52673,2,0,P|405:44|335:63,1,160,0|0,3:0|3:1,0:0:0:0:
350,181,52954,1,0,3:1:0:0:
277,252,53048,1,8,0:1:0:0:
156,96,53236,5,0,3:1:0:0:
157,106,53329,1,0,3:0:0:0:
159,116,53423,1,0,3:0:0:0:
206,7,53611,1,8,0:1:0:0:
194,61,53704,1,8,0:1:0:0:
182,115,53798,1,8,0:1:0:0:
171,170,53892,1,8,0:1:0:0:
156,224,53986,6,0,P|182:295|277:333,1,160,4|0,3:2|0:0,0:0:0:0:
335,232,54267,1,0,3:3:0:0:
349,245,54361,2,0,L|367:341,1,80,0|0,3:0|0:0,0:0:0:0:
492,214,54548,2,0,L|474:310,1,80,0|0,3:0|0:0,0:0:0:0:
393,158,54736,5,8,0:1:0:0:
407,59,54829,1,8,0:1:0:0:
503,23,54923,1,8,0:1:0:0:
234,177,55111,2,0,P|331:191|401:149,1,160,0|0,3:0|3:1,0:0:0:0:
400,53,55392,1,0,3:1:0:0:
500,13,55486,1,8,0:1:0:0:
233,185,55673,2,0,P|330:199|402:162,1,160,0|0,3:0|3:1,0:0:0:0:
393,47,55954,1,0,3:1:0:0:
495,4,56048,1,8,0:1:0:0:
216,102,56236,5,2,0:0:0:0:
122,90,56329,1,2,0:0:0:0:
90,3,56423,2,0,P|137:1|187:22,1,80,0|0,3:0|0:0,0:0:0:0:
44,235,56611,2,0,L|31:133,1,80,8|0,0:1|0:0,0:0:0:0:
137,207,56798,2,0,L|126:286,1,80,8|8,0:1|0:1,0:0:0:0:
404,307,56986,6,0,P|355:235|297:268,1,160,4|0,3:2|0:0,0:0:0:0:
245,382,57267,1,0,3:0:0:0:
228,372,57361,2,0,L|220:283,1,80,0|0,3:0|0:0,0:0:0:0:
203,77,57548,2,0,L|210:156,1,80,0|0,3:0|0:0,0:0:0:0:
386,220,57736,5,8,0:1:0:0:
397,122,57829,1,8,0:1:0:0:
316,66,57923,1,8,0:1:0:0:
483,259,58111,2,0,P|390:273|382:212,1,160,0|0,3:0|0:0,0:0:0:0:
406,123,58392,1,0,3:1:0:0:
325,67,58486,1,8,0:1:0:0:
489,268,58673,2,0,P|400:293|367:241,1,160,0|0,3:0|0:0,0:0:0:0:
416,125,58954,1,0,3:1:0:0:
335,69,59048,1,8,0:1:0:0:
83,336,59236,5,0,3:3:0:0:
160,316,59329,1,0,3:3:0:0:
213,257,59423,1,0,3:3:0:0:
232,178,59517,1,0,3:3:0:0:
205,102,59611,2,0,P|163:94|126:63,1,80,8|8,0:1|0:1,0:0:0:0:
29,211,59798,2,0,P|71:203|108:172,1,80,8|8,0:1|0:1,0:0:0:0:
279,35,59986,5,0,3:0:0:0:
367,55,60079,1,0,3:0:0:0:
411,135,60173,2,0,P|412:171|396:213,1,80,8|0,0:1|0:0,0:0:0:0:
101,278,60361,6,0,L|216:294,1,89.9999972534181,0|0,3:0|3:0,0:0:0:0:
395,320,60548,2,0,L|305:307,1,89.9999972534181,8|0,0:1|0:0,0:0:0:0:
36,354,60736,2,0,L|120:323,1,89.9999972534181,8|0,0:1|0:0,0:0:0:0:
381,228,60923,2,0,L|296:258,1,89.9999972534181,0|0,3:1|3:0,0:0:0:0:
44,200,61111,5,8,0:1:0:0:
39,119,61204,1,8,0:1:0:0:
92,57,61298,1,8,0:1:0:0:
171,42,61392,1,8,0:1:0:0:
244,75,61486,6,0,B|349:77|387:15|387:15|344:20|328:43,1,230.000004386902,4|0,3:2|0:0,0:0:0:0:
473,238,61767,2,0,B|480:107|480:107|405:121,1,200,2|0,3:2|0:0,0:0:0:0:
190,233,62048,2,0,P|239:267|299:187,1,170.000003242493,2|0,3:2|0:0,0:0:0:0:
444,353,62329,2,0,P|380:375|328:321,1,139.999995727539,2|0,3:2|0:0,0:0:0:0:
235,384,62611,6,0,L|238:346,3,34.9999989318848,0|0|0|0,3:0|3:0|3:0|3:0,0:0:0:0:
129,310,62798,2,0,L|131:344,3,34.9999989318848,0|0|0|0,3:0|3:0|3:0|3:0,0:0:0:0:
333,312,62986,5,4,0:1:0:0:
140,264,68986,6,0,B|197:234|237:235|218:303|294:258|326:241|306:175|263:154|228:178,1,262.500010013581,2|0,0:0|0:0,0:0:0:0:
228,177,69736,2,0,B|248:109|202:68|202:68|260:98|294:72|294:37,1,225.000008583069,2|0,0:0|0:0,0:0:0:0:
289,44,70392,1,2,0:0:0:0:
283,40,70486,6,0,B|354:11|377:75|387:160|437:19|509:72|526:124|500:149,1,262.500010013581,2|0,0:0|0:0,0:0:0:0:
500,140,71236,1,2,0:0:0:0:
374,257,71423,1,2,0:0:0:0:
262,214,71611,1,2,0:0:0:0:
412,176,71798,1,2,0:0:0:0:
156,300,71986,6,0,P|155:229|139:174,1,112.500004291535,2|0,0:0|0:0,0:0:0:0:
130,185,72361,2,0,P|103:153|109:113,1,75.0000028610231,2|2,0:0|0:0,0:0:0:0:
205,29,72736,2,0,B|261:-9|318:41|316:113|256:103|274:183,1,225.000008583069,2|0,0:0|0:0,0:0:0:0:
340,306,73486,5,2,0:0:0:0:
260,367,73673,1,0,3:0:0:0:
269,355,73767,1,0,3:0:0:0:
288,345,73861,1,0,3:0:0:0:
316,341,73954,1,0,3:0:0:0:
352,351,74048,1,0,3:0:0:0:
399,346,74142,1,0,3:0:0:0:
435,307,74236,5,0,3:0:0:0:
431,300,74329,1,0,3:0:0:0:
427,293,74423,1,0,3:0:0:0:
423,286,74517,1,0,3:0:0:0:
419,279,74611,1,0,3:0:0:0:
422,230,74704,1,0,3:0:0:0:
428,181,74798,1,0,3:0:0:0:
431,132,74892,1,0,3:0:0:0:
436,83,74986,6,0,P|387:44|305:139,1,194.999991073609,4|0,3:1|0:0,0:0:0:0:
345,188,75361,2,0,P|328:115|274:73,1,129.999994049073,8|0,0:1|0:0,0:0:0:0:
40,205,75736,2,0,L|240:194,1,194.999991073609,0|0,3:0|0:0,0:0:0:0:
286,261,76111,1,8,0:1:0:0:
135,320,76298,1,0,1:0:0:0:
399,384,76486,6,0,P|415:282|384:162,1,194.999991073609,0|0,3:0|0:0,0:0:0:0:
305,136,76861,2,0,P|391:168|447:167,1,129.999994049073,8|0,0:1|0:0,0:0:0:0:
207,20,77236,2,0,B|88:12|126:83|4:72,1,194.999991073609,0|0,3:0|3:0,0:0:0:0:
90,185,77611,2,0,P|79:113|23:91,1,129.999994049073,8|0,0:1|1:0,0:0:0:0:
226,333,77986,6,0,B|277:238|277:238|242:137,1,209.999993591309,4|0,3:1|0:0,0:0:0:0:
208,67,78361,1,8,0:1:0:0:
411,4,78548,1,0,3:0:0:0:
495,231,78736,2,0,B|480:360|480:360|433:285,1,209.999993591309,0|0,3:0|0:0,0:0:0:0:
326,294,79111,2,0,P|409:287|420:333,1,139.999995727539,8|0,0:1|1:1,0:0:0:0:
129,384,79486,6,0,B|119:300|119:300|139:268|139:268|123:159,1,209.999993591309,4|0,3:2|0:0,0:0:0:0:
164,92,79861,1,0,3:0:0:0:
227,328,80048,1,0,1:0:0:0:
455,146,80236,2,0,P|405:121|360:113,1,75.0000028610231,8|0,0:1|0:0,0:0:0:0:
243,240,80423,2,0,P|293:215|338:207,1,75.0000028610231,0|0,3:0|0:0,0:0:0:0:
490,328,80611,2,0,L|496:239,1,69.9999978637696,0|0,1:1|0:0,0:0:0:0:
396,208,80798,2,0,L|400:277,1,69.9999978637696,8|0,0:1|0:0,0:0:0:0:
145,377,80986,5,4,3:1:0:0:
77,139,81173,1,0,3:0:0:0:
70,159,81267,1,0,3:0:0:0:
70,180,81361,2,0,P|78:216|103:263,1,75.0000028610231,8|0,0:1|0:0,0:0:0:0:
176,97,81548,2,0,P|197:66|236:37,1,75.0000028610231,0|0,1:1|1:0,0:0:0:0:
462,140,81736,1,4,3:2:0:0:
219,324,81923,5,0,3:0:0:0:
189,279,82017,1,0,3:0:0:0:
192,225,82111,2,0,P|245:192|354:206,1,160,8|0,0:1|1:1,0:0:0:0:
449,372,82392,1,0,1:1:0:0:
512,298,82486,2,0,B|517:206|434:212|451:62,1,240,4|0,0:0|0:0,0:0:0:0:
406,259,82861,1,0,3:0:0:0:
179,33,83048,5,0,3:0:0:0:
93,53,83142,1,0,3:0:0:0:
57,118,83236,1,8,0:1:0:0:
92,164,83329,1,0,3:0:0:0:
61,202,83423,1,0,3:0:0:0:
91,227,83517,1,0,3:0:0:0:
75,253,83611,6,0,L|69:321,7,40,0|0|0|0|0|0|0|0,1:0|1:0|1:0|1:0|1:0|1:0|1:0|1:0,0:0:0:0:
62,327,83986,6,0,L|152:314,1,85.0000016212464,0|0,3:0|0:0,0:0:0:0:
329,368,84173,1,0,1:0:0:0:
343,288,84267,1,0,1:0:0:0:
357,208,84361,2,0,P|326:121|234:128,1,170.000003242493,8|0,0:1|0:0,0:0:0:0:
104,232,84642,1,0,0:0:0:0:
35,154,84736,6,0,P|62:112|119:82,1,89.9999972534181,0|0,3:0|0:0,0:0:0:0:
326,204,84923,1,0,1:0:0:0:
343,288,85017,1,0,1:0:0:0:
358,374,85111,2,0,P|440:363|446:257,1,179.999994506836,8|0,0:1|0:0,0:0:0:0:
232,193,85392,5,0,3:0:0:0:
156,252,85486,2,0,B|205:246|205:246|245:222,1,94.9999974632264,4|0,3:2|0:0,0:0:0:0:
204,122,85673,2,0,B|155:128|155:128|115:152,1,94.9999974632264,0|0,1:0|0:0,0:0:0:0:
285,349,85861,2,0,P|293:250|374:69,1,284.999992389679,8|0,0:1|0:0,0:0:0:0:
461,296,86236,6,0,P|403:290|340:258,1,94.9999974632264,0|0,3:0|0:0,0:0:0:0:
261,219,86423,2,0,P|218:178|189:114,1,94.9999974632264,0|0,3:0|0:0,0:0:0:0:
24,358,86611,6,0,P|82:352|145:320,1,94.9999974632264,8|0,0:1|0:0,0:0:0:0:
284,237,86798,2,0,P|311:185|320:115,1,94.9999974632264,0|0,1:0|0:0,0:0:0:0:
26,24,86986,5,2,0:0:0:0:
108,46,87267,1,2,0:0:0:0:
108,46,87361,1,2,0:0:0:0:
210,140,87548,5,2,0:0:0:0:
283,15,87829,1,2,0:0:0:0:
290,43,87923,1,2,0:0:0:0:
135,225,88111,5,2,0:3:0:0:
61,97,88392,1,2,0:0:0:0:
50,127,88486,1,2,0:0:0:0:
210,310,88673,5,2,0:3:0:0:
287,175,88954,1,2,0:0:0:0:
301,201,89048,1,2,0:0:0:0:
88,374,89236,5,2,0:3:0:0:
77,348,89423,1,2,0:3:0:0:
77,320,89611,1,2,0:3:0:0:
193,384,89892,1,2,0:2:0:0:
193,384,89986,1,2,0:2:0:0:
329,268,90173,5,2,0:3:0:0:
441,177,90454,1,2,0:0:0:0:
392,163,90548,1,2,0:0:0:0:
208,206,90736,5,2,0:3:0:0:
96,115,91017,1,2,0:0:0:0:
145,101,91111,1,2,0:0:0:0:
342,144,91298,5,2,0:3:0:0:
454,53,91579,1,2,0:0:0:0:
405,39,91673,1,2,0:0:0:0:
309,249,91861,5,2,0:3:0:0:
304,265,92048,1,2,0:3:0:0:
55,224,92236,5,2,0:0:0:0:
120,166,92517,1,0,0:0:0:0:
125,178,92611,1,8,0:0:0:0:
237,241,92798,5,2,0:3:0:0:
404,209,93079,1,2,0:0:0:0:
425,158,93173,1,8,0:0:0:0:
237,356,93361,5,2,0:0:0:0:
228,352,93454,1,2,0:2:0:0:
218,348,93548,1,2,0:2:0:0:
208,345,93642,1,2,0:0:0:0:
199,341,93736,1,10,0:2:0:0:
37,183,93923,5,10,0:0:0:0:
203,114,94204,1,2,0:0:0:0:
176,72,94298,1,10,0:0:0:0:
357,61,94486,5,8,0:0:0:0:
466,180,94673,1,2,0:0:0:0:
381,194,94767,1,2,0:0:0:0:
296,210,94861,2,0,P|224:260|236:309,1,150,2|0,0:3|0:0,0:0:0:0:
269,318,95236,2,0,P|260:300|266:319,1,50,8|0,0:2|0:0,0:0:0:0:
165,379,95423,1,2,0:3:0:0:
83,369,95517,1,2,0:3:0:0:
46,297,95611,6,0,B|46:274|46:274|43:266|43:266|49:250|49:250|42:240|41:220,1,69.9999978637696,8|0,0:2|0:0,0:0:0:0:
184,234,95798,2,0,B|189:211|189:211|193:204|193:204|191:187|191:187|200:179|206:160,1,69.9999978637696,2|0,0:2|0:0,0:0:0:0:
36,80,95986,5,2,0:3:0:0:
70,36,96079,1,2,0:3:0:0:
132,86,96173,1,8,0:2:0:0:
195,23,96267,1,0,0:0:0:0:
256,99,96361,1,8,0:0:0:0:
265,108,96454,1,0,0:0:0:0:
275,96,96548,2,0,P|279:71|271:95,1,69.9999978637696,8|0,0:0|0:0,0:0:0:0:
367,154,96736,6,0,B|346:170|331:194|338:214,1,69.9999978637696,2|0,0:0|0:0,0:0:0:0:
351,312,96923,2,0,B|321:285|337:237|265:180|170:213,1,209.999993591309,2|0,0:3|0:0,0:0:0:0:
101,321,97298,1,2,0:0:0:0:
58,264,97392,1,2,0:0:0:0:
24,356,97486,5,8,0:0:0:0:
51,351,97861,1,8,0:0:0:0:
78,346,98236,1,8,0:0:0:0:
137,278,98611,1,8,0:0:0:0:
164,283,98986,1,8,0:0:0:0:
84,178,99361,6,0,L|74:113,1,40,10|0,0:0|0:0,0:0:0:0:
205,215,99736,2,0,L|213:149,1,40,10|0,0:0|0:0,0:0:0:0:
407,213,100111,5,8,0:0:0:0:
380,208,100486,1,8,0:0:0:0:
353,203,100861,1,8,0:0:0:0:
274,257,101142,5,10,0:2:0:0:
272,249,101236,1,10,0:2:0:0:
270,241,101329,1,10,0:2:0:0:
268,233,101423,1,10,0:2:0:0:
266,225,101517,1,10,0:2:0:0:
265,217,101611,1,10,0:2:0:0:
77,128,101986,6,0,L|135:119,1,40,10|0,0:2|0:0,0:0:0:0:
319,88,102361,2,0,L|279:94,1,40,10|0,0:2|0:0,0:0:0:0:
454,241,102642,5,8,0:0:0:0:
445,249,102736,1,8,0:0:0:0:
418,244,103111,1,10,0:0:0:0:
391,239,103486,1,8,0:0:0:0:
335,307,103861,1,10,0:0:0:0:
308,312,104236,1,8,0:0:0:0:
84,193,104611,6,0,L|79:123,1,40,10|0,0:0|0:0,0:0:0:0:
174,287,104986,2,0,L|179:217,1,40,10|0,0:0|0:0,0:0:0:0:
244,80,105361,5,10,0:0:0:0:
343,102,105548,1,2,0:3:0:0:
240,68,105736,1,10,0:0:0:0:
354,93,105923,1,2,0:3:0:0:
276,162,106111,5,10,0:0:0:0:
274,169,106204,1,10,0:0:0:0:
273,176,106298,1,10,0:0:0:0:
272,183,106392,1,10,0:0:0:0:
270,190,106486,2,0,L|290:248,4,40,2|2|2|2|0,0:3|0:2|0:2|0:2|0:0,0:0:0:0:
129,214,107048,1,8,0:0:0:0:
165,318,107236,6,0,B|192:326|192:326|226:320|229:344|229:344|253:325|253:325|280:339|306:323,1,150.000005722046,0|0,3:0|0:0,0:0:0:0:
361,270,107517,1,2,0:0:0:0:
379,273,107611,2,0,B|374:260|374:260|386:254|386:254|382:236,1,37.5000014305115,0|0,0:0|0:0,0:0:0:0:
394,277,107704,2,0,B|389:264|389:264|401:258|401:258|397:240,1,37.5000014305115,0|0,0:0|0:0,0:0:0:0:
78,13,107986,5,2,0:0:0:0:
76,16,108079,1,2,0:0:0:0:
74,20,108173,1,2,0:0:0:0:
47,61,108267,6,0,P|67:119|123:151,1,100,0|4,3:0|0:3,0:0:0:0:
18,200,108548,2,0,P|88:178|153:178,1,100,0|4,3:0|0:3,0:0:0:0:
28,308,108829,2,0,P|17:256|65:226,1,100,0|4,3:0|0:3,0:0:0:0:
132,353,109111,2,0,P|88:322|38:329,1,100,0|4,3:0|0:3,0:0:0:0:
183,247,109392,1,0,3:0:0:0:
197,277,109486,2,0,L|268:287,1,50,4|0,3:0|0:0,0:0:0:0:
335,197,109673,6,0,P|367:160|442:153,1,119.999996337891,8|4,3:0|0:3,0:0:0:0:
471,39,109954,2,0,P|452:113|459:191,1,119.999996337891,8|4,3:0|0:3,0:0:0:0:
474,291,110236,1,8,3:0:0:0:
426,296,110329,1,8,3:0:0:0:
387,267,110423,1,8,3:0:0:0:
379,219,110517,2,0,P|355:159|265:194,1,179.999994506836,8|0,3:0|3:0,0:0:0:0:
280,221,110892,6,0,P|188:206|85:211,1,150.000005722046,8|4,3:0|0:3,0:0:0:0:
0,267,111173,2,0,P|92:252|195:257,1,150.000005722046,8|4,3:0|0:3,0:0:0:0:
251,111,111454,2,0,P|236:24|190:52,1,170.000003242493,8|4,3:0|0:3,0:0:0:0:
156,154,111736,2,0,P|171:67|217:95,1,170.000003242493,8|4,3:0|0:3,0:0:0:0:
317,243,112017,2,0,P|418:237|452:162,1,189.999994926453,8|4,3:0|0:3,0:0:0:0:
243,295,112298,2,0,P|287:216|378:217,1,189.999994926453,8|4,3:0|0:3,0:0:0:0:
136,362,112579,2,0,P|154:248|152:114,1,209.999993591309,8|0,3:0|0:0,0:0:0:0:
96,304,112861,5,0,3:0:0:0:
165,350,112954,1,0,3:0:0:0:
246,329,113048,1,0,3:0:0:0:
276,250,113142,1,0,3:0:0:0:
243,172,113236,2,0,B|228:120|281:60|343:70|397:85,1,209.999993591309,8|8,1:3|3:0,0:0:0:0:
430,316,113517,6,0,P|326:301|202:242,1,230.000004386902,8|4,1:3|3:0,0:0:0:0:
42,239,113798,2,0,P|145:253|269:312,1,230.000004386902,8|4,1:3|3:0,0:0:0:0:
93,149,114079,2,0,P|101:71|252:4,1,239.999992675781,8|4,1:3|3:0,0:0:0:0:
355,117,114361,2,0,P|311:51|146:63,1,239.999992675781,8|4,1:3|3:0,0:0:0:0:
200,376,114642,2,0,B|190:250|83:244|119:80,1,250,4|4,1:2|3:0,0:0:0:0:
300,70,114923,2,0,B|328:167|221:173|211:299,1,250,4|4,1:2|3:0,0:0:0:0:
382,366,115204,1,4,3:2:0:0:
410,337,115298,1,4,3:0:0:0:
408,292,115392,1,4,3:0:0:0:
363,258,115486,5,4,1:2:0:0:
313,188,115579,1,4,1:2:0:0:
325,103,115673,1,4,1:2:0:0:
396,38,115767,1,4,1:2:0:0:
469,144,115861,6,0,B|432:149|432:149|403:166,3,64.9999970245363,0|0|0|0,1:0|1:0|1:0|1:0,0:0:0:0:
332,129,116048,2,0,B|295:124|295:124|271:110,3,64.9999970245363,0|0|0|0,1:0|1:0|1:0|1:0,0:0:0:0:
167,186,116236,5,8,0:0:0:0:
160,187,116329,1,8,0:0:0:0:
153,188,116423,1,8,0:0:0:0:
146,189,116517,1,8,0:0:0:0:
139,190,116611,5,8,0:0:0:0:
227,207,116704,1,8,0:0:0:0:
316,224,116798,1,8,0:0:0:0:
405,241,116892,1,8,0:0:0:0:
497,259,116986,2,0,P|503:230|484:257,1,85.0000016212464,0|0,0:0|0:0,0:0:0:0:
465,338,117173,6,0,P|403:342|348:297,1,125,2|0,0:1|0:0,0:0:0:0:
407,42,117361,6,0,P|312:145|291:308,1,250,4|8,1:0|3:0,0:0:0:0:
143,128,117642,2,0,P|238:231|259:394,1,250,4|8,1:0|3:0,0:0:0:0:
449,179,117923,2,0,P|327:212|286:271,1,200,4|0,1:2|0:0,0:0:0:0:
241,55,118204,2,0,P|267:144|272:261,1,200,4|8,1:3|1:3,0:0:0:0:
229,384,118486,6,0,P|251:356|259:329,1,52.4999983978272,4|0,1:0|0:0,0:0:0:0:
247,323,118861,6,0,P|179:317|149:300,1,89.9999972534181,4|0,3:1|0:0,0:0:0:0:
93,96,119048,2,0,P|122:157|149:179,1,89.9999972534181,0|0,3:0|0:0,0:0:0:0:
399,243,119236,2,0,P|446:170|454:77,1,179.999994506836,8|0,0:1|0:0,0:0:0:0:
238,182,119517,1,0,1:0:0:0:
293,253,119611,2,0,B|326:284|376:307|395:210|476:254|481:347|426:370|368:346,1,269.999991760254,4|0,3:2|3:0,0:0:0:0:
214,220,119986,1,8,0:1:0:0:
137,208,120079,1,0,1:0:0:0:
74,237,120173,1,0,1:0:0:0:
44,288,120267,1,0,1:0:0:0:
52,336,120361,6,0,P|99:272|102:144,1,179.999994506836,0|0,3:0|3:0,0:0:0:0:
172,6,120642,1,0,3:0:0:0:
260,72,120736,2,0,P|260:118|235:198,1,89.9999972534181,8|0,0:1|0:0,0:0:0:0:
145,288,120923,2,0,P|187:269|270:259,1,89.9999972534181,0|0,1:0|0:0,0:0:0:0:
456,377,121111,2,0,B|534:355|533:256|455:229|487:117,1,269.999991760254,0|0,3:0|3:0,0:0:0:0:
310,35,121486,2,0,P|246:19|205:27,1,89.9999972534181,8|0,0:1|0:0,0:0:0:0:
270,237,121673,2,0,P|310:218|342:187,1,89.9999972534181,0|0,1:0|1:0,0:0:0:0:
91,38,121861,6,0,P|71:120|90:228,1,179.999994506836,4|0,3:1|0:0,0:0:0:0:
195,381,122142,1,0,3:1:0:0:
86,349,122236,2,0,B|58:292|112:205|191:230|182:94,1,269.999991760254,8|0,1:1|3:0,0:0:0:0:
362,267,122611,2,0,P|401:243|422:201,1,89.9999972534181,0|0,3:1|0:0,0:0:0:0:
217,291,122798,2,0,P|172:280|139:246,1,89.9999972534181,0|0,3:0|0:0,0:0:0:0:
276,27,122986,1,8,0:1:0:0:
314,50,123079,1,0,1:0:0:0:
344,95,123173,1,0,1:0:0:0:
345,165,123267,1,0,1:0:0:0:
289,223,123361,6,0,B|195:245|207:165|102:201,1,179.999994506836,4|0,3:1|0:0,0:0:0:0:
323,377,123642,1,0,3:0:0:0:
435,291,123736,2,0,B|444:236|459:97|395:57|334:92,1,269.999991760254,8|0,0:1|0:0,0:0:0:0:
185,240,124111,1,0,3:0:0:0:
136,241,124204,1,0,3:0:0:0:
87,212,124298,1,0,3:0:0:0:
67,139,124392,1,0,3:0:0:0:
102,67,124486,2,0,B|189:46|180:131|286:117,1,179.999994506836,8|0,0:1|1:0,0:0:0:0:
422,266,124767,1,8,0:1:0:0:
491,187,124861,6,0,P|460:117|396:169,1,179.999994506836,4|0,3:1|0:0,0:0:0:0:
265,348,125142,1,0,3:0:0:0:
186,291,125236,2,0,B|165:195|258:155|226:42|144:66,1,269.999991760254,8|0,0:1|3:0,0:0:0:0:
69,269,125611,2,0,P|113:273|169:266,1,89.9999972534181,0|0,3:0|0:0,0:0:0:0:
320,190,125798,2,0,P|344:152|362:99,1,89.9999972534181,0|0,3:0|0:0,0:0:0:0:
131,41,125986,2,0,L|120:146,1,89.9999972534181,8|0,0:1|0:0,0:0:0:0:
226,204,126173,2,0,L|216:114,1,89.9999972534181,0|0,1:0|0:0,0:0:0:0:
84,283,126361,6,0,P|97:346|235:326,1,179.999994506836,0|0,3:0|0:0,0:0:0:0:
381,280,126642,1,0,1:0:0:0:
320,190,126736,2,0,P|326:129|434:101,1,179.999994506836,8|0,0:1|0:0,0:0:0:0:
205,5,127017,1,0,1:0:0:0:
207,20,127111,2,0,P|243:43|295:47,1,89.9999972534181,0|0,3:0|0:0,0:0:0:0:
59,89,127298,2,0,P|77:49|120:19,1,89.9999972534181,0|0,3:0|0:0,0:0:0:0:
246,124,127486,1,8,0:1:0:0:
262,179,127579,1,0,1:0:0:0:
238,251,127673,1,0,1:0:0:0:
163,289,127767,5,0,1:0:0:0:
90,240,127861,2,0,B|79:217|82:182|82:182|150:144|229:184,1,200,4|0,3:1|0:0,0:0:0:0:
398,333,128142,5,0,3:0:0:0:
472,276,128236,2,0,B|483:253|483:211|483:211|412:179|333:220,1,209.999993591309,8|0,0:1|0:0,0:0:0:0:
156,336,128517,5,0,3:0:0:0:
74,272,128611,2,0,B|63:249|57:204|57:204|137:172|213:216,1,220.000006713867,8|0,0:1|0:0,0:0:0:0:
378,384,128892,5,0,3:0:0:0:
471,317,128986,2,0,B|482:294|491:247|491:247|405:213|332:257,1,230.000004386902,8|0,0:1|0:0,0:0:0:0:
77,176,129267,5,0,1:0:0:0:
112,85,129361,2,0,B|141:16|141:16|190:213,1,250,2|0,3:2|0:0,0:0:0:0:
366,291,129642,5,0,1:0:0:0:
456,208,129736,2,0,B|463:167|419:109|343:95|255:145,1,250,0|0,3:0|0:0,0:0:0:0:
158,340,130017,5,0,1:0:0:0:
73,234,130111,2,0,B|2:113|67:-4|108:91|85:158,1,250,2|0,3:2|0:0,0:0:0:0:
174,352,130392,5,0,1:0:0:0:
291,243,130486,2,0,B|300:204|275:154|174:135|141:273|247:349|413:270,1,375,4|0,3:2|1:0,0:0:0:0:
432,117,130861,6,0,P|384:81|283:173,1,200,4|0,3:1|3:0,0:0:0:0:
105,236,131142,1,0,3:0:0:0:
23,180,131236,2,0,P|43:136|106:153,1,100,8|0,0:1|0:0,0:0:0:0:
200,264,131423,2,0,P|264:286|321:255,1,100,0|0,3:0|3:0,0:0:0:0:
389,56,131611,2,0,P|326:141|321:264,1,200,0|0,1:0|3:0,0:0:0:0:
144,364,131892,1,0,3:0:0:0:
106,287,131986,1,8,0:1:0:0:
124,209,132079,1,8,0:1:0:0:
182,161,132173,1,0,1:0:0:0:
252,166,132267,1,0,1:0:0:0:
288,212,132361,6,0,P|208:167|187:50,1,200,4|0,3:1|3:0,0:0:0:0:
433,192,132642,1,0,3:0:0:0:
394,297,132736,2,0,P|349:314|284:312,1,100,8|0,0:1|0:0,0:0:0:0:
94,247,132923,5,0,3:0:0:0:
127,125,133017,1,0,3:0:0:0:
195,208,133111,6,0,P|261:184|243:53,1,200,0|0,1:0|3:0,0:0:0:0:
376,254,133392,1,0,3:0:0:0:
333,343,133486,2,0,P|254:382|223:269,1,200,8|0,0:1|1:0,0:0:0:0:
111,82,133767,1,0,1:0:0:0:
18,166,133861,6,0,B|14:199|30:236|103:246|123:170|213:228,1,220.000006713867,4|0,3:1|3:0,0:0:0:0:
411,329,134142,1,0,3:0:0:0:
481,228,134236,2,0,B|507:99|470:52|418:58|395:84,1,220.000006713867,8|0,0:1|0:0,0:0:0:0:
209,205,134517,1,0,3:0:0:0:
133,165,134611,2,0,P|112:120|113:47,1,110.000003356934,0|0,3:0|3:0,0:0:0:0:
277,0,134798,2,0,P|276:54|253:104,1,110.000003356934,0|0,1:0|1:0,0:0:0:0:
75,225,134986,1,8,0:1:0:0:
51,275,135079,1,8,0:1:0:0:
62,344,135173,1,0,3:0:0:0:
134,376,135267,1,0,3:0:0:0:
218,353,135361,6,0,B|261:280|181:258|196:182|257:154,1,220.000006713867,4|0,3:1|3:0,0:0:0:0:
437,242,135642,1,0,3:0:0:0:
512,141,135736,2,0,P|500:64|378:93,1,220.000006713867,8|0,0:1|1:0,0:0:0:0:
172,188,136017,1,0,3:0:0:0:
111,175,136111,1,0,3:0:0:0:
67,114,136204,1,0,3:0:0:0:
85,35,136298,1,0,3:0:0:0:
161,1,136392,1,0,3:0:0:0:
248,30,136486,2,0,B|374:86|360:-19|455:-8|529:86|459:141|426:150,1,330.000010070801,8|8,0:1|0:1,0:0:0:0:
417,312,136861,6,0,B|369:246|397:161|397:161|319:164|318:227|265:233|214:206,1,330.000010070801,4|0,3:1|0:0,0:0:0:0:
6,329,137236,2,0,P|77:258|198:293,1,220.000006713867,8|0,0:1|0:0,0:0:0:0:
379,384,137517,1,0,1:0:0:0:
492,319,137611,2,0,B|540:256|501:197|459:181|397:223|403:277|403:277|369:309|303:298,1,330.000010070801,0|0,3:0|0:0,0:0:0:0:
115,222,137986,2,0,P|106:134|161:-2,1,220.000006713867,8|0,0:1|0:0,0:0:0:0:
209,257,138267,1,0,1:0:0:0:
305,319,138361,6,0,B|417:352|488:223|342:201|335:125|414:35,1,330.000010070801,4|0,3:1|1:0,0:0:0:0:
220,21,138736,2,0,P|318:25|341:132,1,220.000006713867,8|0,0:1|0:0,0:0:0:0:
144,276,139017,1,0,3:0:0:0:
94,206,139110,1,0,3:0:0:0:
116,129,139204,1,0,1:0:0:0:
152,66,139298,1,0,1:0:0:0:
120,19,139392,1,0,1:0:0:0:
76,13,139486,2,0,P|81:64|247:108,1,220.000006713867,8|0,0:1|0:0,0:0:0:0:
336,301,139767,1,0,3:0:0:0:
447,208,139861,6,0,B|468:91|370:125|327:-1|420:-34|494:-14|479:62,1,330.000010070801,4|0,3:1|0:0,0:0:0:0:
361,258,140236,2,0,P|237:274|205:183,1,220.000006713867,8|0,0:1|0:0,0:0:0:0:
122,29,140517,1,0,0:0:0:0:
8,128,140611,2,0,B|3:191|136:237|137:91|316:174,1,330.000010070801,4|0,3:1|0:0,0:0:0:0:
355,320,140986,2,0,P|279:352|228:246,1,220.000006713867,8|0,0:1|0:0,0:0:0:0:
428,126,141267,1,0,1:0:0:0:
303,22,141361,6,0,B|205:-15|187:68|99:5|99:5|147:94|91:147,1,330.000010070801,4|0,3:1|0:0,0:0:0:0:
29,227,141736,2,0,P|18:270|132:233,1,220.000006713867,12|0,0:1|0:0,0:0:0:0:
270,141,142017,1,0,1:0:0:0:
383,180,142111,2,0,P|393:223|279:186,1,220.000006713867,4|0,3:1|0:0,0:0:0:0:
153,25,142392,1,0,1:0:0:0:
40,64,142486,2,0,P|29:107|143:70,1,220.000006713867,8|0,0:1|0:0,0:0:0:0:
364,299,142767,1,0,1:0:0:0:
177,344,142861,1,4,3:2:0:0:
157,326,143048,6,0,P|156:251|138:154,1,160,8|0,0:1|3:0,0:0:0:0:
271,366,143329,1,0,3:0:0:0:
262,350,143423,2,0,P|286:278|333:192,1,160,8|0,0:1|3:0,0:0:0:0:
126,351,143704,1,0,3:1:0:0:
139,334,143798,6,0,P|138:259|120:162,1,160,8|0,0:1|3:0,0:0:0:0:
284,383,144079,1,0,3:0:0:0:
271,366,144173,2,0,P|295:294|342:208,1,160,8|4,0:1|0:1,0:0:0:0:
32,76,144548,5,0,3:0:0:0:
99,32,144642,1,0,3:0:0:0:
134,104,144736,1,8,0:1:0:0:
396,160,144923,5,8,0:1:0:0:
321,113,145017,1,8,0:1:0:0:
282,191,145111,1,12,0:1:0:0:
17,249,145298,5,0,3:0:0:0:
89,185,145392,1,0,3:0:0:0:
119,277,145486,1,0,3:0:0:0:
437,323,145673,5,0,3:0:0:0:
361,250,145767,1,0,3:0:0:0:
335,351,145861,1,0,3:1:0:0:
257,335,145954,5,8,3:1:0:0:
222,262,146048,1,8,0:1:0:0:
249,186,146142,1,8,0:1:0:0:
290,117,146236,1,8,0:1:0:0:
257,44,146329,1,8,0:1:0:0:
176,40,146423,1,0,3:0:0:0:
121,99,146517,1,0,3:0:0:0:
40,94,146611,5,0,3:0:0:0:
83,128,146704,1,0,3:0:0:0:
107,178,146798,1,0,3:0:0:0:
116,233,146892,1,0,3:0:0:0:
102,287,146986,5,0,3:1:0:0:
64,316,147080,1,0,3:1:0:0:
23,290,147174,1,0,1:0:0:0:
36,244,147267,1,0,1:0:0:0:
84,241,147361,6,0,B|142:225|178:166|161:118|161:118|219:183|323:191|335:68|249:35|208:86|159:81|159:81|94:81|88:9|134:-27|191:3|214:43,1,680.000012969971,4|0,1:1|0:0,0:0:0:0:
