osu file format v14

[General]
AudioFilename: audio.mp3
AudioLeadIn: 0
PreviewTime: 117079
Countdown: 0
SampleSet: Soft
StackLeniency: 0.7
Mode: 0
LetterboxInBreaks: 0
WidescreenStoryboard: 1

[Editor]
Bookmarks: 14986,23986,26986,38986,50986,62986,74986,86986,97486,107986,118861,130861,142861,147361
DistanceSpacing: 1
BeatDivisor: 4
GridSize: 16
TimelineZoom: 3.799998

[Metadata]
Title:conflict
TitleUnicode:conflict
Artist:siromaru + cranky
ArtistUnicode:siromaru + cranky
Creator:Icekalt
Version:Easy
Source:osu!
Tags:ataraxia mappers guild mpg electronic pico video game SOUND VOLTEX III GRAVITY WARS BMS Arcarea
BeatmapID:1955675
BeatmapSetID:936126

[Difficulty]
HPDrainRate:2.5
CircleSize:2.5
OverallDifficulty:3
ApproachRate:4
SliderMultiplier:0.899999999999999
SliderTickRate:1

[Events]
//Background and Video events
0,0,"painting-3995999_1920.jpg",0,0
//Break Periods
2,63186,73486
2,87186,96166
//Storyboard Layer 0 (Background)
//Storyboard Layer 1 (Fail)
//Storyboard Layer 2 (Pass)
//Storyboard Layer 3 (Foreground)
//Storyboard Sound Samples

[TimingPoints]
2986,375,4,2,1,70,1,0
8986,-100,4,2,1,70,0,0
11236,-100,4,2,1,70,0,0
14986,-100,4,2,1,70,0,0
16486,-100,4,2,1,70,0,0
17986,-100,4,2,1,70,0,0
23986,-100,4,2,1,70,0,0
24361,-100,4,2,1,70,0,0
24736,-100,4,2,1,70,0,0
25111,-100,4,2,1,70,0,0
25486,-100,4,2,1,70,0,0
25767,-100,4,2,1,70,0,0
26142,-100,4,2,1,70,0,0
26517,-100,4,2,1,70,0,0
26986,-100,4,2,1,70,0,0
29986,-100,4,2,1,70,0,0
38986,-100,4,2,1,80,0,0
49486,-100,4,2,1,80,0,0
50986,-100,4,2,1,80,0,0
60361,-100,4,2,1,80,0,0
61486,-100,4,2,1,80,0,0
61767,-100,4,2,1,80,0,0
62048,-100,4,2,1,80,0,0
62329,-100,4,2,1,80,0,0
62611,-100,4,2,1,65,0,0
62986,-100,4,2,1,100,0,0
68986,-100,4,2,1,100,0,0
69642,-100,4,2,1,5,0,0
69736,-100,4,2,1,100,0,0
71142,-100,4,2,1,5,0,0
71236,-100,4,2,1,100,0,0
72267,-100,4,2,1,5,0,0
72361,-100,4,2,1,100,0,0
73673,-100,4,2,1,40,0,0
74236,-100,4,2,1,60,0,0
74986,-100,4,2,1,70,0,0
77986,-100,4,2,1,70,0,0
80236,-100,4,2,1,70,0,0
80611,-100,4,2,1,70,0,0
80986,-100,4,2,1,70,0,0
81923,-100,4,2,1,70,0,0
83611,-100,4,2,1,50,0,0
83798,-100,4,2,1,70,0,0
83986,-100,4,2,1,60,0,0
84736,-100,4,2,1,60,0,0
85486,-100,4,2,1,60,0,0
86986,-100,4,2,1,60,0,0
95611,-100,4,2,1,60,0,0
97486,-100,4,2,1,70,0,0
99361,-100,4,2,1,70,0,0
99454,-100,4,2,1,5,0,0
99736,-100,4,2,1,70,0,0
99829,-100,4,2,1,5,0,0
99923,-100,4,2,1,70,0,0
102079,-100,4,2,1,5,0,0
102361,-100,4,2,1,70,0,0
102454,-100,4,2,1,5,0,0
102548,-100,4,2,1,70,0,0
104611,-100,4,2,1,70,0,0
104704,-100,4,2,1,5,0,0
104986,-100,4,2,1,70,0,0
105079,-100,4,2,1,5,0,0
105173,-100,4,2,1,70,0,0
107236,-100,4,2,1,70,0,0
108267,-100,4,2,1,80,0,0
109673,-100,4,2,1,80,0,0
110892,-100,4,2,1,80,0,0
111454,-100,4,2,1,80,0,0
112017,-100,4,2,1,80,0,0
112579,-100,4,2,1,80,0,0
113517,-100,4,2,1,80,0,0
114079,-100,4,2,1,80,0,0
114642,-100,4,2,1,80,0,0
115204,-100,4,2,1,80,0,0
116986,-100,4,2,1,85,0,0
117173,-100,4,2,1,85,0,0
117923,-100,4,2,1,85,0,0
118486,-100,4,2,1,85,0,0
118861,375,4,2,1,85,1,0
118861,-100,4,2,1,85,0,0
127861,-100,4,2,1,85,0,0
128236,-100,4,2,1,85,0,0
128611,-100,4,2,1,85,0,0
128986,-100,4,2,1,85,0,0
129267,-100,4,2,1,85,0,0
130861,-100,4,2,1,85,0,0
133861,-100,4,2,1,85,0,0
143048,-100,4,2,1,85,0,0
147361,-100,4,2,1,85,0,0
148861,-100,4,2,1,5,0,0

[Colours]
Combo1 : 50,205,73
Combo2 : 0,176,176
Combo3 : 2,157,41
Combo4 : 0,128,128

[HitObjects]
67,158,2986,6,0,L|46:59,2,89.9999999999999,4|0|0,0:1|3:0|3:0,0:0:0:0:
93,243,4111,2,0,B|103:282|103:282|96:299|96:299|103:332,2,89.9999999999999,0|0|0,3:0|3:0|3:0,0:0:0:0:
152,175,5236,2,0,P|188:152|247:147,1,89.9999999999999,0|0,3:0|3:0,0:0:0:0:
309,194,5986,1,0,3:0:0:0:
379,138,6361,1,0,3:0:0:0:
442,202,6736,2,0,L|455:298,1,89.9999999999999,0|0,3:2|3:0,0:0:0:0:
399,363,7486,2,0,L|326:292,1,89.9999999999999,0|0,3:0|3:0,0:0:0:0:
284,224,8236,1,0,3:0:0:0:
194,212,8611,1,0,3:0:0:0:
122,271,8986,6,0,L|26:258,1,89.9999999999999,0|0,3:0|3:0,0:0:0:0:
6,172,9736,2,0,L|102:159,1,89.9999999999999,0|0,3:0|3:0,0:0:0:0:
168,106,10486,2,0,L|257:118,1,89.9999999999999,0|0,3:0|3:0,0:0:0:0:
317,185,11236,1,0,3:0:0:0:
393,138,11611,1,0,3:0:0:0:
448,208,11986,5,0,0:0:0:0:
327,341,12736,1,0,0:0:0:0:
216,199,13486,1,0,0:0:0:0:
142,251,13861,1,0,0:0:0:0:
67,301,14236,2,0,P|27:277|9:238,1,89.9999999999999,4|0,3:2|0:0,0:0:0:0:
44,155,14986,6,0,L|16:50,2,89.9999999999999,4|8|0,3:2|0:1|3:0,0:0:0:0:
124,195,16111,1,8,0:1:0:0:
187,131,16486,2,0,P|230:117|290:117,1,89.9999999999999,0|8,3:0|0:1,0:0:0:0:
347,167,17236,1,0,3:0:0:0:
419,113,17611,1,8,0:1:0:0:
488,169,17986,6,0,L|508:272,1,89.9999999999999,0|8,3:0|0:1,0:0:0:0:
469,339,18736,2,0,L|370:355,1,89.9999999999999,0|8,3:0|0:1,0:0:0:0:
304,304,19486,1,0,3:0:0:0:
243,371,19861,1,8,0:1:0:0:
78,297,20611,5,8,0:1:0:0:
123,219,20986,2,0,L|103:124,2,89.9999999999999,4|8|0,3:2|0:1|3:0,0:0:0:0:
192,276,22111,1,8,0:1:0:0:
246,204,22486,2,0,P|283:183|345:186,1,89.9999999999999,0|8,3:0|0:1,0:0:0:0:
468,66,23611,1,8,0:1:0:0:
390,20,23986,5,4,0:0:0:0:
301,36,24361,1,8,0:1:0:0:
213,56,24736,1,8,0:1:0:0:
125,77,25111,1,8,0:1:0:0:
70,148,25486,2,0,L|51:248,2,89.9999999999999,4|2|2,0:0|3:2|3:2,0:0:0:0:
159,159,26611,1,2,3:2:0:0:
232,211,26986,6,0,L|337:202,2,89.9999999999999,4|8|0,3:1|0:1|3:1,0:0:0:0:
175,281,28111,1,8,0:1:0:0:
224,355,28486,2,0,P|277:374|320:372,1,89.9999999999999,4|8,3:2|0:1,0:0:0:0:
446,256,29611,5,8,0:1:0:0:
377,197,29986,2,0,L|365:101,1,89.9999999999999,4|8,3:2|0:1,0:0:0:0:
277,89,30736,2,0,L|226:170,1,89.9999999999999,0|8,3:0|0:1,0:0:0:0:
264,248,31486,1,4,0:0:0:0:
220,326,31861,2,0,B|122:358|121:292|26:323,1,180,8|8,0:1|0:1,0:0:0:0:
10,234,32986,5,4,0:0:0:0:
55,156,33361,1,8,0:1:0:0:
131,108,33736,2,0,P|127:72|103:17,2,89.9999999999999,0|8|0,3:1|0:1|3:0,0:0:0:0:
189,176,34861,1,8,0:1:0:0:
274,147,35236,2,0,L|379:154,1,89.9999999999999,0|8,3:0|0:1,0:0:0:0:
429,215,35986,1,4,3:2:0:0:
375,287,36361,2,0,L|372:376,2,89.9999999999999,8|4|8,0:1|3:2|0:1,0:0:0:0:
311,223,37486,5,4,3:2:0:0:
221,234,37861,1,0,3:0:0:0:
131,246,38236,1,2,3:2:0:0:
41,258,38611,1,2,3:2:0:0:
7,174,38986,6,0,B|36:137|42:93|42:93|108:152|218:130,2,270,0|0|0,3:0|3:0|3:0,0:0:0:0:
159,270,41986,2,0,B|188:307|200:348|200:348|263:286|370:314,2,270,4|0|8,3:2|3:0|0:1,0:0:0:0:
210,195,44611,1,0,3:0:0:0:
177,110,44986,6,0,B|231:86|242:52|242:52|281:121|366:92|366:182,2,270,4|0|8,3:2|3:0|0:1,0:0:0:0:
86,265,47986,2,0,B|140:289|151:323|151:323|190:254|275:283|275:193,1,270,4|0,3:2|3:0,0:0:0:0:
230,124,49486,1,2,0:0:0:0:
281,50,49861,2,0,B|335:26|358:90|463:82,1,180,0|0,0:0|0:0,0:0:0:0:
498,161,50986,6,0,B|490:216|447:234|447:234|488:321|424:365|371:371,2,270,4|0|0,0:0|3:0|3:1,0:0:0:0:
335,83,53986,2,0,B|295:122|307:167|307:167|213:187|216:264|243:310,2,270,4|0|2,3:2|3:0|0:0,0:0:0:0:
272,18,56611,1,8,0:1:0:0:
200,72,56986,6,0,B|158:92|110:87|110:87|59:148|123:286,2,270,4|0|0,3:2|3:0|3:3,0:0:0:0:
265,239,59986,1,0,3:0:0:0:
342,286,60361,1,0,3:0:0:0:
424,250,60736,1,8,0:1:0:0:
438,161,61111,1,8,0:1:0:0:
381,90,61486,6,0,B|322:58|322:58|271:104|271:104|213:66|213:66|149:119|107:53|63:113,1,360,4|4,3:2|0:1,0:0:0:0:
79,296,74986,6,0,P|111:267|171:255,1,89.9999999999999,4|8,3:1|0:1,0:0:0:0:
234,297,75736,2,0,P|266:326|326:338,1,89.9999999999999,0|8,3:0|0:1,0:0:0:0:
388,292,76486,2,0,P|416:213|412:102,1,180,0|0,3:0|3:0,0:0:0:0:
343,63,77611,1,8,0:1:0:0:
281,128,77986,2,0,P|205:134|105:92,2,180,4|0|4,3:1|3:0|3:2,0:0:0:0:
352,182,79861,1,0,3:0:0:0:
312,262,80236,2,0,P|291:310|262:337,1,89.9999999999999,8|0,0:1|1:1,0:0:0:0:
174,327,80986,6,0,B|166:234|84:180|84:180|143:175|172:132,1,270,4|8,3:1|0:1,0:0:0:0:
234,86,82486,2,0,B|324:110|402:51|402:51|387:108|417:150,1,270,4|0,0:0|1:0,0:0:0:0:
394,228,83986,5,0,3:0:0:0:
304,237,84361,1,8,0:1:0:0:
214,247,84736,1,0,3:0:0:0:
124,257,85111,1,8,0:1:0:0:
50,205,85486,1,4,3:2:0:0:
149,54,86236,6,0,P|200:54|256:88,1,89.9999999999999,0|8,3:0|0:1,0:0:0:0:
251,158,86986,1,2,0:0:0:0:
260,149,97486,6,0,B|319:91|252:68|309:5|309:5|356:35|426:16,2,270,2|2|10,0:0|0:0|0:0,0:0:0:0:
323,212,100111,2,0,B|383:195|430:225|430:225|487:162|420:139|479:81,2,270,2|2|10,0:0|0:2|0:2,0:0:0:0:
277,290,102736,6,0,B|241:323|181:339|141:277|141:277|135:332|68:347|36:314,2,270,2|2|10,0:0|0:0|0:0,0:0:0:0:
288,200,105361,2,0,B|324:167|384:151|424:213|424:213|430:158|497:143|529:176,2,270,10|0|2,0:0|0:0|0:0,0:0:0:0:
153,283,108267,6,0,B|93:249|93:249|130:195|130:195|70:160|70:160|107:95|107:95,1,270,0|0,3:0|3:0,0:0:0:0:
167,81,109673,2,0,B|233:99|233:99|253:39|253:39|324:55|324:55,1,202.5,8|0,3:0|0:0,0:0:0:0:
385,118,110892,2,0,B|449:144|449:144|465:208|465:208|406:238|406:238|407:311|407:311|350:340|350:340|294:301,1,405,8|8,3:0|3:0,0:0:0:0:
256,192,112861,12,0,115486,0:0:0:0:
86,146,116986,5,2,0:2:0:0:
170,115,117361,2,0,B|200:100|218:68|218:68|240:95|276:98|276:98|258:133|263:170,1,202.5,4|4,1:0|1:3,0:0:0:0:
169,288,118861,6,0,P|121:300|68:298,2,89.9999999999999,4|8|0,3:1|0:1|3:2,0:0:0:0:
250,325,119986,1,8,0:1:0:0:
335,354,120361,2,0,P|378:340|412:290,1,89.9999999999999,0|8,3:0|0:1,0:0:0:0:
437,222,121111,1,0,3:0:0:0:
389,145,121486,1,8,0:1:0:0:
301,122,121861,6,0,P|252:134|195:120,1,89.9999999999999,4|8,3:1|1:1,0:0:0:0:
150,63,122611,2,0,P|105:57|62:69,1,89.9999999999999,0|8,3:1|0:1,0:0:0:0:
21,149,123361,1,4,3:1:0:0:
68,225,123736,1,8,0:1:0:0:
207,338,124486,5,8,0:1:0:0:
282,289,124861,2,0,L|294:199,2,89.9999999999999,4|8|0,3:1|0:1|3:0,0:0:0:0:
337,359,125986,1,8,0:1:0:0:
423,335,126361,2,0,P|469:316|496:266,1,89.9999999999999,0|8,3:0|0:1,0:0:0:0:
459,106,127486,1,8,0:1:0:0:
375,72,127861,5,4,3:1:0:0:
355,160,128236,1,8,0:1:0:0:
330,247,128611,1,8,0:1:0:0:
305,333,128986,1,8,0:1:0:0:
218,358,129361,2,0,L|115:376,2,89.9999999999999,4|2|2,0:0|3:2|3:2,0:0:0:0:
241,270,130486,1,2,3:2:0:0:
201,189,130861,6,0,L|216:98,2,89.9999999999999,4|8|0,3:1|0:1|1:0,0:0:0:0:
131,246,131986,1,8,0:1:0:0:
42,229,132361,2,0,P|12:193|4:136,1,89.9999999999999,4|8,3:1|0:1,0:0:0:0:
148,46,133486,5,8,0:1:0:0:
219,100,133861,2,0,L|319:109,1,89.9999999999999,4|8,3:1|0:1,0:0:0:0:
330,195,134611,2,0,L|230:229,1,89.9999999999999,0|8,3:0|0:1,0:0:0:0:
176,282,135361,1,4,3:1:0:0:
234,350,135736,2,0,L|418:372,1,180,8|8,0:1|0:1,0:0:0:0:
472,304,136861,5,4,3:1:0:0:
404,238,137236,1,8,0:1:0:0:
429,151,137611,2,0,P|425:115|401:60,2,89.9999999999999,0|8|4,3:0|0:1|3:1,0:0:0:0:
341,171,138736,1,8,0:1:0:0:
267,118,139111,2,0,L|177:112,1,89.9999999999999,0|8,3:0|0:1,0:0:0:0:
120,182,139861,1,4,3:1:0:0:
31,165,140236,2,0,P|31:122|50:73,2,89.9999999999999,8|4|8,0:1|3:1|0:1,0:0:0:0:
62,249,141361,5,4,3:1:0:0:
150,267,141736,1,12,0:1:0:0:
238,283,142111,1,4,3:1:0:0:
326,297,142486,1,8,0:1:0:0:
394,180,143048,6,0,L|406:73,1,89.9999999999999,8|8,0:1|0:1,0:0:0:0:
317,66,143798,2,0,L|262:151,1,89.9999999999999,8|8,0:1|0:1,0:0:0:0:
180,118,144548,2,0,L|188:28,1,89.9999999999999,0|8,3:0|3:0,0:0:0:0:
100,9,145298,1,0,3:0:0:0:
53,86,145673,6,0,B|37:175|105:221|163:213|163:213|135:257|156:325|228:329|264:285|265:243,1,405,0|4,3:0|3:1,0:0:0:0:
