osu file format v14

[General]
AudioFilename: audio.mp3
AudioLeadIn: 0
PreviewTime: 54591
Countdown: 0
SampleSet: Soft
StackLeniency: 0.7
Mode: 3
LetterboxInBreaks: 0
SpecialStyle: 0
WidescreenStoryboard: 0

[Editor]
Bookmarks: 11966,17299,22633,33216,43966,45299,54633,59966,65299,75966,86633,91966,97299,107966,113299,118633
DistanceSpacing: 0.8
BeatDivisor: 4
GridSize: 4
TimelineZoom: 2.1

[Metadata]
Title:parsley
TitleUnicode:ρars/ey
Artist:siqlo
ArtistUnicode:siqlo
Creator:FAMoss
Version:kitch/en
Source:osu!
Tags:featured artist fa mappers' guild mg saikuro cute chibi future bass frenz2019 electronic instrumental core
BeatmapID:2639801
BeatmapSetID:1270255

[Difficulty]
HPDrainRate:8.8
CircleSize:4
OverallDifficulty:8.2
ApproachRate:5
SliderMultiplier:1.4
SliderTickRate:1

[Events]
//Background and Video events
0,0,"siqlo - parsley (FAMoss) [background].jpg",0,0
//Break Periods
//Storyboard Layer 0 (Background)
//Storyboard Layer 1 (Fail)
//Storyboard Layer 2 (Pass)
//Storyboard Layer 3 (Foreground)
//Storyboard Layer 4 (Overlay)
//Storyboard Sound Samples
Sample,37942,0,"FX Squeeze 1.wav",100
Sample,38109,0,"FX Squeeze 2.wav",100
Sample,38276,0,"FX Squeeze 1.wav",100
Sample,38442,0,"FX Squeeze 2.wav",100
Sample,53942,0,"ready.wav",70
Sample,54276,0,"FX Squeeze 1.wav",100
Sample,54442,0,"FX Squeeze 2.wav",100
Sample,54942,0,"bruh.wav",30
Sample,55942,0,"bruh.wav",30
Sample,57609,0,"bruh.wav",30
Sample,58109,0,"bruh.wav",30
Sample,58609,0,"bruh.wav",30
Sample,59109,0,"bruh.wav",30
Sample,60276,0,"bruh.wav",30
Sample,61276,0,"bruh.wav",30
Sample,62942,0,"bruh.wav",30
Sample,63442,0,"bruh.wav",30
Sample,63942,0,"bruh.wav",30
Sample,64442,0,"bruh.wav",30
Sample,106942,0,"wuuu.wav",100
Sample,111942,0,"yeeeeeeah.wav",70
Sample,112609,0,"FX Squeeze 1.wav",100
Sample,112776,0,"FX Squeeze 2.wav",100
Sample,112942,0,"FX Squeeze 1.wav",100
Sample,113109,0,"FX Squeeze 2.wav",100
Sample,117942,0,"how do you like that.wav",70

[TimingPoints]
1318,333.333333333333,4,2,1,50,1,0
11651,-125,4,2,1,50,0,0
11901,-90.9090909090909,4,2,1,50,0,0
11984,-100,4,2,1,50,0,0
22651,-142.857142857143,4,2,1,50,0,0
22901,-83.3333333333333,4,2,1,50,0,0
22984,-100,4,2,1,50,0,0
33317,-142.857,4,2,1,50,0,0
33567,-83.3333,4,2,1,50,0,0
33650,-100,4,2,1,50,0,0
37984,-133.333333333333,4,2,1,50,0,0
38067,-111.111111111111,4,2,1,50,0,0
38151,-90.9090909090909,4,2,1,50,0,0
38317,-133.333,4,2,1,50,0,0
38400,-111.111,4,2,1,50,0,0
38484,-90.9091,4,2,1,50,0,0
38651,-100,4,2,1,50,0,0
49317,-90.9090909090909,4,2,1,50,0,0
49401,-125,4,2,1,50,0,0
49484,-100,4,2,1,50,0,0
51984,-166.666666666667,4,2,1,50,0,0
52067,-83.3333333333333,4,2,1,50,0,0
52151,-100,4,2,1,50,0,0
54317,-133.333,4,2,1,50,0,0
54400,-111.111,4,2,1,50,0,0
54484,-90.9091,4,2,1,50,0,0
54651,-100,4,2,1,50,0,1
56984,-125,4,2,1,50,0,1
57151,-90.9091,4,2,1,50,0,1
57318,-100,4,2,1,50,0,1
59651,-50,4,2,1,50,0,1
59692,-166.666666666667,4,2,1,50,0,1
59984,-100,4,2,1,50,0,1
62317,-125,4,2,1,50,0,1
62484,-90.9091,4,2,1,50,0,1
62651,-100,4,2,1,50,0,1
65317,-111.111111111111,4,2,1,50,0,0
75984,-100,4,2,1,50,0,0
96651,-111.111111111111,4,2,1,50,0,0
96817,-125,4,2,1,50,0,0
97234,-83.3333333333333,4,2,1,50,0,0
97317,-100,4,2,1,50,0,1
99317,-90.9090909090909,4,2,1,50,0,1
99401,-125,4,2,1,50,0,1
99484,-90.9091,4,2,1,50,0,1
99568,-125,4,2,1,50,0,1
99651,-90.9091,4,2,1,50,0,1
99735,-125,4,2,1,50,0,1
99817,-100,4,2,1,50,0,1
102317,-83.3333333333333,4,2,1,50,0,1
102484,-125,4,2,1,50,0,1
102651,-100,4,2,1,50,0,1
106651,-90.9091,4,2,1,50,0,0
106735,-125,4,2,1,50,0,0
106818,-90.9091,4,2,1,50,0,0
106902,-125,4,2,1,50,0,0
106985,-90.9091,4,2,1,50,0,0
107069,-125,4,2,1,50,0,0
107151,-90.9090909090909,4,2,1,50,0,0
107234,-125,4,2,1,50,0,0
107317,-100,4,2,1,50,0,0
107984,-50,4,2,1,50,0,0
108025,-166.667,4,2,1,50,0,0
108317,-100,4,2,1,50,0,1
112651,-133.333,4,2,1,50,0,1
112734,-111.111,4,2,1,50,0,1
112818,-90.9091,4,2,1,50,0,1
112984,-133.333,4,2,1,50,0,1
113067,-111.111,4,2,1,50,0,1
113151,-90.9091,4,2,1,50,0,1
113318,-100,4,2,1,50,0,1
118484,-100,4,2,1,50,0,0

[HitObjects]
192,192,1318,128,0,1984:0:0:0:0:
64,192,1984,1,0,0:0:0:70:Clap_Reverb.wav
448,192,1984,1,0,0:0:0:50:G#5S_Ab5S_s.wav
320,192,2651,1,0,0:0:0:50:F#5S_Gb5S_s.wav
448,192,2651,1,0,0:0:0:0:
192,192,2984,1,0,0:0:0:50:C#5S_Db5S_s.wav
448,192,2984,1,0,0:0:0:0:
64,192,3317,1,0,0:0:0:50:E5S_s.wav
192,192,3317,1,0,0:0:0:0:
64,192,3651,1,0,0:0:0:50:B5S_s.wav
448,192,3651,1,0,0:0:0:0:
192,192,3984,128,0,4651:0:0:0:0:
320,192,4317,1,0,0:0:0:50:G#5S_Ab5S_s.wav
448,192,4317,1,0,0:0:0:0:
64,192,4651,1,0,0:0:0:70:Clap_Reverb.wav
448,192,4651,1,0,0:0:0:0:
320,192,4984,1,0,0:0:0:50:B4S_s.wav
448,192,4984,1,0,0:0:0:0:
64,192,5151,1,0,0:0:0:50:E5S_s.wav
192,192,5151,1,0,0:0:0:0:
64,192,5317,1,0,0:0:0:50:F#5S_Gb5S_s.wav
448,192,5317,1,0,0:0:0:0:
320,192,5651,1,0,0:0:0:50:G#5S_Ab5S_s.wav
448,192,5651,1,0,0:0:0:0:
64,192,5984,1,0,0:0:0:50:F5S_s.wav
192,192,5984,1,0,0:0:0:0:
320,192,6026,1,0,0:0:0:50:F#5S_Gb5S_s.wav
448,192,6109,1,0,0:0:0:50:G#5S_Ab5S_s.wav
192,192,6151,1,0,0:0:0:50:F#5S_Gb5S_s.wav
320,192,6317,1,0,0:0:0:50:E5S_s.wav
448,192,6317,1,0,0:0:0:0:
320,192,6651,128,0,7317:0:0:0:0:
64,192,7317,1,0,0:0:0:70:Clap_Reverb.wav
448,192,7317,1,0,0:0:0:50:G#5S_Ab5S_s.wav
64,192,7984,1,0,0:0:0:50:B5S_s.wav
192,192,7984,1,0,0:0:0:0:
320,192,8317,1,0,0:0:0:50:G#5S_Ab5S_s.wav
448,192,8317,1,0,0:0:0:0:
64,192,8651,1,0,0:0:0:50:B5S_s.wav
192,192,8651,1,0,0:0:0:0:
192,192,8984,1,0,0:0:0:50:G#5S_Ab5S_s.wav
320,192,8984,1,0,0:0:0:0:
64,192,9151,1,0,0:0:0:50:C#6S_Db6S_s.wav
448,192,9151,1,0,0:0:0:0:
320,192,9317,128,0,9984:0:0:0:0:
64,192,9651,1,0,0:0:0:50:B5S_s.wav
192,192,9651,1,0,0:0:0:0:
64,192,9984,1,0,0:0:0:70:Clap_Reverb.wav
448,192,9984,1,0,0:0:0:0:
320,192,10317,1,0,0:0:0:50:G#5S_Ab5S_s.wav
448,192,10317,1,0,0:0:0:0:
192,192,10651,128,0,11317:0:0:0:0:
64,192,10984,1,0,0:0:0:50:B5S_s.wav
448,192,10984,1,0,0:0:0:0:
320,192,11317,1,0,0:0:0:50:G#5S_Ab5S_s.wav
448,192,11317,1,0,0:0:0:0:
192,192,11484,1,0,0:0:0:50:F#5S_Gb5S_s.wav
448,192,11484,1,0,0:0:0:0:
64,192,11651,1,0,0:0:0:50:E5S_s.wav
192,192,11651,1,0,0:0:0:0:
64,192,11984,1,4,0:0:0:0:
320,192,11984,1,0,0:0:0:70:Cymatics - Grime Clap 1.wav
448,192,11984,1,0,0:0:0:0:
192,192,12151,1,0,0:0:0:0:
448,192,12234,1,0,0:0:0:40:3P.wav
64,192,12317,1,0,0:0:0:70:Cymatics - Grime Clap 1.wav
192,192,12317,1,0,0:0:0:0:
320,192,12484,1,0,0:0:0:40:3P.wav
64,192,12651,1,0,0:0:0:70:Clap_Reverb.wav
320,192,12651,1,0,0:0:0:70:Cymatics - Grime Clap 1.wav
448,192,12651,1,0,0:0:0:0:
192,192,12817,1,0,0:0:0:0:
64,192,12901,1,0,0:0:0:40:3P.wav
320,192,12984,1,0,0:0:0:70:Cymatics - Grime Clap 1.wav
448,192,12984,1,0,0:0:0:0:
320,192,13151,1,0,0:0:0:40:3P.wav
64,192,13317,1,0,0:0:0:70:Cymatics - Grime Clap 1.wav
192,192,13317,1,0,0:0:0:0:
448,192,13317,1,0,0:0:0:0:
192,192,13484,1,0,0:0:0:0:
320,192,13567,1,0,0:0:0:40:3P.wav
64,192,13651,1,0,0:0:0:70:Cymatics - Grime Clap 1.wav
448,192,13651,1,0,0:0:0:0:
320,192,13817,1,0,0:0:0:40:3P.wav
64,192,13984,1,0,0:0:0:70:Clap_Reverb.wav
192,192,13984,1,0,0:0:0:70:Cymatics - Grime Clap 1.wav
448,192,13984,1,0,0:0:0:0:
192,192,14151,1,0,0:0:0:0:
64,192,14234,1,0,0:0:0:40:3P.wav
320,192,14317,1,0,0:0:0:70:Cymatics - Grime Clap 1.wav
448,192,14317,1,0,0:0:0:0:
320,192,14484,1,0,0:0:0:40:3P.wav
64,192,14651,1,0,0:0:0:70:Cymatics - Grime Clap 1.wav
192,192,14651,1,0,0:0:0:0:
448,192,14651,1,0,0:0:0:0:
320,192,14817,1,0,0:0:0:0:
64,192,14901,1,0,0:0:0:40:3P.wav
448,192,14984,1,0,0:0:0:0:
320,192,14984,1,0,0:0:0:70:Cymatics - Grime Clap 1.wav
192,192,15151,1,0,0:0:0:40:3P.wav
64,192,15317,1,0,0:0:0:70:Clap_Reverb.wav
192,192,15317,1,0,0:0:0:70:Cymatics - Grime Clap 1.wav
448,192,15317,1,0,0:0:0:0:
320,192,15484,1,0,0:0:0:0:
448,192,15567,1,0,0:0:0:40:3P.wav
64,192,15651,1,0,0:0:0:70:Cymatics - Grime Clap 1.wav
192,192,15651,1,0,0:0:0:0:
192,192,15817,1,0,0:0:0:40:3P.wav
64,192,15984,1,0,0:0:0:70:Cymatics - Grime Clap 1.wav
320,192,15984,1,0,0:0:0:0:
448,192,15984,1,0,0:0:0:0:
320,192,16151,1,0,0:0:0:0:
192,192,16234,1,0,0:0:0:40:3P.wav
64,192,16317,1,0,0:0:0:70:Cymatics - Grime Clap 1.wav
448,192,16317,1,0,0:0:0:0:
192,192,16484,1,0,0:0:0:40:3P.wav
64,192,16651,1,0,0:0:0:70:Clap_Reverb.wav
320,192,16651,1,0,0:0:0:70:Cymatics - Grime Clap 1.wav
448,192,16651,1,0,0:0:0:0:
192,192,16817,1,0,0:0:0:0:
320,192,16901,1,0,0:0:0:40:3P.wav
64,192,16984,1,0,0:0:0:70:Cymatics - Grime Clap 1.wav
448,192,16984,1,0,0:0:0:0:
320,192,17151,1,0,0:0:0:40:3P.wav
64,192,17317,1,0,0:0:0:40:3P.wav
192,192,17317,1,0,0:0:0:70:Cymatics - Grime Clap 1.wav
448,192,17317,1,0,0:0:0:0:
192,192,17484,1,0,0:0:0:40:3P.wav
64,192,17651,1,0,0:0:0:40:3P.wav
320,192,17651,1,0,0:0:0:70:Cymatics - Grime Clap 1.wav
448,192,17651,1,0,0:0:0:0:
320,192,17817,1,0,0:0:0:40:3P.wav
64,192,17984,1,0,0:0:0:40:3P.wav
192,192,17984,1,0,0:0:0:70:Clap_Reverb.wav
448,192,17984,1,0,0:0:0:70:Cymatics - Grime Clap 1.wav
192,192,18151,1,0,0:0:0:40:3P.wav
64,192,18317,1,0,0:0:0:40:3P.wav
320,192,18317,1,0,0:0:0:70:Cymatics - Grime Clap 1.wav
448,192,18317,1,0,0:0:0:0:
320,192,18484,1,0,0:0:0:40:3P.wav
64,192,18651,1,0,0:0:0:40:3P.wav
192,192,18651,1,0,0:0:0:70:Cymatics - Grime Clap 1.wav
448,192,18651,1,0,0:0:0:0:
192,192,18817,1,0,0:0:0:40:3P.wav
64,192,18984,1,0,0:0:0:40:3P.wav
320,192,18984,1,0,0:0:0:70:Cymatics - Grime Clap 1.wav
448,192,18984,1,0,0:0:0:0:
320,192,19151,1,0,0:0:0:40:3P.wav
64,192,19317,1,0,0:0:0:40:3P.wav
192,192,19317,1,0,0:0:0:70:Clap_Reverb.wav
448,192,19317,1,0,0:0:0:70:Cymatics - Grime Clap 1.wav
192,192,19484,1,0,0:0:0:40:3P.wav
64,192,19651,1,2,0:0:0:0:
192,192,19651,1,4,0:0:0:0:
320,192,19651,1,0,0:0:0:0:
448,192,19651,1,0,0:0:0:0:
320,192,19817,1,0,0:0:0:30:3P.wav
192,192,19901,1,0,0:0:0:30:3P.wav
64,192,19984,1,0,0:0:0:30:3P.wav
448,192,19984,1,0,0:0:0:70:Cymatics - Grime Clap 1.wav
320,192,20067,1,0,0:0:0:30:3P.wav
64,192,20151,1,0,0:0:0:30:3P.wav
192,192,20234,1,0,0:0:0:30:3P.wav
320,192,20317,1,0,0:0:0:30:3P.wav
448,192,20317,1,0,0:0:0:70:Cymatics - Grime Clap 1.wav
64,192,20401,1,0,0:0:0:30:3P.wav
192,192,20484,1,0,0:0:0:30:3P.wav
320,192,20567,1,0,0:0:0:30:3P.wav
64,192,20651,1,0,0:0:0:20:3P.wav
448,192,20651,1,0,0:0:0:70:Cymatics - Grime Clap 1.wav
192,192,20734,1,0,0:0:0:20:3P.wav
448,192,20817,1,0,0:0:0:20:3P.wav
320,192,20901,1,0,0:0:0:20:3P.wav
64,192,20984,1,0,0:0:0:20:3P.wav
192,192,20984,1,0,0:0:0:70:Cymatics - Grime Clap 1.wav
448,192,21067,1,0,0:0:0:20:3P.wav
320,192,21151,1,0,0:0:0:20:3P.wav
192,192,21234,1,0,0:0:0:20:3P.wav
64,192,21317,1,0,0:0:0:20:3P.wav
448,192,21317,1,0,0:0:0:0:
320,192,21401,1,0,0:0:0:20:3P.wav
192,192,21484,1,0,0:0:0:20:3P.wav
320,192,21567,1,0,0:0:0:20:3P.wav
448,192,21651,1,0,0:0:0:20:3P.wav
64,192,21651,1,0,0:0:0:0:
192,192,21734,1,0,0:0:0:20:3P.wav
320,192,21817,1,0,0:0:0:20:3P.wav
192,192,21901,1,0,0:0:0:20:3P.wav
448,192,21984,1,0,0:0:0:20:3P.wav
64,192,21984,1,0,0:0:0:0:
320,192,22151,1,0,0:0:0:0:
192,192,22234,1,0,0:0:0:0:
320,192,22317,128,0,22484:0:0:0:0:
64,192,22401,128,0,22484:0:0:0:0:
448,192,22484,128,0,22567:0:0:0:0:
64,192,22567,128,0,22651:0:0:0:0:
320,192,22651,128,0,22984:0:0:0:0:
64,192,22984,1,4,0:0:0:0:
192,192,22984,1,2,0:0:0:0:
448,192,22984,1,0,0:0:0:0:
320,192,23151,1,0,0:0:0:0:
64,192,23317,1,2,0:0:0:0:
192,192,23317,1,0,0:0:0:0:
448,192,23317,1,0,0:0:0:0:
192,192,23484,1,0,0:0:0:0:
64,192,23567,1,2,0:0:0:0:
320,192,23567,1,0,0:0:0:0:
448,192,23567,1,0,0:0:0:0:
192,192,23651,1,0,0:0:0:0:
64,192,23817,1,2,0:0:0:0:
192,192,23817,1,0,0:0:0:0:
320,192,23817,1,0,0:0:0:0:
64,192,23984,1,2,0:0:0:0:
320,192,23984,1,4,0:0:0:0:
448,192,23984,1,0,0:0:0:0:
192,192,24151,1,0,0:0:0:0:
320,192,24234,1,0,0:0:0:0:
64,192,24317,1,2,0:0:0:0:
192,192,24317,1,0,0:0:0:0:
448,192,24317,1,0,0:0:0:0:
320,192,24484,1,0,0:0:0:0:
192,192,24567,1,0,0:0:0:0:
64,192,24651,1,2,0:0:0:0:
320,192,24651,1,0,0:0:0:0:
448,192,24651,1,0,0:0:0:0:
192,192,24817,1,0,0:0:0:0:
64,192,24901,1,2,0:0:0:0:
320,192,24901,1,0,0:0:0:0:
448,192,24901,1,0,0:0:0:0:
192,192,24984,1,0,0:0:0:0:
64,192,25151,1,2,0:0:0:0:
320,192,25151,1,0,0:0:0:0:
448,192,25151,1,0,0:0:0:0:
64,192,25317,1,4,0:0:0:0:
192,192,25317,1,2,0:0:0:0:
320,192,25317,1,0,0:0:0:0:
448,192,25317,1,0,0:0:0:0:
192,192,25484,1,0,0:0:0:0:
320,192,25567,1,0,0:0:0:0:
64,192,25651,1,2,0:0:0:0:
192,192,25651,1,0,0:0:0:0:
448,192,25651,1,0,0:0:0:0:
320,192,25817,1,0,0:0:0:0:
64,192,25984,1,2,0:0:0:0:
192,192,25984,1,0,0:0:0:0:
448,192,25984,1,0,0:0:0:0:
320,192,26151,1,0,0:0:0:0:
64,192,26234,1,2,0:0:0:0:
192,192,26234,1,0,0:0:0:0:
448,192,26234,1,0,0:0:0:0:
320,192,26317,1,0,0:0:0:0:
192,192,26484,1,2,0:0:0:0:
320,192,26484,1,0,0:0:0:0:
448,192,26484,1,0,0:0:0:0:
64,192,26651,1,4,0:0:0:0:
192,192,26651,1,2,0:0:0:0:
448,192,26651,1,0,0:0:0:0:
320,192,26817,1,0,0:0:0:0:
192,192,26901,1,0,0:0:0:0:
64,192,26984,1,2,0:0:0:0:
320,192,26984,1,0,0:0:0:0:
448,192,26984,1,0,0:0:0:0:
192,192,27151,1,0,0:0:0:0:
320,192,27234,1,0,0:0:0:0:
64,192,27317,1,2,0:0:0:0:
192,192,27317,1,0,0:0:0:0:
448,192,27317,1,0,0:0:0:0:
320,192,27484,1,0,0:0:0:0:
64,192,27567,1,2,0:0:0:0:
192,192,27567,1,0,0:0:0:0:
448,192,27567,1,0,0:0:0:0:
320,192,27651,1,0,0:0:0:0:
192,192,27817,1,0,0:0:0:0:
64,192,27984,1,2,0:0:0:0:
192,192,27984,1,4,0:0:0:0:
320,192,27984,1,0,0:0:0:0:
448,192,27984,1,0,0:0:0:0:
320,192,28151,1,0,0:0:0:0:
64,192,28317,1,2,0:0:0:0:
192,192,28317,1,0,0:0:0:0:
448,192,28317,1,0,0:0:0:0:
192,192,28484,1,0,0:0:0:0:
64,192,28651,1,2,0:0:0:0:
320,192,28651,1,0,0:0:0:0:
448,192,28651,1,0,0:0:0:0:
192,192,28817,1,0,0:0:0:0:
64,192,28901,1,2,0:0:0:0:
320,192,28901,1,0,0:0:0:0:
448,192,28901,1,0,0:0:0:0:
192,192,28984,1,0,0:0:0:0:
64,192,29151,1,2,0:0:0:0:
192,192,29151,1,0,0:0:0:0:
320,192,29151,1,0,0:0:0:0:
64,192,29317,1,2,0:0:0:0:
320,192,29317,1,4,0:0:0:0:
448,192,29317,1,0,0:0:0:0:
192,192,29484,1,0,0:0:0:0:
320,192,29567,1,0,0:0:0:0:
64,192,29651,1,2,0:0:0:0:
192,192,29651,1,0,0:0:0:0:
448,192,29651,1,0,0:0:0:0:
320,192,29817,1,0,0:0:0:0:
192,192,29901,1,0,0:0:0:0:
64,192,29984,1,2,0:0:0:0:
320,192,29984,1,0,0:0:0:0:
448,192,29984,1,0,0:0:0:0:
192,192,30151,1,0,0:0:0:0:
64,192,30234,1,2,0:0:0:0:
320,192,30234,1,0,0:0:0:0:
448,192,30234,1,0,0:0:0:0:
192,192,30317,1,0,0:0:0:0:
64,192,30484,1,2,0:0:0:0:
320,192,30484,1,0,0:0:0:0:
448,192,30484,1,0,0:0:0:0:
64,192,30651,1,4,0:0:0:0:
192,192,30651,1,2,0:0:0:0:
320,192,30651,1,0,0:0:0:0:
448,192,30651,1,0,0:0:0:0:
192,192,30817,1,0,0:0:0:0:
64,192,30984,1,2,0:0:0:0:
320,192,30984,1,0,0:0:0:0:
448,192,30984,1,0,0:0:0:0:
192,192,31151,1,0,0:0:0:0:
320,192,31234,1,0,0:0:0:0:
64,192,31317,1,2,0:0:0:0:
192,192,31317,1,0,0:0:0:0:
448,192,31317,1,0,0:0:0:0:
320,192,31484,1,0,0:0:0:0:
64,192,31567,1,2,0:0:0:0:
192,192,31567,1,0,0:0:0:0:
448,192,31567,1,0,0:0:0:0:
320,192,31651,1,0,0:0:0:0:
64,192,31817,1,2,0:0:0:0:
448,192,31817,1,0,0:0:0:0:
192,192,31817,1,0,0:0:0:0:
320,192,31901,1,0,0:0:0:0:
192,192,31984,1,0,0:0:0:0:
64,192,31984,1,0,0:0:0:70:Kick 3.wav
64,192,32317,1,0,0:0:0:70:VEC3 Snares 048.wav
448,192,32317,1,0,0:0:0:0:
320,192,32484,1,0,0:0:0:70:Kick 3.wav
448,192,32484,1,0,0:0:0:0:
192,192,32651,1,0,0:0:0:0:
64,192,32817,1,0,0:0:0:70:VEC3 Snares 048.wav
448,192,32817,1,0,0:0:0:0:
64,192,32984,1,0,0:0:0:70:snare2.wav
320,192,32984,1,0,0:0:0:0:
64,192,33151,1,0,0:0:0:70:snare2.wav
192,192,33151,1,0,0:0:0:0:
320,192,33234,1,0,0:0:0:0:
192,192,33317,128,0,33651:0:0:0:0:
448,192,33317,1,0,0:0:0:0:
64,192,33651,1,2,0:0:0:0:
320,192,33651,1,4,0:0:0:0:
448,192,33651,1,0,0:0:0:0:
192,192,33817,1,0,0:0:0:0:
64,192,33984,1,2,0:0:0:0:
320,192,33984,1,0,0:0:0:0:
448,192,33984,1,0,0:0:0:0:
320,192,34151,1,0,0:0:0:0:
64,192,34234,1,2,0:0:0:0:
192,192,34234,1,0,0:0:0:0:
448,192,34234,1,0,0:0:0:0:
320,192,34317,1,0,0:0:0:0:
192,192,34484,1,2,0:0:0:0:
320,192,34484,1,0,0:0:0:0:
448,192,34484,1,0,0:0:0:0:
64,192,34651,1,4,0:0:0:0:
192,192,34651,1,2,0:0:0:0:
448,192,34651,1,0,0:0:0:0:
320,192,34817,1,0,0:0:0:0:
192,192,34901,1,0,0:0:0:0:
64,192,34984,1,2,0:0:0:0:
320,192,34984,1,0,0:0:0:0:
448,192,34984,1,0,0:0:0:0:
192,192,35151,1,0,0:0:0:0:
320,192,35234,1,0,0:0:0:0:
64,192,35317,1,2,0:0:0:0:
192,192,35317,1,0,0:0:0:0:
448,192,35317,1,0,0:0:0:0:
320,192,35484,1,0,0:0:0:0:
64,192,35567,1,2,0:0:0:0:
192,192,35567,1,0,0:0:0:0:
448,192,35567,1,0,0:0:0:0:
320,192,35651,1,0,0:0:0:0:
64,192,35817,1,2,0:0:0:0:
192,192,35817,1,0,0:0:0:0:
448,192,35817,1,0,0:0:0:0:
64,192,35984,1,2,0:0:0:0:
192,192,35984,1,4,0:0:0:0:
320,192,35984,1,0,0:0:0:0:
448,192,35984,1,0,0:0:0:0:
320,192,36151,1,0,0:0:0:0:
192,192,36234,1,0,0:0:0:0:
64,192,36317,1,2,0:0:0:0:
320,192,36317,1,0,0:0:0:0:
448,192,36317,1,0,0:0:0:0:
192,192,36484,1,0,0:0:0:0:
64,192,36651,1,2,0:0:0:0:
320,192,36651,1,0,0:0:0:0:
448,192,36651,1,0,0:0:0:0:
192,192,36817,1,0,0:0:0:0:
64,192,36901,1,2,0:0:0:0:
320,192,36901,1,0,0:0:0:0:
448,192,36901,1,0,0:0:0:0:
192,192,36984,1,0,0:0:0:0:
64,192,37151,1,2,0:0:0:0:
192,192,37151,1,0,0:0:0:0:
320,192,37151,1,0,0:0:0:0:
64,192,37317,1,2,0:0:0:0:
320,192,37317,1,4,0:0:0:0:
448,192,37317,1,0,0:0:0:0:
192,192,37484,1,0,0:0:0:0:
320,192,37567,1,0,0:0:0:0:
64,192,37651,1,2,0:0:0:0:
192,192,37651,1,0,0:0:0:0:
448,192,37651,1,0,0:0:0:0:
320,192,37817,1,0,0:0:0:0:
192,192,37901,1,0,0:0:0:0:
448,192,37984,128,0,38151:0:0:0:0:
192,192,38151,1,0,0:0:0:0:
320,192,38317,128,0,38484:0:0:0:0:
64,192,38484,1,0,0:0:0:0:
64,192,38651,1,4,0:0:0:0:
192,192,38651,1,2,0:0:0:0:
320,192,38651,1,0,0:0:0:0:
448,192,38651,1,0,0:0:0:0:
192,192,38817,1,0,0:0:0:0:
64,192,38984,1,2,0:0:0:0:
320,192,38984,1,0,0:0:0:0:
448,192,38984,1,0,0:0:0:0:
320,192,39151,1,0,0:0:0:0:
64,192,39317,1,2,0:0:0:0:
192,192,39317,1,0,0:0:0:0:
448,192,39317,1,0,0:0:0:0:
320,192,39484,1,0,0:0:0:0:
64,192,39567,1,2,0:0:0:0:
192,192,39567,1,0,0:0:0:0:
448,192,39567,1,0,0:0:0:0:
320,192,39651,1,0,0:0:0:0:
192,192,39817,1,2,0:0:0:0:
320,192,39817,1,0,0:0:0:0:
448,192,39817,1,0,0:0:0:0:
64,192,39984,1,4,0:0:0:0:
192,192,39984,1,2,0:0:0:0:
448,192,39984,1,0,0:0:0:0:
320,192,40151,1,0,0:0:0:0:
192,192,40234,1,0,0:0:0:0:
64,192,40317,1,2,0:0:0:0:
320,192,40317,1,0,0:0:0:0:
448,192,40317,1,0,0:0:0:0:
192,192,40484,1,0,0:0:0:0:
320,192,40567,1,0,0:0:0:0:
64,192,40651,1,2,0:0:0:0:
192,192,40651,1,0,0:0:0:0:
448,192,40651,1,0,0:0:0:0:
320,192,40817,1,0,0:0:0:0:
64,192,40901,1,2,0:0:0:0:
192,192,40901,1,0,0:0:0:0:
448,192,40901,1,0,0:0:0:0:
320,192,40984,1,0,0:0:0:0:
64,192,41151,1,2,0:0:0:0:
192,192,41151,1,0,0:0:0:0:
448,192,41151,1,0,0:0:0:0:
64,192,41317,1,2,0:0:0:0:
192,192,41317,1,4,0:0:0:0:
320,192,41317,1,0,0:0:0:0:
448,192,41317,1,0,0:0:0:0:
320,192,41484,1,0,0:0:0:0:
64,192,41651,1,2,0:0:0:0:
192,192,41651,1,0,0:0:0:0:
448,192,41651,1,0,0:0:0:0:
320,192,41817,1,0,0:0:0:0:
192,192,41901,1,0,0:0:0:0:
64,192,41984,1,2,0:0:0:0:
320,192,41984,1,0,0:0:0:0:
448,192,41984,1,0,0:0:0:0:
192,192,42151,1,0,0:0:0:0:
64,192,42234,1,2,0:0:0:0:
320,192,42234,1,0,0:0:0:0:
448,192,42234,1,0,0:0:0:0:
192,192,42317,1,0,0:0:0:0:
64,192,42484,1,2,0:0:0:0:
320,192,42484,1,0,0:0:0:0:
448,192,42484,1,0,0:0:0:0:
192,192,42567,1,0,0:0:0:0:
64,192,42651,1,2,0:0:0:0:
320,192,42651,1,4,0:0:0:0:
448,192,42651,1,0,0:0:0:0:
192,192,42817,1,0,0:0:0:0:
320,192,42901,1,0,0:0:0:0:
64,192,42984,1,2,0:0:0:0:
192,192,42984,1,0,0:0:0:0:
448,192,42984,1,0,0:0:0:0:
320,192,43151,1,0,0:0:0:0:
192,192,43234,1,0,0:0:0:0:
320,192,43317,128,0,43984:0:0:0:0:
192,192,43651,128,0,43984:0:0:0:0:
64,192,43984,1,0,0:0:0:0:
448,192,43984,1,0,0:0:0:0:
320,192,44067,1,0,0:0:0:0:
192,192,44151,1,0,0:0:0:0:
64,192,44234,1,0,0:0:0:0:
320,192,44317,1,0,0:0:0:0:
448,192,44317,1,0,0:0:0:0:
192,192,44401,1,0,0:0:0:0:
320,192,44484,1,0,0:0:0:0:
448,192,44567,1,0,0:0:0:0:
64,192,44651,1,0,0:0:0:0:
192,192,44651,1,0,0:0:0:0:
320,192,44734,1,0,0:0:0:0:
64,192,44817,1,0,0:0:0:0:
192,192,44817,1,0,0:0:0:0:
320,192,44901,1,0,0:0:0:0:
64,192,44984,1,0,0:0:0:0:
448,192,44984,1,0,0:0:0:0:
192,192,45067,1,0,0:0:0:0:
320,192,45151,1,0,0:0:0:0:
448,192,45151,1,0,0:0:0:0:
192,192,45234,1,0,0:0:0:0:
64,192,45317,1,2,0:0:0:0:
320,192,45317,1,4,0:0:0:0:
448,192,45317,1,0,0:0:0:0:
192,192,45484,1,0,0:0:0:0:
64,192,45651,1,2,0:0:0:0:
320,192,45651,1,0,0:0:0:40:Cymatics - Trap Snare 8 - C.wav
448,192,45651,1,0,0:0:0:0:
192,192,45817,1,0,0:0:0:0:
320,192,45984,1,2,0:0:0:0:
448,192,45984,1,0,0:0:0:0:
192,192,46151,1,0,0:0:0:0:
320,192,46234,1,2,0:0:0:0:
448,192,46234,1,0,0:0:0:0:
64,192,46317,1,0,0:0:0:40:Cymatics - Trap Snare 8 - C.wav
448,192,46317,1,0,0:0:0:0:
192,192,46317,1,0,0:0:0:0:
320,192,46484,1,2,0:0:0:0:
448,192,46484,1,0,0:0:0:0:
64,192,46651,128,2,46734:0:0:0:0:
192,192,46651,1,0,0:0:0:0:
320,192,46817,128,0,46901:0:0:0:0:
64,192,46984,1,2,0:0:0:0:
192,192,46984,1,0,0:0:0:40:Cymatics - Trap Snare 8 - C.wav
448,192,46984,1,0,0:0:0:0:
320,192,47151,128,0,47234:0:0:0:0:
64,192,47317,128,2,47401:0:0:0:0:
192,192,47317,1,0,0:0:0:0:
320,192,47484,1,0,0:0:0:0:
64,192,47567,1,2,0:0:0:0:
192,192,47567,1,0,0:0:0:0:
64,192,47651,1,0,0:0:0:40:Cymatics - Trap Snare 8 - C.wav
448,192,47651,128,0,47734:0:0:0:0:
320,192,47651,1,0,0:0:0:0:
64,192,47817,128,2,47901:0:0:0:0:
192,192,47817,1,0,0:0:0:0:
320,192,47984,128,2,48067:0:0:0:0:
448,192,47984,128,0,48151:0:0:0:0:
192,192,48151,128,0,48234:0:0:0:0:
64,192,48317,1,2,0:0:0:0:
320,192,48317,1,0,0:0:0:40:Cymatics - Trap Snare 8 - C.wav
448,192,48317,128,0,48401:0:0:0:0:
192,192,48484,128,0,48651:0:0:0:0:
64,192,48567,128,0,48651:0:0:0:0:
320,192,48651,128,2,48734:0:0:0:0:
448,192,48651,128,0,48734:0:0:0:0:
192,192,48817,128,0,48901:0:0:0:0:
320,192,48901,1,2,0:0:0:0:
448,192,48901,1,0,0:0:0:0:
64,192,48984,128,0,49067:0:0:0:40:Cymatics - Trap Snare 8 - C.wav
448,192,48984,1,0,0:0:0:0:
192,192,48984,1,0,0:0:0:0:
320,192,49151,1,2,0:0:0:0:
448,192,49151,1,0,0:0:0:0:
64,192,49317,1,2,0:0:0:0:
192,192,49317,1,4,0:0:0:0:
448,192,49317,1,0,0:0:0:0:
320,192,49484,1,0,0:0:0:0:
64,192,49651,1,0,0:0:0:0:
448,192,49651,1,0,0:0:0:0:
64,192,49734,1,0,0:0:0:0:
320,192,49817,1,0,0:0:0:0:
320,192,49901,1,0,0:0:0:0:
192,192,49984,1,0,0:0:0:40:Cymatics - Trap Snare 8 - C.wav
448,192,49984,1,0,0:0:0:0:
64,192,49984,1,0,0:0:0:0:
320,192,50067,1,0,0:0:0:0:
64,192,50151,1,2,0:0:0:0:
448,192,50151,1,0,0:0:0:0:
192,192,50234,1,0,0:0:0:0:
320,192,50317,1,0,0:0:0:0:
64,192,50401,1,2,0:0:0:0:
192,192,50401,1,0,0:0:0:0:
320,192,50484,1,0,0:0:0:0:
192,192,50567,1,0,0:0:0:0:
64,192,50651,1,2,0:0:0:0:
448,192,50651,1,0,0:0:0:0:
192,192,50817,1,0,0:0:0:0:
320,192,50901,1,0,0:0:0:0:
448,192,50984,128,0,51067:0:0:0:0:
320,192,51151,1,0,0:0:0:0:
192,192,51234,1,0,0:0:0:0:
64,192,51317,128,0,51484:0:0:0:40:Cymatics - Trap Snare 8 - C.wav
448,192,51317,1,0,0:0:0:0:
320,192,51317,1,0,0:0:0:0:
320,192,51484,1,2,0:0:0:0:
448,192,51484,1,0,0:0:0:0:
320,192,51567,1,0,0:0:0:0:
64,192,51651,1,0,0:0:0:0:
192,192,51692,1,0,0:0:0:0:
448,192,51734,1,0,0:0:0:0:
320,192,51776,1,0,0:0:0:0:
192,192,51817,1,0,0:0:0:0:
320,192,51901,1,0,0:0:0:0:
64,192,51984,1,4,0:0:0:0:
192,192,51984,1,2,0:0:0:0:
448,192,51984,1,0,0:0:0:0:
320,192,52151,1,0,0:0:0:0:
64,192,52317,1,0,0:0:0:0:
192,192,52401,1,0,0:0:0:0:
448,192,52484,1,0,0:0:0:0:
320,192,52567,1,0,0:0:0:0:
192,192,52651,1,0,0:0:0:40:Cymatics - Trap Snare 8 - C.wav
64,192,52651,1,0,0:0:0:0:
448,192,52651,1,0,0:0:0:0:
320,192,52734,1,0,0:0:0:0:
64,192,52817,1,2,0:0:0:0:
448,192,52817,1,0,0:0:0:0:
192,192,52901,1,0,0:0:0:0:
320,192,52984,1,0,0:0:0:0:
64,192,53067,1,2,0:0:0:0:
192,192,53067,1,0,0:0:0:0:
320,192,53151,1,0,0:0:0:0:
448,192,53234,1,0,0:0:0:0:
64,192,53317,1,2,0:0:0:0:
192,192,53317,1,0,0:0:0:0:
320,192,53401,1,0,0:0:0:0:
192,192,53484,1,0,0:0:0:0:
64,192,53567,1,0,0:0:0:0:
320,192,53651,1,2,0:0:0:0:
448,192,53651,1,0,0:0:0:0:
192,192,53734,1,0,0:0:0:0:
320,192,53817,1,0,0:0:0:0:
192,192,53901,1,0,0:0:0:0:
64,192,53984,1,2,0:0:0:0:
448,192,53984,1,0,0:0:0:40:Cymatics - Trap Snare 8 - C.wav
320,192,53984,1,0,0:0:0:0:
192,192,54151,1,0,0:0:0:0:
320,192,54317,128,0,54484:0:0:0:0:
64,192,54484,1,0,0:0:0:0:
64,192,54651,1,4,0:0:0:0:
192,192,54651,1,2,0:0:0:0:
320,192,54651,1,0,0:0:0:0:
448,192,54651,1,0,0:0:0:0:
320,192,54817,1,0,0:0:0:0:
448,192,54901,1,0,0:0:0:0:
64,192,54984,128,0,55067:0:0:0:0:
192,192,54984,1,0,0:0:0:0:
64,192,55151,1,2,0:0:0:0:
320,192,55151,1,4,0:0:0:0:
448,192,55151,1,0,0:0:0:0:
192,192,55317,1,0,0:0:0:0:
320,192,55401,1,0,0:0:0:0:
64,192,55484,128,0,55567:0:0:0:0:
192,192,55484,1,0,0:0:0:0:
64,192,55651,1,4,0:0:0:0:
320,192,55651,1,2,0:0:0:0:
448,192,55651,1,0,0:0:0:0:
192,192,55817,1,0,0:0:0:0:
64,192,55901,1,0,0:0:0:0:
320,192,55984,1,0,0:0:0:0:
448,192,55984,128,0,56067:0:0:0:0:
64,192,56151,1,2,0:0:0:0:
192,192,56151,1,4,0:0:0:0:
448,192,56151,1,0,0:0:0:0:
320,192,56317,1,0,0:0:0:0:
192,192,56401,1,0,0:0:0:0:
320,192,56484,1,0,0:0:0:0:
448,192,56484,128,0,56567:0:0:0:0:
64,192,56651,1,4,0:0:0:0:
192,192,56651,1,2,0:0:0:0:
448,192,56651,1,0,0:0:0:0:
320,192,56734,1,0,0:0:0:0:
320,192,56817,1,0,0:0:0:0:
64,192,56901,1,2,0:0:0:0:
192,192,56901,1,4,0:0:0:0:
448,192,56901,1,0,0:0:0:0:
320,192,56984,128,0,57067:0:0:0:0:
64,192,57151,1,4,0:0:0:0:
192,192,57151,1,2,0:0:0:0:
448,192,57151,1,0,0:0:0:0:
64,192,57317,1,4,0:0:0:0:
192,192,57317,1,2,0:0:0:0:
320,192,57317,1,0,0:0:0:0:
448,192,57317,1,0,0:0:0:0:
320,192,57484,1,0,0:0:0:0:
448,192,57567,1,0,0:0:0:0:
64,192,57651,1,0,0:0:0:0:
192,192,57651,128,0,57734:0:0:0:0:
64,192,57817,1,2,0:0:0:0:
320,192,57817,1,4,0:0:0:0:
448,192,57817,1,0,0:0:0:0:
192,192,57984,1,0,0:0:0:0:
320,192,58067,1,0,0:0:0:0:
64,192,58151,1,0,0:0:0:0:
192,192,58151,128,0,58234:0:0:0:0:
64,192,58317,1,4,0:0:0:0:
320,192,58317,1,2,0:0:0:0:
448,192,58317,1,0,0:0:0:0:
192,192,58484,1,0,0:0:0:0:
64,192,58567,1,0,0:0:0:0:
320,192,58651,128,0,58734:0:0:0:0:
448,192,58651,1,0,0:0:0:0:
64,192,58817,1,2,0:0:0:0:
192,192,58817,1,4,0:0:0:0:
448,192,58817,1,0,0:0:0:0:
320,192,58984,1,0,0:0:0:0:
192,192,59067,1,0,0:0:0:0:
320,192,59151,128,0,59234:0:0:0:0:
448,192,59151,1,0,0:0:0:0:
64,192,59317,1,4,0:0:0:0:
192,192,59317,1,2,0:0:0:0:
448,192,59317,1,0,0:0:0:0:
320,192,59401,1,0,0:0:0:0:
192,192,59484,1,0,0:0:0:0:
64,192,59567,1,2,0:0:0:0:
320,192,59567,1,4,0:0:0:0:
448,192,59567,1,0,0:0:0:0:
64,192,59651,128,0,59901:0:0:0:20:LS-HKI Dark Kick 71 H.wav
192,192,59651,128,0,59901:0:0:0:0:
64,192,59984,1,4,0:0:0:0:
192,192,59984,1,2,0:0:0:0:
320,192,59984,1,0,0:0:0:0:
448,192,59984,1,0,0:0:0:0:
192,192,60151,1,0,0:0:0:0:
64,192,60234,1,2,0:0:0:0:
320,192,60234,1,0,0:0:0:0:
448,192,60234,1,0,0:0:0:0:
192,192,60317,1,0,0:0:0:0:
320,192,60401,1,0,0:0:0:0:
64,192,60484,1,4,0:0:0:0:
192,192,60484,1,2,0:0:0:0:
448,192,60484,1,0,0:0:0:0:
320,192,60651,1,0,0:0:0:0:
64,192,60734,1,2,0:0:0:0:
192,192,60734,1,0,0:0:0:0:
448,192,60734,1,0,0:0:0:0:
320,192,60817,1,0,0:0:0:0:
192,192,60901,1,0,0:0:0:0:
64,192,60984,1,4,0:0:0:0:
320,192,60984,1,2,0:0:0:0:
448,192,60984,1,0,0:0:0:0:
192,192,61151,1,0,0:0:0:0:
64,192,61234,1,2,0:0:0:0:
320,192,61234,1,0,0:0:0:0:
448,192,61234,1,0,0:0:0:0:
192,192,61317,1,0,0:0:0:0:
320,192,61401,1,0,0:0:0:0:
64,192,61484,1,4,0:0:0:0:
192,192,61484,1,2,0:0:0:0:
448,192,61484,1,0,0:0:0:0:
320,192,61651,1,0,0:0:0:0:
64,192,61734,1,2,0:0:0:0:
192,192,61734,1,0,0:0:0:0:
448,192,61734,1,0,0:0:0:0:
320,192,61817,1,0,0:0:0:0:
192,192,61901,1,0,0:0:0:0:
64,192,61984,1,4,0:0:0:0:
320,192,61984,1,2,0:0:0:0:
448,192,61984,1,0,0:0:0:0:
192,192,62067,1,0,0:0:0:0:
192,192,62151,1,0,0:0:0:0:
64,192,62234,1,2,0:0:0:0:
320,192,62234,1,4,0:0:0:0:
448,192,62234,1,0,0:0:0:0:
192,192,62317,1,0,0:0:0:0:
64,192,62484,1,4,0:0:0:0:
320,192,62484,1,2,0:0:0:0:
448,192,62484,1,0,0:0:0:0:
64,192,62651,1,4,0:0:0:0:
192,192,62651,1,2,0:0:0:0:
320,192,62651,1,0,0:0:0:0:
448,192,62651,1,0,0:0:0:0:
64,192,62817,1,0,0:0:0:0:
192,192,62817,1,0,0:0:0:0:
64,192,62901,1,2,0:0:0:0:
320,192,62901,1,0,0:0:0:0:
448,192,62901,1,0,0:0:0:0:
192,192,62984,1,0,0:0:0:0:
320,192,63067,1,0,0:0:0:0:
64,192,63151,1,4,0:0:0:0:
192,192,63151,1,2,0:0:0:0:
448,192,63151,1,0,0:0:0:0:
320,192,63317,1,0,0:0:0:0:
448,192,63317,1,0,0:0:0:0:
64,192,63401,1,2,0:0:0:0:
192,192,63401,1,0,0:0:0:0:
448,192,63401,1,0,0:0:0:0:
320,192,63484,1,0,0:0:0:0:
192,192,63567,1,0,0:0:0:0:
64,192,63651,1,4,0:0:0:0:
320,192,63651,1,2,0:0:0:0:
448,192,63651,1,0,0:0:0:0:
64,192,63817,1,0,0:0:0:0:
192,192,63817,1,0,0:0:0:0:
64,192,63901,1,2,0:0:0:0:
320,192,63901,1,0,0:0:0:0:
448,192,63901,1,0,0:0:0:0:
192,192,63984,1,0,0:0:0:0:
320,192,64067,1,0,0:0:0:0:
64,192,64151,1,4,0:0:0:0:
192,192,64151,1,2,0:0:0:0:
448,192,64151,1,0,0:0:0:0:
320,192,64317,1,0,0:0:0:0:
448,192,64317,1,0,0:0:0:0:
64,192,64401,1,2,0:0:0:0:
192,192,64401,1,0,0:0:0:0:
448,192,64401,1,0,0:0:0:0:
320,192,64484,1,0,0:0:0:0:
192,192,64567,1,0,0:0:0:0:
64,192,64651,1,4,0:0:0:0:
320,192,64651,1,2,0:0:0:0:
448,192,64651,1,0,0:0:0:0:
192,192,64734,1,0,0:0:0:0:
320,192,64817,1,0,0:0:0:0:
64,192,64901,1,2,0:0:0:0:
192,192,64901,1,0,0:0:0:0:
320,192,64984,1,2,0:0:0:0:
448,192,64984,1,0,0:0:0:0:
64,192,65067,1,2,0:0:0:0:
192,192,65067,1,0,0:0:0:0:
320,192,65151,1,2,0:0:0:0:
448,192,65151,1,0,0:0:0:0:
64,192,65234,1,2,0:0:0:0:
192,192,65234,1,0,0:0:0:0:
64,192,65317,128,4,66651:0:0:0:0:
320,192,65317,1,2,0:0:0:0:
448,192,65317,1,0,0:0:0:0:
192,192,65651,1,0,0:0:0:0:
320,192,65984,1,0,0:0:0:0:
192,192,66317,1,0,0:0:0:0:
320,192,66484,1,0,0:0:0:0:
320,192,66651,128,0,67984:0:0:0:0:
448,192,66651,1,0,0:0:0:0:
192,192,66984,1,0,0:0:0:0:
64,192,67317,1,0,0:0:0:0:
64,192,67484,1,0,0:0:0:0:
192,192,67651,1,0,0:0:0:0:
64,192,67984,128,0,69651:0:0:0:0:
448,192,67984,1,0,0:0:0:0:
192,192,68317,1,0,0:0:0:0:
320,192,68651,1,0,0:0:0:0:
192,192,68984,1,0,0:0:0:0:
448,192,69151,1,0,0:0:0:0:
448,192,69317,1,0,0:0:0:0:
320,192,69651,1,0,0:0:0:0:
320,192,69984,128,0,70651:0:0:0:0:
448,192,69984,1,0,0:0:0:0:
192,192,70317,1,0,0:0:0:0:
64,192,70651,128,0,71651:0:0:0:0:
448,192,70651,1,0,0:0:0:0:
192,192,70984,1,0,0:0:0:0:
320,192,71317,1,0,0:0:0:0:
192,192,71651,1,0,0:0:0:0:
320,192,71817,1,0,0:0:0:0:
320,192,71984,128,0,72651:0:0:0:0:
448,192,71984,1,0,0:0:0:0:
192,192,72317,1,0,0:0:0:0:
64,192,72651,1,0,0:0:0:0:
64,192,72817,1,0,0:0:0:0:
320,192,72984,1,0,0:0:0:0:
192,192,73151,1,0,0:0:0:0:
64,192,73317,128,0,73984:0:0:0:0:
448,192,73317,1,0,0:0:0:0:
320,192,73651,1,0,0:0:0:0:
192,192,73984,1,0,0:0:0:0:
64,192,74317,1,0,0:0:0:0:
320,192,74484,1,0,0:0:0:0:
320,192,74651,128,0,75317:0:0:0:0:
448,192,74651,1,0,0:0:0:0:
192,192,74984,1,0,0:0:0:0:
64,192,75317,1,0,0:0:0:0:
192,192,75651,128,0,75984:0:0:0:0:
64,192,75984,1,4,0:0:0:0:
448,192,75984,1,0,0:0:0:0:
192,192,76151,1,0,0:0:0:0:
320,192,76317,1,0,0:0:0:70:Clap_Reverb.wav
448,192,76317,1,0,0:0:0:0:
192,192,76484,1,0,0:0:0:0:
448,192,76651,1,0,0:0:0:0:
192,192,76817,1,0,0:0:0:0:
320,192,76984,1,0,0:0:0:70:Clap_Reverb.wav
448,192,76984,1,0,0:0:0:0:
192,192,77151,1,0,0:0:0:0:
320,192,77317,1,0,0:0:0:0:
192,192,77484,1,0,0:0:0:0:
320,192,77651,1,0,0:0:0:70:Clap_Reverb.wav
448,192,77651,1,0,0:0:0:0:
192,192,77817,1,0,0:0:0:0:
320,192,77984,1,0,0:0:0:0:
320,192,78151,1,0,0:0:0:0:
64,192,78317,1,0,0:0:0:70:Clap_Reverb.wav
448,192,78317,1,0,0:0:0:0:
192,192,78484,1,0,0:0:0:0:
320,192,78651,1,0,0:0:0:0:
192,192,78817,1,0,0:0:0:0:
64,192,78984,1,0,0:0:0:70:Clap_Reverb.wav
448,192,78984,1,0,0:0:0:0:
192,192,79151,1,0,0:0:0:0:
448,192,79317,1,0,0:0:0:0:
192,192,79484,1,0,0:0:0:0:
64,192,79651,1,0,0:0:0:70:Clap_Reverb.wav
448,192,79651,1,0,0:0:0:0:
192,192,79817,1,0,0:0:0:0:
320,192,79984,1,0,0:0:0:0:
192,192,80151,1,0,0:0:0:0:
64,192,80317,1,0,0:0:0:70:Clap_Reverb.wav
448,192,80317,1,0,0:0:0:0:
192,192,80484,1,0,0:0:0:0:
448,192,80651,1,0,0:0:0:0:
192,192,80817,1,0,0:0:0:0:
64,192,80984,1,0,0:0:0:70:Clap_Reverb.wav
448,192,80984,1,0,0:0:0:0:
320,192,81151,1,2,0:0:0:0:
448,192,81151,1,0,0:0:0:0:
192,192,81317,1,0,0:0:0:0:
320,192,81484,1,0,0:0:0:0:
64,192,81651,1,0,0:0:0:70:Clap_Reverb.wav
192,192,81651,1,0,0:0:0:0:
320,192,81817,1,0,0:0:0:0:
64,192,81984,1,0,0:0:0:0:
320,192,82151,1,0,0:0:0:0:
64,192,82317,1,0,0:0:0:70:Clap_Reverb.wav
192,192,82317,1,0,0:0:0:0:
320,192,82484,1,0,0:0:0:0:
192,192,82651,1,0,0:0:0:0:
320,192,82817,1,0,0:0:0:0:
64,192,82984,1,0,0:0:0:70:Clap_Reverb.wav
192,192,82984,1,0,0:0:0:0:
320,192,83151,1,0,0:0:0:0:
192,192,83317,1,0,0:0:0:0:
192,192,83484,1,0,0:0:0:0:
64,192,83651,1,0,0:0:0:70:Clap_Reverb.wav
448,192,83651,1,0,0:0:0:0:
320,192,83817,1,0,0:0:0:0:
192,192,83984,1,0,0:0:0:0:
320,192,84151,1,0,0:0:0:0:
64,192,84317,1,0,0:0:0:70:Clap_Reverb.wav
448,192,84317,1,0,0:0:0:0:
320,192,84484,1,0,0:0:0:0:
64,192,84651,1,0,0:0:0:0:
320,192,84817,1,0,0:0:0:0:
64,192,84984,1,0,0:0:0:70:Clap_Reverb.wav
448,192,84984,1,0,0:0:0:0:
320,192,85151,1,0,0:0:0:0:
192,192,85317,1,0,0:0:0:0:
320,192,85484,1,0,0:0:0:0:
64,192,85651,1,0,0:0:0:70:Clap_Reverb.wav
448,192,85651,1,0,0:0:0:0:
320,192,85817,1,0,0:0:0:0:
64,192,85984,1,0,0:0:0:0:
320,192,86151,1,0,0:0:0:0:
64,192,86317,1,0,0:0:0:70:Clap_Reverb.wav
448,192,86317,1,0,0:0:0:0:
64,192,86484,1,2,0:0:0:0:
192,192,86484,1,0,0:0:0:0:
64,192,86651,1,0,0:0:0:70:Cymatics - Grime Clap 1.wav
448,192,86651,1,0,0:0:0:0:
320,192,86817,1,0,0:0:0:0:
192,192,86901,1,0,0:0:0:40:3P.wav
64,192,86984,1,0,0:0:0:70:Cymatics - Grime Clap 1.wav
448,192,86984,1,0,0:0:0:0:
64,192,87151,1,0,0:0:0:40:3P.wav
192,192,87234,1,0,0:0:0:0:
320,192,87317,1,0,0:0:0:70:Cymatics - Grime Clap 1.wav
448,192,87317,1,0,0:0:0:0:
320,192,87484,1,0,0:0:0:0:
192,192,87567,1,0,0:0:0:40:3P.wav
64,192,87651,1,0,0:0:0:70:Cymatics - Grime Clap 1.wav
448,192,87651,1,0,0:0:0:0:
64,192,87817,1,0,0:0:0:40:3P.wav
192,192,87901,1,0,0:0:0:0:
320,192,87984,1,0,0:0:0:70:Cymatics - Grime Clap 1.wav
448,192,87984,1,0,0:0:0:0:
192,192,88151,1,0,0:0:0:0:
320,192,88234,1,0,0:0:0:40:3P.wav
64,192,88317,1,0,0:0:0:70:Cymatics - Grime Clap 1.wav
448,192,88317,1,0,0:0:0:0:
448,192,88484,1,0,0:0:0:40:3P.wav
320,192,88567,1,0,0:0:0:0:
64,192,88651,1,0,0:0:0:70:Cymatics - Grime Clap 1.wav
192,192,88651,1,0,0:0:0:0:
192,192,88817,1,0,0:0:0:0:
320,192,88901,1,0,0:0:0:40:3P.wav
64,192,88984,1,0,0:0:0:70:Cymatics - Grime Clap 1.wav
448,192,88984,1,0,0:0:0:0:
448,192,89151,1,0,0:0:0:40:3P.wav
320,192,89234,1,0,0:0:0:0:
64,192,89317,1,0,0:0:0:70:Cymatics - Grime Clap 1.wav
192,192,89317,1,0,0:0:0:0:
320,192,89484,1,0,0:0:0:0:
192,192,89567,1,0,0:0:0:40:3P.wav
64,192,89651,1,0,0:0:0:70:Cymatics - Grime Clap 1.wav
448,192,89651,1,0,0:0:0:0:
64,192,89817,1,0,0:0:0:40:3P.wav
192,192,89901,1,0,0:0:0:0:
320,192,89984,1,0,0:0:0:70:Cymatics - Grime Clap 1.wav
448,192,89984,1,0,0:0:0:0:
320,192,90151,1,0,0:0:0:0:
192,192,90234,1,0,0:0:0:40:3P.wav
64,192,90317,1,0,0:0:0:70:Cymatics - Grime Clap 1.wav
448,192,90317,1,0,0:0:0:0:
64,192,90484,1,0,0:0:0:40:3P.wav
192,192,90567,1,0,0:0:0:0:
320,192,90651,1,0,0:0:0:70:Cymatics - Grime Clap 1.wav
448,192,90651,1,0,0:0:0:0:
192,192,90817,1,0,0:0:0:0:
320,192,90901,1,0,0:0:0:40:3P.wav
64,192,90984,1,0,0:0:0:70:Cymatics - Grime Clap 1.wav
448,192,90984,1,0,0:0:0:0:
448,192,91151,1,0,0:0:0:40:3P.wav
320,192,91234,1,0,0:0:0:0:
64,192,91317,1,0,0:0:0:70:Cymatics - Grime Clap 1.wav
192,192,91317,1,0,0:0:0:0:
320,192,91484,1,0,0:0:0:0:
192,192,91567,1,0,0:0:0:40:3P.wav
64,192,91651,1,0,0:0:0:70:Cymatics - Grime Clap 1.wav
448,192,91651,1,0,0:0:0:0:
64,192,91817,1,0,0:0:0:40:3P.wav
192,192,91901,1,0,0:0:0:0:
320,192,91984,1,0,0:0:0:40:3P.wav
448,192,91984,1,0,0:0:0:70:Cymatics - Grime Clap 1.wav
192,192,92067,1,0,0:0:0:40:3P.wav
320,192,92151,1,0,0:0:0:40:3P.wav
448,192,92234,1,0,0:0:0:40:3P.wav
64,192,92317,1,0,0:0:0:40:3P.wav
192,192,92317,1,0,0:0:0:70:Cymatics - Grime Clap 1.wav
320,192,92401,1,0,0:0:0:40:3P.wav
448,192,92484,1,0,0:0:0:40:3P.wav
192,192,92567,1,0,0:0:0:40:3P.wav
64,192,92651,1,0,0:0:0:40:3P.wav
448,192,92651,1,0,0:0:0:70:Cymatics - Grime Clap 1.wav
320,192,92734,1,0,0:0:0:40:3P.wav
192,192,92817,1,0,0:0:0:40:3P.wav
64,192,92901,1,0,0:0:0:40:3P.wav
320,192,92984,1,0,0:0:0:40:3P.wav
448,192,92984,1,0,0:0:0:70:Cymatics - Grime Clap 1.wav
192,192,93067,1,0,0:0:0:40:3P.wav
64,192,93151,1,0,0:0:0:40:3P.wav
320,192,93234,1,0,0:0:0:40:3P.wav
64,192,93317,1,0,0:0:0:40:3P.wav
448,192,93317,1,0,0:0:0:70:Cymatics - Grime Clap 1.wav
192,192,93401,1,0,0:0:0:40:3P.wav
448,192,93484,1,0,0:0:0:40:3P.wav
320,192,93567,1,0,0:0:0:40:3P.wav
64,192,93651,1,0,0:0:0:40:3P.wav
192,192,93651,1,0,0:0:0:70:Cymatics - Grime Clap 1.wav
448,192,93734,1,0,0:0:0:40:3P.wav
320,192,93817,1,0,0:0:0:40:3P.wav
192,192,93901,1,0,0:0:0:40:3P.wav
64,192,93984,1,0,0:0:0:40:3P.wav
448,192,93984,1,0,0:0:0:70:Cymatics - Grime Clap 1.wav
320,192,94067,1,0,0:0:0:40:3P.wav
64,192,94151,1,0,0:0:0:40:3P.wav
192,192,94234,1,0,0:0:0:40:3P.wav
64,192,94317,1,4,0:0:0:0:
320,192,94317,1,2,0:0:0:0:
448,192,94317,1,0,0:0:0:0:
192,192,94484,1,0,0:0:0:0:
320,192,94567,1,0,0:0:0:0:
192,192,94734,1,0,0:0:0:0:
320,192,94817,1,0,0:0:0:0:
192,192,94984,1,0,0:0:0:0:
448,192,95067,1,0,0:0:0:0:
192,192,95151,1,0,0:0:0:0:
448,192,95234,1,0,0:0:0:0:
64,192,95317,1,0,0:0:0:0:
320,192,95401,1,0,0:0:0:0:
64,192,95484,1,0,0:0:0:0:
320,192,95567,1,0,0:0:0:0:
192,192,95651,1,0,0:0:0:0:
448,192,95734,1,0,0:0:0:0:
192,192,95817,1,0,0:0:0:0:
448,192,95901,1,0,0:0:0:0:
64,192,95984,1,0,0:0:0:0:
320,192,96067,1,0,0:0:0:0:
64,192,96151,1,0,0:0:0:0:
320,192,96234,1,0,0:0:0:0:
64,192,96317,1,0,0:0:0:0:
448,192,96401,1,0,0:0:0:0:
64,192,96484,1,0,0:0:0:0:
448,192,96567,1,0,0:0:0:0:
192,192,96651,128,0,97234:0:0:0:0:
320,192,96817,128,0,97234:0:0:0:0:
64,192,97317,1,2,0:0:0:0:
192,192,97317,1,4,0:0:0:0:
320,192,97317,1,0,0:0:0:0:
448,192,97317,1,0,0:0:0:0:
192,192,97484,1,0,0:0:0:0:
320,192,97484,1,0,0:0:0:0:
64,192,97651,1,2,0:0:0:0:
192,192,97651,1,8,0:0:0:0:
448,192,97651,1,0,0:0:0:0:
64,192,97817,1,0,0:0:0:0:
320,192,97817,1,0,0:0:0:0:
192,192,97984,1,2,0:0:0:0:
320,192,97984,1,0,0:0:0:0:
448,192,97984,1,0,0:0:0:0:
64,192,98151,1,0,0:0:0:0:
448,192,98151,1,0,0:0:0:0:
64,192,98317,1,8,0:0:0:0:
192,192,98317,1,2,0:0:0:0:
320,192,98317,1,0,0:0:0:0:
192,192,98484,1,0,0:0:0:0:
448,192,98484,1,0,0:0:0:0:
64,192,98651,1,2,0:0:0:0:
320,192,98651,1,0,0:0:0:70:waa.wav
448,192,98651,1,0,0:0:0:0:
192,192,98817,1,0,0:0:0:0:
320,192,98817,1,0,0:0:0:0:
64,192,98984,1,8,0:0:0:0:
192,192,98984,1,2,0:0:0:0:
448,192,98984,1,0,0:0:0:0:
320,192,99067,1,0,0:0:0:0:
64,192,99151,1,2,0:0:0:0:
192,192,99151,1,0,0:0:0:0:
448,192,99151,1,0,0:0:0:0:
320,192,99234,1,0,0:0:0:0:
64,192,99317,128,0,99401:0:0:0:0:
192,192,99317,128,0,99484:0:0:0:0:
320,192,99484,128,0,99651:0:0:0:0:
448,192,99484,128,0,99567:0:0:0:0:
64,192,99651,128,0,99817:0:0:0:0:
192,192,99651,128,0,99734:0:0:0:0:
320,192,99817,1,0,0:0:0:0:
64,192,99984,1,4,0:0:0:0:
192,192,99984,1,2,0:0:0:0:
320,192,99984,1,0,0:0:0:0:
448,192,99984,1,0,0:0:0:0:
192,192,100151,1,0,0:0:0:0:
320,192,100151,1,0,0:0:0:0:
64,192,100317,1,8,0:0:0:0:
320,192,100317,1,2,0:0:0:0:
448,192,100317,1,0,0:0:0:0:
192,192,100484,1,0,0:0:0:0:
448,192,100484,1,0,0:0:0:0:
64,192,100651,1,2,0:0:0:0:
192,192,100651,1,0,0:0:0:0:
320,192,100651,1,0,0:0:0:0:
64,192,100817,1,0,0:0:0:0:
448,192,100817,1,0,0:0:0:0:
192,192,100984,1,2,0:0:0:0:
320,192,100984,1,8,0:0:0:0:
448,192,100984,1,0,0:0:0:40:Cymatics - Trap Snare 8 - C.wav
64,192,101151,1,0,0:0:0:0:
320,192,101151,1,0,0:0:0:0:
64,192,101317,1,2,0:0:0:0:
192,192,101317,1,0,0:0:0:70:waa.wav
448,192,101317,1,0,0:0:0:0:
192,192,101484,128,0,101651:0:0:0:0:
320,192,101651,1,0,0:0:0:0:
64,192,101817,1,2,0:0:0:0:
320,192,101817,1,0,0:0:0:0:
448,192,101817,1,0,0:0:0:0:
64,192,101901,1,2,0:0:0:0:
192,192,101901,1,0,0:0:0:0:
320,192,101984,1,0,0:0:0:40:Cymatics - Trap Snare 8 - C.wav
448,192,101984,1,0,0:0:0:0:
64,192,102151,1,2,0:0:0:0:
192,192,102151,1,0,0:0:0:0:
448,192,102151,1,0,0:0:0:0:
320,192,102234,1,0,0:0:0:0:
64,192,102317,1,0,0:0:0:40:Cymatics - Trap Snare 8 - C.wav
448,192,102317,128,0,102484:0:0:0:0:
192,192,102484,1,0,0:0:0:0:
64,192,102651,1,4,0:0:0:0:
192,192,102651,1,2,0:0:0:0:
320,192,102651,1,0,0:0:0:0:
448,192,102651,1,0,0:0:0:0:
192,192,102817,1,0,0:0:0:0:
320,192,102817,1,0,0:0:0:0:
64,192,102984,1,8,0:0:0:0:
192,192,102984,1,2,0:0:0:0:
448,192,102984,1,0,0:0:0:0:
64,192,103151,1,0,0:0:0:0:
320,192,103151,1,0,0:0:0:0:
192,192,103317,1,2,0:0:0:0:
320,192,103317,1,0,0:0:0:0:
448,192,103317,1,0,0:0:0:0:
64,192,103484,1,0,0:0:0:0:
448,192,103484,1,0,0:0:0:0:
64,192,103651,1,2,0:0:0:0:
192,192,103651,1,8,0:0:0:0:
320,192,103651,1,0,0:0:0:40:Cymatics - Trap Snare 8 - C.wav
192,192,103817,1,0,0:0:0:0:
448,192,103817,1,0,0:0:0:0:
64,192,103984,1,2,0:0:0:0:
320,192,103984,1,0,0:0:0:70:waa.wav
448,192,103984,1,0,0:0:0:0:
192,192,104151,1,0,0:0:0:0:
320,192,104151,1,0,0:0:0:0:
64,192,104317,1,2,0:0:0:0:
192,192,104317,1,8,0:0:0:0:
448,192,104317,1,0,0:0:0:0:
64,192,104484,1,0,0:0:0:0:
320,192,104484,1,0,0:0:0:0:
192,192,104651,1,2,0:0:0:0:
320,192,104651,1,0,0:0:0:0:
448,192,104651,1,0,0:0:0:0:
64,192,104817,1,0,0:0:0:0:
448,192,104817,1,0,0:0:0:0:
64,192,104984,1,2,0:0:0:0:
192,192,104984,1,8,0:0:0:0:
320,192,104984,1,0,0:0:0:0:
192,192,105151,1,0,0:0:0:0:
448,192,105151,1,0,0:0:0:0:
64,192,105317,1,4,0:0:0:0:
320,192,105317,1,2,0:0:0:0:
448,192,105317,1,0,0:0:0:0:
192,192,105484,1,0,0:0:0:0:
320,192,105651,1,0,0:0:0:0:
192,192,105734,1,0,0:0:0:0:
64,192,105817,1,2,0:0:0:0:
320,192,105817,1,0,0:0:0:0:
448,192,105817,1,0,0:0:0:0:
192,192,105901,1,0,0:0:0:0:
64,192,105984,1,0,0:0:0:40:Cymatics - Trap Snare 8 - C.wav
448,192,105984,1,0,0:0:0:0:
320,192,106234,1,0,0:0:0:0:
192,192,106317,1,0,0:0:0:0:
320,192,106401,1,0,0:0:0:0:
64,192,106484,1,2,0:0:0:0:
192,192,106484,1,0,0:0:0:0:
448,192,106484,1,0,0:0:0:0:
320,192,106567,1,0,0:0:0:0:
64,192,106651,128,2,106817:0:0:0:0:
192,192,106651,128,0,106734:0:0:0:0:
320,192,106817,128,0,106901:0:0:0:0:
448,192,106817,128,0,106984:0:0:0:0:
64,192,106984,128,0,107067:0:0:0:0:
192,192,106984,128,0,107151:0:0:0:0:
320,192,107151,128,2,107317:0:0:0:0:
448,192,107151,128,0,107234:0:0:0:0:
64,192,107317,1,0,0:0:0:40:Cymatics - Trap Snare 8 - C.wav
192,192,107317,1,0,0:0:0:0:
320,192,107484,1,0,0:0:0:0:
192,192,107567,1,0,0:0:0:0:
64,192,107651,1,0,0:0:0:40:Cymatics - Trap Snare 8 - C.wav
448,192,107651,1,0,0:0:0:0:
64,192,107817,1,2,0:0:0:0:
320,192,107817,1,0,0:0:0:0:
448,192,107817,1,0,0:0:0:0:
64,192,107984,128,0,108234:0:0:0:20:LS-HKI Dark Kick 71 H.wav
192,192,107984,128,0,108234:0:0:0:0:
64,192,108317,1,4,0:0:0:0:
192,192,108317,1,2,0:0:0:0:
320,192,108317,1,0,0:0:0:0:
448,192,108317,1,0,0:0:0:0:
192,192,108484,1,0,0:0:0:0:
320,192,108567,1,0,0:0:0:0:
64,192,108651,1,2,0:0:0:0:
192,192,108651,1,0,0:0:0:0:
448,192,108651,1,0,0:0:0:0:
320,192,108817,1,0,0:0:0:0:
64,192,108901,1,2,0:0:0:0:
192,192,108901,1,0,0:0:0:0:
448,192,108901,1,0,0:0:0:0:
320,192,108984,1,0,0:0:0:0:
192,192,109151,1,2,0:0:0:0:
320,192,109151,1,0,0:0:0:0:
448,192,109151,1,0,0:0:0:0:
64,192,109317,1,2,0:0:0:0:
192,192,109317,1,4,0:0:0:0:
448,192,109317,1,0,0:0:0:0:
320,192,109484,1,0,0:0:0:0:
192,192,109567,1,0,0:0:0:0:
64,192,109651,1,2,0:0:0:0:
320,192,109651,1,0,0:0:0:0:
448,192,109651,1,0,0:0:0:0:
192,192,109817,1,0,0:0:0:0:
320,192,109901,1,0,0:0:0:0:
64,192,109984,1,2,0:0:0:0:
192,192,109984,1,0,0:0:0:0:
448,192,109984,1,0,0:0:0:0:
320,192,110151,1,0,0:0:0:0:
64,192,110234,1,2,0:0:0:0:
192,192,110234,1,0,0:0:0:0:
448,192,110234,1,0,0:0:0:0:
320,192,110317,1,0,0:0:0:0:
64,192,110484,1,2,0:0:0:0:
192,192,110484,1,0,0:0:0:0:
448,192,110484,1,0,0:0:0:0:
64,192,110651,1,4,0:0:0:0:
192,192,110651,1,2,0:0:0:0:
320,192,110651,1,0,0:0:0:0:
448,192,110651,1,0,0:0:0:0:
192,192,110817,1,0,0:0:0:0:
320,192,110901,1,0,0:0:0:0:
64,192,110984,1,2,0:0:0:0:
192,192,110984,1,0,0:0:0:0:
448,192,110984,1,0,0:0:0:0:
320,192,111151,1,0,0:0:0:0:
192,192,111234,1,0,0:0:0:0:
64,192,111317,1,2,0:0:0:0:
320,192,111317,1,0,0:0:0:0:
448,192,111317,1,0,0:0:0:0:
192,192,111484,1,0,0:0:0:0:
64,192,111567,1,2,0:0:0:0:
320,192,111567,1,0,0:0:0:0:
448,192,111567,1,0,0:0:0:0:
192,192,111651,1,0,0:0:0:0:
64,192,111817,1,2,0:0:0:0:
192,192,111817,1,0,0:0:0:0:
320,192,111817,1,0,0:0:0:0:
64,192,111984,1,4,0:0:0:0:
320,192,111984,1,2,0:0:0:0:
448,192,111984,1,0,0:0:0:0:
192,192,112151,1,0,0:0:0:0:
320,192,112234,1,0,0:0:0:0:
64,192,112317,1,2,0:0:0:0:
192,192,112317,1,0,0:0:0:0:
448,192,112317,1,0,0:0:0:0:
320,192,112484,1,0,0:0:0:0:
64,192,112651,128,0,112817:0:0:0:0:
320,192,112817,1,0,0:0:0:0:
192,192,112984,128,2,113151:0:0:0:0:
64,192,112984,1,0,0:0:0:0:
320,192,113151,1,2,0:0:0:0:
448,192,113151,1,0,0:0:0:0:
64,192,113317,1,2,0:0:0:0:
192,192,113317,1,4,0:0:0:0:
448,192,113317,1,8,0:0:0:0:
320,192,113401,1,0,0:0:0:40:3P.wav
64,192,113484,1,0,0:0:0:40:3P.wav
192,192,113484,1,0,0:0:0:0:
320,192,113567,1,0,0:0:0:40:3P.wav
64,192,113651,1,2,0:0:0:0:
192,192,113651,1,8,0:0:0:0:
448,192,113651,1,0,0:0:0:40:3P.wav
320,192,113734,1,0,0:0:0:40:3P.wav
64,192,113817,1,0,0:0:0:40:3P.wav
448,192,113817,1,0,0:0:0:0:
192,192,113901,1,0,0:0:0:40:3P.wav
64,192,113984,1,2,0:0:0:0:
320,192,113984,1,8,0:0:0:0:
448,192,113984,1,0,0:0:0:40:3P.wav
192,192,114067,1,0,0:0:0:40:3P.wav
320,192,114151,1,0,0:0:0:40:3P.wav
448,192,114151,1,0,0:0:0:0:
192,192,114234,1,0,0:0:0:40:3P.wav
64,192,114317,1,2,0:0:0:0:
320,192,114317,1,8,0:0:0:0:
448,192,114317,1,0,0:0:0:40:3P.wav
192,192,114401,1,0,0:0:0:40:3P.wav
64,192,114484,1,0,0:0:0:40:3P.wav
448,192,114484,1,0,0:0:0:0:
320,192,114567,1,0,0:0:0:40:3P.wav
64,192,114651,1,2,0:0:0:0:
192,192,114651,1,4,0:0:0:0:
448,192,114651,1,8,0:0:0:0:
320,192,114734,1,0,0:0:0:40:3P.wav
64,192,114817,1,0,0:0:0:40:3P.wav
192,192,114817,1,0,0:0:0:0:
320,192,114901,1,0,0:0:0:40:3P.wav
64,192,114984,1,2,0:0:0:0:
192,192,114984,1,8,0:0:0:0:
448,192,114984,1,0,0:0:0:40:3P.wav
320,192,115067,1,0,0:0:0:40:3P.wav
64,192,115151,1,0,0:0:0:40:3P.wav
448,192,115151,1,0,0:0:0:0:
192,192,115234,1,0,0:0:0:40:3P.wav
64,192,115317,1,2,0:0:0:0:
320,192,115317,1,8,0:0:0:0:
448,192,115317,1,0,0:0:0:40:3P.wav
192,192,115401,1,0,0:0:0:40:3P.wav
320,192,115484,1,0,0:0:0:40:3P.wav
448,192,115484,1,0,0:0:0:0:
192,192,115567,1,0,0:0:0:40:3P.wav
64,192,115651,1,2,0:0:0:0:
320,192,115651,1,8,0:0:0:0:
448,192,115651,1,0,0:0:0:40:3P.wav
192,192,115734,1,0,0:0:0:40:3P.wav
64,192,115817,1,0,0:0:0:40:3P.wav
448,192,115817,1,0,0:0:0:0:
320,192,115901,1,0,0:0:0:40:3P.wav
64,192,115984,1,8,0:0:0:0:
192,192,115984,1,4,0:0:0:0:
448,192,115984,1,2,0:0:0:0:
320,192,116067,1,0,0:0:0:30:3P.wav
64,192,116151,1,0,0:0:0:30:3P.wav
448,192,116151,1,0,0:0:0:0:
192,192,116234,1,0,0:0:0:30:3P.wav
64,192,116317,1,8,0:0:0:0:
320,192,116317,1,2,0:0:0:0:
448,192,116317,1,0,0:0:0:30:3P.wav
192,192,116401,1,0,0:0:0:30:3P.wav
64,192,116484,1,0,0:0:0:30:3P.wav
448,192,116484,1,0,0:0:0:0:
320,192,116567,1,0,0:0:0:30:3P.wav
64,192,116651,1,2,0:0:0:0:
192,192,116651,1,4,0:0:0:0:
448,192,116651,1,8,0:0:0:0:
320,192,116734,1,0,0:0:0:20:3P.wav
64,192,116817,1,0,0:0:0:20:3P.wav
192,192,116817,1,0,0:0:0:0:
320,192,116901,1,0,0:0:0:20:3P.wav
64,192,116984,1,2,0:0:0:0:
192,192,116984,1,8,0:0:0:0:
448,192,116984,1,0,0:0:0:20:3P.wav
320,192,117067,1,0,0:0:0:20:3P.wav
64,192,117151,1,0,0:0:0:20:3P.wav
448,192,117151,1,0,0:0:0:0:
192,192,117234,1,0,0:0:0:20:3P.wav
64,192,117317,1,8,0:0:0:0:
320,192,117317,1,4,0:0:0:0:
448,192,117317,1,2,0:0:0:0:
192,192,117401,1,0,0:0:0:20:3P.wav
64,192,117484,1,0,0:0:0:20:3P.wav
448,192,117484,1,0,0:0:0:0:
320,192,117567,1,0,0:0:0:20:3P.wav
64,192,117651,1,8,0:0:0:0:
192,192,117651,1,2,0:0:0:0:
448,192,117651,1,4,0:0:0:0:
320,192,117734,1,0,0:0:0:20:3P.wav
64,192,117817,1,0,0:0:0:20:3P.wav
448,192,117817,1,0,0:0:0:0:
192,192,117901,1,0,0:0:0:20:3P.wav
64,192,117984,1,2,0:0:0:0:
320,192,117984,1,4,0:0:0:0:
448,192,117984,1,8,0:0:0:0:
192,192,118067,1,0,0:0:0:20:3P.wav
320,192,118151,1,0,0:0:0:20:3P.wav
448,192,118151,1,0,0:0:0:0:
192,192,118234,1,0,0:0:0:20:3P.wav
64,192,118317,1,2,0:0:0:0:
320,192,118317,1,8,0:0:0:0:
448,192,118317,1,4,0:0:0:0:
192,192,118401,1,0,0:0:0:20:3P.wav
64,192,118484,128,0,119984:0:0:0:70:Kick 3.wav
448,192,118484,128,4,119984:0:0:0:0:
