osu file format v14

[General]
AudioFilename: audio.mp3
AudioLeadIn: 0
PreviewTime: 54591
Countdown: 0
SampleSet: Soft
StackLeniency: 0.7
Mode: 3
LetterboxInBreaks: 0
SpecialStyle: 0
WidescreenStoryboard: 0

[Editor]
Bookmarks: 11966,17299,22633,33216,43966,45299,54633,59966,65299,75966,86633,91966,97299,107966,113299,118633
DistanceSpacing: 0.8
BeatDivisor: 2
GridSize: 4
TimelineZoom: 1

[Metadata]
Title:parsley
TitleUnicode:ρars/ey
Artist:siqlo
ArtistUnicode:siqlo
Creator:FAMoss
Version:easy
Source:osu!
Tags:featured artist fa mappers' guild mg saikuro cute chibi future bass frenz2019 electronic instrumental core
BeatmapID:2639798
BeatmapSetID:1270255

[Difficulty]
HPDrainRate:7
CircleSize:4
OverallDifficulty:7
ApproachRate:5
SliderMultiplier:1.4
SliderTickRate:1

[Events]
//Background and Video events
0,0,"siqlo - parsley (FAMoss) [background].jpg",0,0
//Break Periods
//Storyboard Layer 0 (Background)
//Storyboard Layer 1 (Fail)
//Storyboard Layer 2 (Pass)
//Storyboard Layer 3 (Foreground)
//Storyboard Layer 4 (Overlay)
//Storyboard Sound Samples
Sample,2984,0,"C#5S_Db5S_s.wav",50
Sample,3651,0,"B5S_s.wav",50
Sample,4317,0,"G#5S_Ab5S_s.wav",50
Sample,4984,0,"B4S_s.wav",50
Sample,5151,0,"E5S_s.wav",50
Sample,5651,0,"G#5S_Ab5S_s.wav",50
Sample,6026,0,"F#5S_Gb5S_s.wav",50
Sample,6109,0,"G#5S_Ab5S_s.wav",50
Sample,6151,0,"F#5S_Gb5S_s.wav",50
Sample,6317,0,"E5S_s.wav",50
Sample,8317,0,"G#5S_Ab5S_s.wav",50
Sample,8984,0,"G#5S_Ab5S_s.wav",50
Sample,9151,0,"C#6S_Db6S_s.wav",50
Sample,9651,0,"B5S_s.wav",50
Sample,10317,0,"G#5S_Ab5S_s.wav",50
Sample,10984,0,"B5S_s.wav",50
Sample,11484,0,"F#5S_Gb5S_s.wav",50
Sample,11651,0,"E5S_s.wav",50
Sample,53942,0,"ready.wav",70
Sample,54942,0,"bruh.wav",30
Sample,55942,0,"bruh.wav",30
Sample,57609,0,"bruh.wav",30
Sample,58109,0,"bruh.wav",30
Sample,58609,0,"bruh.wav",30
Sample,59109,0,"bruh.wav",30
Sample,60276,0,"bruh.wav",30
Sample,61276,0,"bruh.wav",30
Sample,62942,0,"bruh.wav",30
Sample,63442,0,"bruh.wav",30
Sample,63942,0,"bruh.wav",30
Sample,64442,0,"bruh.wav",30
Sample,98651,0,"waa.wav",70
Sample,101317,0,"waa.wav",70
Sample,103984,0,"waa.wav",70
Sample,106942,0,"wuuu.wav",100
Sample,111942,0,"yeeeeeeah.wav",70
Sample,117942,0,"how do you like that.wav",70

[TimingPoints]
1318,333.333333333333,4,2,1,50,1,0
54651,-100,4,2,1,50,0,1
65317,-100,4,2,1,50,0,0
97317,-100,4,2,1,50,0,1
106651,-100,4,2,1,50,0,0
108317,-100,4,2,1,50,0,1
118484,-100,4,2,1,50,0,0

[HitObjects]
320,192,1318,128,0,1984:0:0:0:0:
192,192,1984,1,0,0:0:0:50:G#5S_Ab5S_s.wav
448,192,2651,128,0,3317:0:0:0:50:F#5S_Gb5S_s.wav
192,192,3317,1,0,0:0:0:50:E5S_s.wav
64,192,3984,128,0,4651:0:0:0:0:
320,192,4651,1,0,0:0:0:70:Clap_Reverb.wav
192,192,5317,1,0,0:0:0:50:F#5S_Gb5S_s.wav
448,192,5984,128,0,6651:0:0:0:50:F5S_s.wav
192,192,6651,128,0,7317:0:0:0:0:
448,192,7317,1,0,0:0:0:50:G#5S_Ab5S_s.wav
64,192,7984,128,0,8651:0:0:0:50:B5S_s.wav
320,192,8651,1,0,0:0:0:50:B5S_s.wav
448,192,9317,128,0,9984:0:0:0:0:
192,192,9984,1,0,0:0:0:70:Clap_Reverb.wav
320,192,10651,128,0,11317:0:0:0:0:
64,192,11317,1,0,0:0:0:50:G#5S_Ab5S_s.wav
320,192,11984,1,4,0:0:0:0:
192,192,12317,1,0,0:0:0:70:Cymatics - Grime Clap 1.wav
448,192,12651,1,0,0:0:0:70:Cymatics - Grime Clap 1.wav
64,192,12984,1,0,0:0:0:70:Cymatics - Grime Clap 1.wav
320,192,13317,1,0,0:0:0:70:Cymatics - Grime Clap 1.wav
192,192,13651,1,0,0:0:0:70:Cymatics - Grime Clap 1.wav
448,192,13984,1,0,0:0:0:70:Cymatics - Grime Clap 1.wav
320,192,14317,1,0,0:0:0:70:Cymatics - Grime Clap 1.wav
192,192,14651,1,0,0:0:0:70:Cymatics - Grime Clap 1.wav
320,192,14984,1,0,0:0:0:70:Cymatics - Grime Clap 1.wav
64,192,15317,1,0,0:0:0:70:Cymatics - Grime Clap 1.wav
448,192,15651,1,0,0:0:0:70:Cymatics - Grime Clap 1.wav
192,192,15984,1,0,0:0:0:70:Cymatics - Grime Clap 1.wav
320,192,16317,1,0,0:0:0:70:Cymatics - Grime Clap 1.wav
64,192,16651,1,0,0:0:0:70:Cymatics - Grime Clap 1.wav
192,192,16984,1,0,0:0:0:70:Cymatics - Grime Clap 1.wav
320,192,17317,128,0,17651:0:0:0:40:3P.wav
192,192,17651,128,0,17984:0:0:0:40:3P.wav
448,192,17984,128,0,18317:0:0:0:40:3P.wav
64,192,18317,128,0,18651:0:0:0:40:3P.wav
320,192,18651,128,0,18984:0:0:0:40:3P.wav
192,192,18984,128,0,19317:0:0:0:40:3P.wav
448,192,19317,128,0,19651:0:0:0:40:3P.wav
64,192,19651,1,2,0:0:0:0:
192,192,19651,1,4,0:0:0:0:
320,192,19984,1,0,0:0:0:30:3P.wav
64,192,20317,1,0,0:0:0:30:3P.wav
320,192,20651,1,0,0:0:0:20:3P.wav
192,192,20984,1,0,0:0:0:20:3P.wav
448,192,21317,1,0,0:0:0:20:3P.wav
320,192,21651,1,0,0:0:0:20:3P.wav
192,192,21984,1,0,0:0:0:20:3P.wav
64,192,22317,128,0,22984:0:0:0:0:
320,192,22984,1,4,0:0:0:0:
448,192,22984,1,2,0:0:0:0:
192,192,23317,1,2,0:0:0:0:
320,192,23651,1,0,0:0:0:0:
64,192,23984,128,6,24317:0:0:0:0:
448,192,24317,1,2,0:0:0:0:
320,192,24651,1,2,0:0:0:0:
192,192,24984,1,0,0:0:0:0:
448,192,25317,128,6,25651:0:0:0:0:
64,192,25651,1,2,0:0:0:0:
320,192,25984,1,2,0:0:0:0:
192,192,26317,1,0,0:0:0:0:
320,192,26651,128,6,26984:0:0:0:0:
64,192,26984,1,2,0:0:0:0:
192,192,27317,1,2,0:0:0:0:
320,192,27651,1,0,0:0:0:0:
64,192,27984,1,2,0:0:0:0:
192,192,27984,128,4,28317:0:0:0:0:
448,192,28317,1,2,0:0:0:0:
192,192,28651,1,2,0:0:0:0:
320,192,28984,1,0,0:0:0:0:
64,192,29317,128,6,29651:0:0:0:0:
448,192,29651,1,2,0:0:0:0:
320,192,29984,1,2,0:0:0:0:
192,192,30317,1,0,0:0:0:0:
448,192,30651,128,6,30984:0:0:0:0:
64,192,30984,1,2,0:0:0:0:
320,192,31317,1,2,0:0:0:0:
192,192,31651,1,0,0:0:0:0:
320,192,31984,128,0,32317:0:0:0:70:Kick 3.wav
64,192,32317,1,0,0:0:0:70:VEC3 Snares 048.wav
192,192,32817,1,0,0:0:0:70:VEC3 Snares 048.wav
448,192,33317,128,0,33651:0:0:0:0:
64,192,33651,1,2,0:0:0:0:
192,192,33651,1,4,0:0:0:0:
320,192,33984,1,2,0:0:0:0:
192,192,34317,1,0,0:0:0:0:
448,192,34651,128,6,34984:0:0:0:0:
64,192,34984,1,2,0:0:0:0:
192,192,35317,1,2,0:0:0:0:
320,192,35651,1,0,0:0:0:0:
64,192,35984,128,6,36317:0:0:0:0:
448,192,36317,1,2,0:0:0:0:
192,192,36651,1,2,0:0:0:0:
320,192,36984,1,0,0:0:0:0:
192,192,37317,128,6,37651:0:0:0:0:
448,192,37651,1,2,0:0:0:0:
320,192,37984,1,0,0:0:0:0:
320,192,38651,128,4,38984:0:0:0:0:
448,192,38651,1,2,0:0:0:0:
64,192,38984,1,2,0:0:0:0:
320,192,39317,1,2,0:0:0:0:
192,192,39651,1,0,0:0:0:0:
448,192,39984,128,6,40317:0:0:0:0:
64,192,40317,1,2,0:0:0:0:
192,192,40651,1,2,0:0:0:0:
320,192,40984,1,0,0:0:0:0:
64,192,41317,128,6,41651:0:0:0:0:
448,192,41651,1,2,0:0:0:0:
192,192,41984,1,2,0:0:0:0:
320,192,42317,1,0,0:0:0:0:
192,192,42651,128,6,42984:0:0:0:0:
448,192,42984,1,2,0:0:0:0:
320,192,43317,128,0,43651:0:0:0:0:
64,192,43651,1,0,0:0:0:0:
192,192,43984,128,0,44317:0:0:0:0:
448,192,44317,128,0,44651:0:0:0:0:
64,192,44651,128,0,44984:0:0:0:0:
320,192,44984,128,0,45317:0:0:0:0:
64,192,45317,1,2,0:0:0:0:
192,192,45317,1,4,0:0:0:0:
320,192,45651,1,2,0:0:0:0:
192,192,45984,1,2,0:0:0:0:
320,192,46317,1,0,0:0:0:40:Cymatics - Trap Snare 8 - C.wav
64,192,46651,1,2,0:0:0:0:
448,192,46984,1,2,0:0:0:0:
64,192,47317,1,2,0:0:0:0:
448,192,47651,1,0,0:0:0:40:Cymatics - Trap Snare 8 - C.wav
192,192,47984,1,2,0:0:0:0:
320,192,48317,1,2,0:0:0:0:
192,192,48651,1,2,0:0:0:0:
320,192,48984,128,0,49317:0:0:0:40:Cymatics - Trap Snare 8 - C.wav
64,192,49317,1,2,0:0:0:0:
192,192,49317,1,4,0:0:0:0:
448,192,49651,128,0,50151:0:0:0:0:
64,192,50151,1,2,0:0:0:0:
192,192,50151,128,0,50651:0:0:0:0:
320,192,50651,1,2,0:0:0:0:
64,192,50984,1,0,0:0:0:0:
320,192,51317,1,0,0:0:0:40:Cymatics - Trap Snare 8 - C.wav
192,192,51651,128,0,51984:0:0:0:0:
320,192,51984,1,4,0:0:0:0:
448,192,51984,1,2,0:0:0:0:
64,192,52317,128,0,52817:0:0:0:0:
320,192,52817,128,2,53317:0:0:0:0:
448,192,52817,1,0,0:0:0:0:
192,192,53317,1,2,0:0:0:0:
448,192,53651,1,2,0:0:0:0:
192,192,53984,1,2,0:0:0:0:
320,192,54651,1,4,0:0:0:0:
448,192,54651,1,2,0:0:0:0:
320,192,55151,1,2,0:0:0:0:
448,192,55151,1,4,0:0:0:0:
64,192,55651,1,4,0:0:0:0:
192,192,55651,1,2,0:0:0:0:
64,192,56151,1,2,0:0:0:0:
192,192,56151,1,4,0:0:0:0:
320,192,56651,1,4,0:0:0:0:
448,192,56651,1,2,0:0:0:0:
192,192,56984,1,0,0:0:0:0:
320,192,57317,1,4,0:0:0:0:
448,192,57317,1,2,0:0:0:0:
320,192,57817,1,2,0:0:0:0:
448,192,57817,1,4,0:0:0:0:
64,192,58317,1,4,0:0:0:0:
192,192,58317,1,2,0:0:0:0:
64,192,58817,1,2,0:0:0:0:
192,192,58817,1,4,0:0:0:0:
320,192,59317,1,4,0:0:0:0:
448,192,59317,1,2,0:0:0:0:
320,192,59651,1,0,0:0:0:20:LS-HKI Dark Kick 71 H.wav
64,192,59984,1,4,0:0:0:0:
192,192,59984,1,2,0:0:0:0:
320,192,60317,1,0,0:0:0:0:
64,192,60484,1,4,0:0:0:0:
192,192,60484,1,2,0:0:0:0:
448,192,60817,1,0,0:0:0:0:
64,192,60984,1,4,0:0:0:0:
192,192,60984,1,2,0:0:0:0:
192,192,61317,1,0,0:0:0:0:
320,192,61484,1,4,0:0:0:0:
448,192,61484,1,2,0:0:0:0:
64,192,61817,1,0,0:0:0:0:
320,192,61984,1,4,0:0:0:0:
448,192,61984,1,2,0:0:0:0:
448,192,62317,1,0,0:0:0:0:
64,192,62651,1,4,0:0:0:0:
192,192,62651,1,2,0:0:0:0:
320,192,62984,1,0,0:0:0:0:
64,192,63151,1,4,0:0:0:0:
192,192,63151,1,2,0:0:0:0:
448,192,63484,1,0,0:0:0:0:
64,192,63651,1,4,0:0:0:0:
192,192,63651,1,2,0:0:0:0:
192,192,63984,1,0,0:0:0:0:
320,192,64151,1,4,0:0:0:0:
448,192,64151,1,2,0:0:0:0:
64,192,64484,1,0,0:0:0:0:
320,192,64651,1,4,0:0:0:0:
448,192,64651,128,2,64984:0:0:0:0:
192,192,64984,128,2,65317:0:0:0:0:
64,192,65317,1,4,0:0:0:0:
448,192,65317,1,2,0:0:0:0:
320,192,66651,1,0,0:0:0:0:
192,192,67984,1,0,0:0:0:0:
448,192,69317,1,0,0:0:0:0:
320,192,69984,1,0,0:0:0:0:
64,192,70651,1,0,0:0:0:0:
192,192,71984,1,0,0:0:0:0:
320,192,73317,1,0,0:0:0:0:
64,192,74651,1,0,0:0:0:0:
192,192,75984,1,4,0:0:0:0:
320,192,76651,1,0,0:0:0:0:
64,192,77317,1,0,0:0:0:0:
192,192,77984,1,0,0:0:0:0:
448,192,78651,1,0,0:0:0:0:
192,192,79317,1,0,0:0:0:0:
448,192,79984,1,0,0:0:0:0:
64,192,80651,1,0,0:0:0:0:
192,192,80984,1,0,0:0:0:70:Clap_Reverb.wav
320,192,81317,1,0,0:0:0:0:
192,192,81984,1,0,0:0:0:0:
448,192,82651,1,0,0:0:0:0:
320,192,83317,1,0,0:0:0:0:
64,192,83984,1,0,0:0:0:0:
320,192,84651,1,0,0:0:0:0:
64,192,85317,1,0,0:0:0:0:
448,192,85984,1,0,0:0:0:0:
320,192,86317,1,0,0:0:0:70:Clap_Reverb.wav
64,192,86651,1,0,0:0:0:70:Cymatics - Grime Clap 1.wav
192,192,86984,1,0,0:0:0:70:Cymatics - Grime Clap 1.wav
448,192,87317,1,0,0:0:0:70:Cymatics - Grime Clap 1.wav
320,192,87651,1,0,0:0:0:70:Cymatics - Grime Clap 1.wav
64,192,87984,1,0,0:0:0:70:Cymatics - Grime Clap 1.wav
448,192,88317,1,0,0:0:0:70:Cymatics - Grime Clap 1.wav
192,192,88651,1,0,0:0:0:70:Cymatics - Grime Clap 1.wav
320,192,88984,1,0,0:0:0:70:Cymatics - Grime Clap 1.wav
64,192,89317,1,0,0:0:0:70:Cymatics - Grime Clap 1.wav
192,192,89651,1,0,0:0:0:70:Cymatics - Grime Clap 1.wav
448,192,89984,1,0,0:0:0:70:Cymatics - Grime Clap 1.wav
320,192,90317,1,0,0:0:0:70:Cymatics - Grime Clap 1.wav
64,192,90651,1,0,0:0:0:70:Cymatics - Grime Clap 1.wav
448,192,90984,1,0,0:0:0:70:Cymatics - Grime Clap 1.wav
192,192,91317,1,0,0:0:0:70:Cymatics - Grime Clap 1.wav
320,192,91651,1,0,0:0:0:70:Cymatics - Grime Clap 1.wav
64,192,91984,128,0,92317:0:0:0:40:3P.wav
320,192,92317,128,0,92651:0:0:0:40:3P.wav
192,192,92651,128,0,92984:0:0:0:40:3P.wav
448,192,92984,128,0,93317:0:0:0:40:3P.wav
64,192,93317,128,0,93651:0:0:0:40:3P.wav
448,192,93651,128,0,93984:0:0:0:40:3P.wav
192,192,93984,128,0,94317:0:0:0:40:3P.wav
320,192,94317,1,4,0:0:0:0:
448,192,94317,1,2,0:0:0:0:
64,192,94651,128,0,95317:0:0:0:0:
320,192,95317,128,0,95984:0:0:0:0:
192,192,95984,128,0,96651:0:0:0:0:
448,192,96651,128,0,97317:0:0:0:0:
64,192,97317,1,2,0:0:0:0:
192,192,97317,1,4,0:0:0:0:
320,192,97651,1,10,0:0:0:0:
64,192,97984,1,2,0:0:0:0:
320,192,98317,1,10,0:0:0:0:
192,192,98651,1,2,0:0:0:0:
448,192,98984,1,10,0:0:0:0:
320,192,99151,1,2,0:0:0:0:
64,192,99317,128,0,99651:0:0:0:0:
320,192,99651,128,0,99984:0:0:0:0:
64,192,99984,1,4,0:0:0:0:
192,192,99984,1,2,0:0:0:0:
320,192,100317,1,10,0:0:0:0:
64,192,100651,1,2,0:0:0:0:
320,192,100984,1,10,0:0:0:0:
192,192,101317,1,2,0:0:0:0:
448,192,101651,128,0,101984:0:0:0:0:
192,192,101984,1,0,0:0:0:40:Cymatics - Trap Snare 8 - C.wav
320,192,102151,1,2,0:0:0:0:
64,192,102317,1,0,0:0:0:40:Cymatics - Trap Snare 8 - C.wav
320,192,102651,1,4,0:0:0:0:
448,192,102651,1,2,0:0:0:0:
192,192,102984,1,10,0:0:0:0:
448,192,103317,1,2,0:0:0:0:
192,192,103651,1,10,0:0:0:0:
320,192,103984,1,2,0:0:0:0:
64,192,104317,1,10,0:0:0:0:
448,192,104651,128,2,104984:0:0:0:0:
192,192,104984,128,10,105317:0:0:0:0:
320,192,105317,1,4,0:0:0:0:
448,192,105317,1,2,0:0:0:0:
64,192,105651,128,0,105984:0:0:0:0:
320,192,105984,1,0,0:0:0:40:Cymatics - Trap Snare 8 - C.wav
448,192,106317,128,0,106651:0:0:0:0:
192,192,106651,128,2,106984:0:0:0:0:
448,192,106984,128,0,107317:0:0:0:0:
64,192,107317,1,0,0:0:0:40:Cymatics - Trap Snare 8 - C.wav
320,192,107651,128,0,107984:0:0:0:40:Cymatics - Trap Snare 8 - C.wav
192,192,107984,1,0,0:0:0:20:LS-HKI Dark Kick 71 H.wav
64,192,108317,1,4,0:0:0:0:
448,192,108317,1,2,0:0:0:0:
320,192,108651,1,2,0:0:0:0:
192,192,108984,1,0,0:0:0:0:
448,192,109317,128,6,109651:0:0:0:0:
64,192,109651,1,2,0:0:0:0:
192,192,109984,1,2,0:0:0:0:
320,192,110317,1,0,0:0:0:0:
64,192,110651,128,6,110984:0:0:0:0:
448,192,110984,1,2,0:0:0:0:
192,192,111317,1,2,0:0:0:0:
320,192,111651,1,0,0:0:0:0:
192,192,111984,128,6,112317:0:0:0:0:
448,192,112317,1,2,0:0:0:0:
320,192,112651,1,0,0:0:0:0:
192,192,112984,128,2,113317:0:0:0:0:
320,192,113317,1,6,0:0:0:0:
448,192,113317,128,8,113651:0:0:0:0:
64,192,113651,128,10,113984:0:0:0:0:
320,192,113984,128,10,114317:0:0:0:0:
192,192,114317,128,10,114651:0:0:0:0:
320,192,114651,128,14,114984:0:0:0:0:
192,192,114984,128,10,115317:0:0:0:0:
448,192,115317,128,10,115651:0:0:0:0:
64,192,115651,128,10,115984:0:0:0:0:
320,192,115984,128,12,116317:0:0:0:0:
448,192,115984,1,2,0:0:0:0:
64,192,116317,128,10,116651:0:0:0:0:
448,192,116651,128,14,116984:0:0:0:0:
192,192,116984,128,10,117317:0:0:0:0:
320,192,117317,128,14,117651:0:0:0:0:
64,192,117651,128,14,117984:0:0:0:0:
448,192,117984,128,14,118317:0:0:0:0:
192,192,118317,128,14,119984:0:0:0:0:
