osu file format v14

[General]
AudioFilename: audio.mp3
AudioLeadIn: 0
PreviewTime:97278
Countdown: 0
SampleSet: Soft
StackLeniency: 0.4
Mode: 0
LetterboxInBreaks: 0
WidescreenStoryboard: 1

[Editor]
Bookmarks:11966,22966,43966,65299,75966,86633,94299,97299,118466
DistanceSpacing: 1.1
BeatDivisor: 4
GridSize: 8
TimelineZoom: 2

[Metadata]
Title:parsley
TitleUnicode:ρars/ey
Artist:siqlo
ArtistUnicode:siqlo
Creator:Chompy
Version:ioexception's insane
Source:osu!
Tags:fa featured artist mg mpg mappers mappers' guild electronic instrumental ioexception deadcode ceo of osu ceo_of_osu fieryrage fiery Pentori FRENZ 2019
BeatmapID:2649506
BeatmapSetID:1269430

[Difficulty]
HPDrainRate:5
CircleSize:3.8
OverallDifficulty:8
ApproachRate:9
SliderMultiplier:1.5
SliderTickRate:1

[Events]
//Background and Video events
0,0,"parsley.jpg",0,0
//Break Periods
//Storyboard Layer 0 (Background)
//Storyboard Layer 1 (Fail)
//Storyboard Layer 2 (Pass)
//Storyboard Layer 3 (Foreground)
//Storyboard Layer 4 (Overlay)
//Storyboard Sound Samples

[TimingPoints]
1320,333.333333333333,4,2,1,30,1,0
11653,-100,4,2,1,40,0,0
11986,-100,4,2,1,55,0,0
12069,-100,4,2,1,50,0,0
17319,-100,4,2,1,40,0,0
17653,-100,4,2,1,43,0,0
17986,-100,4,2,1,45,0,0
18319,-100,4,2,1,48,0,0
18653,-100,4,2,1,50,0,0
18986,-100,4,2,1,53,0,0
19319,-100,4,2,1,55,0,0
19653,-66.6666666666667,4,2,2,60,0,0
19736,-66.6666666666667,4,2,1,45,0,0
19986,-100,4,2,1,45,0,0
21319,-83.3333333333333,4,2,1,50,0,0
22319,-66.6666666666667,4,2,1,55,0,0
22653,-66.6666666666667,4,2,1,50,0,0
22986,-55.5555555555556,4,2,2,80,0,1
31986,-100,4,2,2,80,0,0
32486,-66.6666666666667,4,2,2,80,0,0
33319,-200,4,2,2,80,0,0
33653,-55.5555555555556,4,2,2,80,0,1
37819,-55.5555555555556,4,2,2,80,0,0
37986,-55.5555555555556,4,2,2,70,0,0
38653,-55.5555555555556,4,2,2,80,0,1
42653,-76.9230769230769,4,2,2,80,0,1
43319,-100,4,2,2,80,0,1
43986,-133.333333333333,4,2,1,55,0,0
44153,-133.333333333333,4,2,1,53,0,0
44319,-133.333333333333,4,2,1,50,0,0
44486,-133.333333333333,4,2,1,47,0,0
44653,-100,4,2,1,45,0,0
44903,-100,4,2,1,42,0,0
45153,-100,4,2,1,40,0,0
45319,-66.6666666666667,4,2,2,70,0,0
49319,-50,4,2,2,70,0,0
49653,-66.6666666666667,4,2,2,70,0,0
51986,-50,4,2,2,70,0,0
52403,-66.6666666666667,4,2,2,70,0,0
52736,-50,4,2,2,70,0,0
54319,-50,4,2,2,60,0,0
54653,-50.0000000000001,4,2,2,80,0,0
56319,-66.6666666666667,4,2,2,80,0,0
57319,-50.0000000000001,4,2,2,80,0,0
59319,-66.6666666666667,4,2,2,80,0,0
59569,-30.3030303030303,4,2,2,80,0,0
59653,-41.6666666666667,4,2,2,85,0,1
59736,-41.6666666666667,4,2,2,85,0,0
59986,-55.5555555555556,4,2,2,80,0,0
62319,-66.6666666666667,4,2,2,80,0,0
62653,-55.5555555555556,4,2,2,80,0,0
64819,-100,4,2,2,80,0,0
65319,-133.333333333333,4,2,2,70,0,0
65403,-133.333333333333,4,2,2,45,0,0
75986,-100,4,2,2,50,0,0
81153,-100,4,2,2,35,0,0
81319,-100,4,2,2,50,0,0
86486,-100,4,2,2,35,0,0
86653,-100,4,2,1,45,0,0
87986,-100,4,2,1,48,0,0
89319,-100,4,2,1,50,0,0
91986,-100,4,2,1,40,0,0
92319,-100,4,2,1,43,0,0
92653,-100,4,2,1,45,0,0
92986,-100,4,2,1,48,0,0
93319,-100,4,2,1,50,0,0
93653,-100,4,2,1,53,0,0
93986,-100,4,2,1,55,0,0
94319,-133.333333333333,4,2,2,60,0,0
94403,-133.333333333333,4,2,2,45,0,0
94986,-133.333333333333,4,2,2,48,0,0
95486,-133.333333333333,4,2,2,50,0,0
95986,-133.333333333333,4,2,2,52,0,0
96653,-133.333333333333,4,2,2,55,0,0
97319,-55.5555555555556,4,2,2,80,0,1
99319,-41.6666666666667,4,2,2,70,0,0
99986,-55.5555555555556,4,2,2,80,0,1
101319,-100,4,2,2,80,0,0
101986,-66.6666666666667,4,2,2,80,0,0
102319,-50,4,2,2,80,0,0
102653,-50,4,2,2,80,0,1
102986,-55.5555555555556,4,2,2,80,0,1
105319,-55.5555555555556,4,2,2,80,0,0
105986,-83.3333333333333,4,2,2,80,0,0
106653,-55.5555555555556,4,2,2,80,0,0
107986,-83.3333333333333,4,2,2,80,0,1
108069,-83.3333333333333,4,2,2,80,0,0
108319,-55.5555555555556,4,2,2,80,0,1
112653,-200,4,2,2,80,0,0
112986,-50,4,2,2,80,0,0
113319,-50,4,2,2,80,0,1
113403,-50,4,2,1,60,0,1
113653,-50,4,2,2,80,0,1
113736,-50,4,2,1,60,0,1
113986,-50,4,2,2,80,0,1
114069,-50,4,2,1,60,0,1
114319,-50,4,2,2,80,0,1
114403,-50,4,2,1,60,0,1
114653,-50,4,2,2,80,0,1
114736,-50,4,2,1,60,0,1
114986,-100,4,2,2,80,0,1
115069,-100,4,2,1,60,0,1
115319,-100,4,2,2,80,0,1
115403,-100,4,2,1,60,0,1
115653,-100,4,2,2,80,0,1
115736,-100,4,2,1,60,0,1
115986,-66.6666666666667,4,2,2,80,0,1
116069,-66.6666666666667,4,2,1,60,0,1
116319,-66.6666666666667,4,2,2,80,0,1
116403,-66.6666666666667,4,2,1,60,0,1
116653,-66.6666666666667,4,2,2,80,0,1
116736,-66.6666666666667,4,2,1,65,0,1
116986,-66.6666666666667,4,2,2,80,0,1
117069,-66.6666666666667,4,2,1,65,0,1
117319,-66.6666666666667,4,2,2,80,0,1
117403,-66.6666666666667,4,2,1,70,0,1
117653,-66.6666666666667,4,2,2,80,0,1
117736,-66.6666666666667,4,2,1,70,0,1
117986,-66.6666666666667,4,2,2,80,0,1
118069,-66.6666666666667,4,2,1,60,0,1
118319,-66.6666666666667,4,2,2,80,0,1
118486,-66.6666666666667,4,2,2,80,0,0

[Colours]
Combo1 : 140,203,10
Combo2 : 236,255,170
Combo3 : 209,252,109

[HitObjects]
83,90,1320,5,2,0:0:0:0:
282,113,1986,1,10,0:0:0:0:
83,90,2653,5,2,0:0:0:0:
183,102,2986,1,0,0:0:0:0:
282,113,3319,1,2,0:0:0:0:
293,14,3653,1,2,0:0:0:0:
326,190,4319,5,2,0:0:0:0:
358,365,4986,5,0,0:0:0:0:
369,266,5153,1,0,0:0:0:0:
468,278,5319,1,2,0:0:0:0:
284,314,5653,5,2,0:0:0:0:
446,171,5986,2,0,B|429:138|429:138|437:82,1,75,2|0,0:0|0:0,0:0:0:0:
434,100,6319,2,0,L|260:124|260:124,1,150,2|2,0:0|0:0,0:0:0:0:
285,120,7319,1,10,0:0:0:0:
83,162,7986,6,0,B|63:201|63:201|96:313,1,150,2|0,0:0|0:0,0:0:0:0:
177,152,8653,2,0,B|203:186|203:186|193:302,1,150,2|0,0:0|0:0,0:0:0:0:
93,303,9153,1,2,0:0:0:0:
284,339,9653,1,2,0:0:0:0:
284,339,10319,6,0,L|267:173,1,150,2|2,0:0|0:0,0:0:0:0:
150,266,10986,1,2,0:0:0:0:
150,266,11319,2,0,B|109:272|109:272|62:253,2,75,2|2|2,0:0|0:0|0:0,0:0:0:0:
306,216,11986,6,0,P|286:174|234:160,1,75,10|0,1:2|0:0,0:0:0:0:
178,164,12236,1,0,1:0:0:0:
178,164,12319,2,0,L|190:61,1,75,10|0,0:0|1:0,0:0:0:0:
186,89,12653,2,0,L|359:79,1,150,10|10,0:0|0:0,0:0:0:0:
421,65,13153,2,0,B|414:110|414:110|434:159,1,75,2|10,1:2|0:0,0:0:0:0:
512,183,13486,1,2,0:0:0:0:
512,183,13653,2,0,L|499:289,1,75,10|0,0:0|1:0,0:0:0:0:
478,344,13986,2,0,B|435:325|435:325|344:350,1,112.5,8|0,0:0|1:0,0:0:0:0:
352,357,14319,2,0,L|339:251,1,75,10|0,0:0|1:0,0:0:0:0:
251,264,14653,6,0,L|238:368,1,75,10|0,0:0|0:0,0:0:0:0:
174,379,14903,1,0,1:0:0:0:
174,379,14986,2,0,P|136:359|125:307,1,75,10|0,0:0|1:0,0:0:0:0:
161,250,15319,2,0,L|6:279,1,150,10|10,0:0|0:0,0:0:0:0:
28,194,15819,2,0,B|42:158|42:158|31:93,1,75,2|10,1:2|0:0,0:0:0:0:
112,47,16153,1,2,0:0:0:0:
112,47,16319,2,0,L|18:33,1,75,10|0,0:0|1:0,0:0:0:0:
141,160,16653,2,0,P|183:113|227:111,1,75,10|0,0:0|0:0,0:0:0:0:
275,93,16903,1,0,1:0:0:0:
275,93,16986,2,0,L|290:183,1,75,10|0,0:0|1:0,0:0:0:0:
271,288,17319,6,0,L|312:295,3,37.5,10|0|2|0,1:2|1:0|1:2|1:0,0:0:0:0:
222,356,17653,6,0,L|263:363,3,37.5,10|0|2|0,1:2|1:0|1:2|1:0,0:0:0:0:
156,268,17986,6,0,L|197:275,3,37.5,10|0|2|0,1:2|1:0|1:2|1:0,0:0:0:0:
86,334,18320,6,0,L|127:341,3,37.5,10|0|2|0,1:2|1:0|1:2|1:0,0:0:0:0:
148,192,18653,6,0,L|106:199,3,37.5,10|0|2|0,1:2|1:0|1:2|1:0,0:0:0:0:
197,260,18986,6,0,L|155:267,3,37.5,10|0|2|0,1:2|1:0|1:2|1:0,0:0:0:0:
263,172,19319,6,0,L|221:179,3,37.5,10|0|2|0,1:2|1:0|1:2|1:0,0:0:0:0:
329,248,19653,6,0,P|421:263|451:340,1,168.750006437302,12|0,1:2|0:0,0:0:0:0:
452,364,19986,6,0,L|387:356,3,37.5,8|0|0|0,0:0|0:0|0:0|0:0,0:0:0:0:
412,278,20319,2,0,L|477:270,3,37.5,8|0|0|0,0:0|0:0|0:0|0:0,0:0:0:0:
454,178,20653,2,0,L|389:170,3,37.5,8|0|0|0,0:0|0:0|0:0|0:0,0:0:0:0:
408,85,20986,2,0,L|473:77,3,37.5,8|0|0|0,0:0|0:0|0:0|0:0,0:0:0:0:
392,27,21319,6,0,P|356:80|281:67,1,134.999995880127,10|0,0:0|0:0,0:0:0:0:
252,12,21653,2,0,L|158:33,1,89.999997253418,10|0,0:0|0:0,0:0:0:0:
164,31,21903,2,0,L|183:152,1,89.9999972534181,2|0,0:0|0:0,0:0:0:0:
185,161,22153,1,2,0:0:0:0:
102,259,22319,1,2,0:0:0:0:
105,273,22403,1,2,0:0:0:0:
107,287,22486,1,2,0:0:0:0:
109,301,22569,1,2,0:0:0:0:
112,315,22653,6,0,B|68:272|68:272|92:127,1,168.750006437302,2|0,0:0|0:0,0:0:0:0:
61,132,22986,6,0,B|163:122|112:43|229:27,1,202.499993820191,6|0,1:2|0:0,0:0:0:0:
307,72,23319,2,0,L|331:222,1,134.999995880127,2|2,1:2|3:0,0:0:0:0:
225,126,23569,1,0,1:2:0:0:
225,126,23653,2,0,L|249:276,1,134.999995880127,2|2,3:0|1:2,0:0:0:0:
310,346,23986,6,0,B|381:359|381:359|404:327|404:327|396:288|396:288|312:270,1,202.499993820191,2|0,1:2|3:0,0:0:0:0:
246,259,24319,2,0,B|175:246|175:246|152:278|152:278|160:317|160:317|244:335,1,202.499993820191,2|0,1:2|3:0,0:0:0:0:
310,346,24653,2,0,L|327:196,1,134.999995880127,2|2,1:2|3:0,0:0:0:0:
310,128,24903,1,0,1:2:0:0:
310,128,24986,2,0,B|359:132|359:132|395:158|395:158|455:165,1,134.999995880127,2|2,3:0|1:2,0:0:0:0:
440,318,25319,6,0,B|484:351|484:351|470:264,1,134.999995880127,0|2,1:2|3:0,0:0:0:0:
458,190,25569,1,2,0:0:0:0:
458,190,25653,2,0,L|309:214,1,134.999995880127,2|2,1:2|0:0,0:0:0:0:
261,350,25986,6,0,P|238:267|176:253,1,134.999995880127,2|2,1:2|3:0,0:0:0:0:
135,308,26236,1,2,3:2:0:0:
135,308,26319,2,0,L|-10:339,1,134.999995880127,2|2,0:0|1:2,0:0:0:0:
102,208,26653,6,0,B|114:156|114:156|93:64,1,134.999995880127,2|2,1:2|3:0,0:0:0:0:
24,23,26903,1,0,3:0:0:0:
24,23,26986,2,0,B|12:75|12:75|33:166,1,134.999995880127,2|2,1:2|3:0,0:0:0:0:
231,238,27319,6,0,L|402:248,1,134.999995880127,2|2,1:2|3:0,0:0:0:0:
373,169,27569,1,2,1:2:0:0:
373,169,27653,2,0,L|238:161,1,134.999995880127,2|2,0:0|0:0,0:0:0:0:
239,162,27986,6,0,P|320:124|273:26,1,202.499993820191,2|0,1:2|0:0,0:0:0:0:
177,99,28319,2,0,B|149:137|149:137|169:222,1,134.999995880127,2|0,1:2|3:0,0:0:0:0:
169,222,28653,6,0,L|10:209,1,134.999995880127,2|2,1:2|0:0,0:0:0:0:
0,288,28903,1,2,1:2:0:0:
0,288,28986,2,0,P|60:311|96:394,1,134.999995880127,2|2,3:0|1:2,0:0:0:0:
317,109,29319,6,0,P|351:177|445:173,1,134.999995880127,2|2,1:2|3:0,0:0:0:0:
403,190,29653,2,0,P|328:229|330:325,1,134.999995880127,2|2,1:2|3:0,0:0:0:0:
241,384,29986,6,0,P|203:313|106:311,1,134.999995880127,2|2,1:2|3:0,0:0:0:0:
77,334,30236,1,2,1:2:0:0:
77,334,30319,2,0,P|72:288|91:185,1,134.999995880127,2|2,3:0|1:2,0:0:0:0:
85,200,30653,6,0,L|236:224,1,134.999995880127,2|0,1:2|3:0,0:0:0:0:
440,184,30986,2,0,L|259:155,1,134.999995880127,2|2,1:2|0:0,0:0:0:0:
224,146,31236,1,2,3:0:0:0:
224,146,31319,6,0,L|208:-27,1,134.999995880127,2|0,1:2|3:0,0:0:0:0:
235,44,31569,2,0,L|249:196,1,134.999995880127,2|0,1:2|0:0,0:0:0:0:
318,235,31819,2,0,P|291:256|272:302,1,67.4999979400635,2|2,1:2|3:0,0:0:0:0:
191,299,31986,6,0,P|251:297|316:393,1,150,2|10,3:2|0:2,0:0:0:0:
401,170,32486,2,0,P|341:195|315:249,1,112.500004291535,0|2,1:0|0:0,0:0:0:0:
317,234,32819,1,8,1:2:0:0:
228,65,32986,2,0,B|239:106|149:135|120:32|197:-5,1,168.750006437302,10|2,0:3|0:0,0:0:0:0:
292,6,33319,6,0,B|305:33|305:33|306:68,1,56.25,2|0,0:0|0:0,0:0:0:0:
287,149,33653,6,0,B|364:137|364:137|393:95|393:95|510:77,1,202.499993820191,14|0,1:2|0:0,0:0:0:0:
489,204,33986,2,0,B|455:249|455:249|441:127,1,134.999995880127,2|2,1:2|3:0,0:0:0:0:
374,221,34236,1,2,1:2:0:0:
374,221,34319,2,0,L|210:245,1,134.999995880127,10|2,3:2|1:2,0:0:0:0:
90,331,34653,6,0,B|62:373|62:373|251:338,1,202.499993820191,2|0,1:2|3:0,0:0:0:0:
378,288,34986,2,0,P|374:195|285:228,1,202.499993820191,10|0,1:2|3:0,0:0:0:0:
251,334,35319,2,0,B|259:261|203:279|215:178,1,134.999995880127,2|2,1:2|3:0,0:0:0:0:
234,123,35569,1,2,1:2:0:0:
234,123,35653,2,0,L|94:157,1,134.999995880127,10|2,3:2|1:2,0:0:0:0:
38,249,35986,6,0,L|266:272,1,202.499993820191,2|2,1:2|0:0,0:0:0:0:
192,187,36319,2,0,L|359:204,1,134.999995880127,10|2,1:2|0:0,0:0:0:0:
429,182,36653,2,0,B|464:241|464:241|454:307,1,134.999995880127,2|2,1:2|3:0,0:0:0:0:
353,326,36903,1,2,1:2:0:0:
353,326,36986,2,0,B|318:267|318:267|327:200,1,134.999995880127,10|2,0:0|1:2,0:0:0:0:
442,80,37319,2,0,B|483:98|483:98|466:9,1,134.999995880127,2|2,1:2|0:0,0:0:0:0:
467,10,37819,6,0,B|252:2|384:214|137:188,1,404.999987640381,2|2,3:0|0:0,0:0:0:0:
140,188,38653,6,0,L|158:8,1,134.999995880127,6|0,1:2|3:0,0:0:0:0:
352,250,38986,2,0,L|338:384,1,134.999995880127,10|0,1:2|3:0,0:0:0:0:
116,350,39319,2,0,P|182:341|223:290,1,134.999995880127,2|2,1:2|3:0,0:0:0:0:
273,207,39569,1,2,1:2:0:0:
273,207,39653,2,0,L|117:184,1,134.999995880127,10|2,0:0|1:2,0:0:0:0:
286,358,39986,6,0,B|296:256|368:312|374:153,1,202.499993820191,2|0,1:2|3:0,0:0:0:0:
345,105,40319,2,0,P|404:135|381:37,1,202.499993820191,10|0,1:2|3:0,0:0:0:0:
258,0,40653,2,0,L|90:24,1,134.999995880127,2|2,1:2|3:0,0:0:0:0:
41,24,40903,1,2,1:2:0:0:
41,24,40986,2,0,B|58:75|58:75|25:199,1,134.999995880127,10|2,3:2|1:2,0:0:0:0:
251,149,41319,6,0,P|321:179|368:333,1,202.499993820191,2|0,1:2|0:0,0:0:0:0:
310,384,41653,2,0,P|384:300|381:200,1,202.499993820191,10|0,1:2|3:0,0:0:0:0:
189,109,41986,6,0,L|203:279,1,134.999995880127,2|0,1:2|3:0,0:0:0:0:
283,236,42236,1,2,1:2:0:0:
283,236,42319,2,0,L|271:101,1,134.999995880127,8|2,0:0|1:2,0:0:0:0:
154,42,42653,6,0,P|233:51|276:137,1,146.249993305207,2|0,1:2|3:0,0:0:0:0:
423,147,42986,2,0,P|344:156|301:242,1,146.249993305207,10|0,1:2|0:0,0:0:0:0:
186,238,43319,2,0,P|248:258|271:312,1,112.5,2|0,0:0|0:0,0:0:0:0:
404,315,43653,2,0,P|342:335|319:389,1,112.5,2|0,0:0|0:0,0:0:0:0:
321,374,43986,6,0,L|331:323,3,28.1250010728836,10|0|2|0,1:2|1:0|1:2|1:0,0:0:0:0:
269,296,44319,2,0,L|258:246,3,28.1250010728836,10|0|2|0,1:2|1:0|1:2|1:0,0:0:0:0:
305,205,44653,6,0,L|315:143,3,37.5,10|0|2|2,1:2|1:0|1:2|1:2,0:0:0:0:
272,103,44986,6,0,L|262:41,2,37.5,8|2|2,1:2|1:2|1:2,0:0:0:0:
165,226,45319,5,6,1:2:0:0:
165,226,45403,2,0,B|150:171|150:171|169:104,1,112.500004291535,2|2,0:0|0:0,0:0:0:0:
189,46,45653,2,0,B|200:6|200:6|96:44,1,112.500004291535,10|2,1:2|0:0,0:0:0:0:
52,199,45986,6,0,B|58:144,2,56.2500021457673,2|0|2,1:2|0:0|0:0,0:0:0:0:
88,281,46236,1,0,1:2:0:0:
88,281,46319,2,0,B|59:147,1,112.500004291535,10|2,0:0|1:2,0:0:0:0:
298,265,46653,6,0,L|227:276,2,56.2500021457673,2|0|2,1:2|0:0|0:0,0:0:0:0:
298,265,46986,2,0,B|310:226|310:226|278:131,1,112.500004291535,8|2,1:2|0:0,0:0:0:0:
208,78,47319,5,2,1:2:0:0:
208,78,47403,2,0,B|159:96|159:96|91:56,1,112.500004291535,0|0,0:0|1:2,0:0:0:0:
30,94,47653,2,0,B|18:12,2,56.2500021457673,10|0|0,0:0|0:0|1:2,0:0:0:0:
127,276,47986,6,0,B|71:268|71:268|25:314,1,112.500004291535,2|2,1:2|0:0,0:0:0:0:
127,276,48319,2,0,B|116:207,1,56.2500021457673,8|0,1:2|0:0,0:0:0:0:
219,328,48486,2,0,B|208:259,1,56.2500021457673,2|0,0:0|0:0,0:0:0:0:
315,168,48653,6,0,B|328:198|328:198|364:217,2,56.2500021457673,0|0|2,1:2|0:0|0:0,0:0:0:0:
356,89,48903,1,0,1:2:0:0:
356,89,48986,2,0,B|301:77|301:77|242:105,1,112.500004291535,8|0,0:0|1:2,0:0:0:0:
234,12,49319,6,0,B|216:47|216:47|249:270,1,225,6|0,1:2|0:0,0:0:0:0:
259,319,49653,1,10,0:0:0:0:
254,344,49736,1,2,0:0:0:0:
248,370,49819,1,2,0:0:0:0:
423,289,49986,6,0,P|375:232|293:236,1,112.500004291535,8|0,3:0|1:2,0:0:0:0:
248,370,50236,1,0,0:0:0:0:
248,370,50319,2,0,P|296:313|378:317,1,112.500004291535,0|2,0:0|0:0,0:0:0:0:
423,231,50653,5,2,1:2:0:0:
423,231,50736,2,0,B|440:112,1,112.500004291535,2|2,0:0|0:0,0:0:0:0:
422,40,50986,2,0,B|493:51,2,56.2500021457673,2|0|2,0:0|0:0|0:0,0:0:0:0:
341,114,51319,5,2,0:0:0:0:
341,114,51403,2,0,B|350:140|350:140|339:190,2,56.2500021457673,0|2|2,0:0|1:2|0:0,0:0:0:0:
202,90,51653,5,0,0:0:0:0:
202,90,51737,2,0,B|229:95|229:95|266:129,2,56.2500021457673,0|2|0,0:0|0:0|0:0,0:0:0:0:
166,177,51986,6,0,B|189:-8,1,150,6|2,1:2|0:0,0:0:0:0:
36,76,52319,1,0,0:0:0:0:
36,76,52403,2,0,B|61:87|61:87|79:127,2,56.2500021457673,0|2|0,0:0|0:0|0:0,0:0:0:0:
17,194,52653,5,10,0:0:0:0:
17,194,52736,2,0,B|167:177,1,150
25,268,52986,2,0,B|226:245,1,150,2|0,0:0|0:0,0:0:0:0:
280,312,53236,1,0,0:0:0:0:
280,312,53319,2,0,L|285:257,4,37.5,2|0|0|0|0,1:2|0:0|0:0|0:0|0:0,0:0:0:0:
373,139,53653,6,0,L|352:46,1,75,0|0,1:2|0:0,0:0:0:0:
448,103,53819,2,0,L|427:10,1,75,2|0,0:0|0:0,0:0:0:0:
241,202,53986,2,0,P|302:196|367:258,1,150,0|2,1:2|0:0,0:0:0:0:
412,333,54236,1,0,0:0:0:0:
412,333,54319,6,0,B|457:357|457:357|438:365|438:365|361:330,1,150,2|2,0:0|0:0,0:0:0:0:
283,274,54653,6,0,B|251:222|251:222|266:116,1,150,6|0,1:2|3:0,0:0:0:0:
263,133,54986,2,0,B|271:103|271:103|294:163,1,75,10|0,0:0|0:0,0:0:0:0:
185,296,55153,6,0,B|153:244|153:244|168:138,1,150,0|8,1:2|3:0,0:0:0:0:
165,155,55486,2,0,B|172:124|172:124|195:184,1,75,10|0,0:0|0:0,0:0:0:0:
86,317,55653,6,0,B|54:265|54:265|69:159,1,150,0|0,1:2|0:0,0:0:0:0:
66,176,55986,2,0,B|73:145|73:145|96:205,1,75,10|0,0:0|0:0,0:0:0:0:
185,296,56153,5,0,1:2:0:0:
218,177,56319,5,0,0:0:0:0:
228,143,56402,1,0,0:0:0:0:
255,119,56485,1,10,0:0:0:0:
291,113,56569,1,0,3:0:0:0:
324,128,56653,2,0,L|368:180,3,56.2500021457673,0|0|0|0,1:2|3:0|3:0|1:2,0:0:0:0:
419,225,56986,2,0,L|410:287,3,56.2500021457673,2|0|0|0,0:0|0:0|1:2|0:0,0:0:0:0:
391,364,57319,6,0,B|349:350|349:350|204:388,1,150,0|2,1:2|0:0,0:0:0:0:
246,376,57653,2,0,L|258:293,1,75,8|0,0:0|0:0,0:0:0:0:
305,233,57819,6,0,B|263:219|263:219|118:257,1,150,0|2,1:2|0:0,0:0:0:0:
160,245,58153,2,0,L|171:161,1,75,8|0,0:0|0:0,0:0:0:0:
218,101,58319,6,0,B|176:87|176:87|31:125,1,150,0|2,1:2|0:0,0:0:0:0:
73,113,58653,2,0,L|84:29,1,75,8|0,0:0|0:0,0:0:0:0:
218,101,58819,5,0,1:2:0:0:
234,228,58986,5,2,0:0:0:0:
236,253,59069,1,0,0:0:0:0:
239,278,59152,1,8,0:0:0:0:
242,303,59236,1,0,3:0:0:0:
245,328,59319,2,0,L|250:391,2,56.2500021457673,2|0|0,1:2|3:0|3:0,0:0:0:0:
111,277,59569,1,0,1:2:0:0:
103,298,59653,6,0,B|55:313|18:276|19:248|19:248|34:75,1,269.999991760254,14|0,3:0|0:0,0:0:0:0:
32,91,59986,6,0,L|173:63,1,134.999995880127,6|10,1:2|3:0,0:0:0:0:
164,64,60236,1,0,1:2:0:0:
164,64,60319,1,8,0:0:0:0:
351,176,60486,6,0,L|210:148,1,134.999995880127,2|8,1:2|3:0,0:0:0:0:
219,150,60736,1,0,1:2:0:0:
219,150,60819,1,10,0:0:0:0:
36,269,60986,6,0,L|177:241,1,134.999995880127,0|10,1:2|3:0,0:0:0:0:
168,242,61236,1,0,1:2:0:0:
168,242,61319,1,8,0:0:0:0:
355,354,61486,6,0,L|214:326,1,134.999995880127,2|8,1:2|3:0,0:0:0:0:
223,328,61736,1,0,1:2:0:0:
223,328,61819,1,10,0:0:0:0:
150,214,61986,5,0,1:2:0:0:
144,247,62069,1,0,0:0:0:0:
139,280,62152,1,10,3:0:0:0:
134,314,62236,1,0,1:2:0:0:
129,347,62319,2,0,L|57:360,3,56.2500021457673,0|0|2|0,0:0|0:0|1:2|0:0,0:0:0:0:
45,271,62653,6,0,B|13:226|13:226|40:117,1,134.999995880127,4|10,1:2|3:0,0:0:0:0:
32,148,62903,1,0,1:2:0:0:
32,148,62986,1,8,0:0:0:0:
188,186,63153,6,0,B|220:141|220:141|193:32,1,134.999995880127,2|8,1:2|3:0,0:0:0:0:
201,64,63403,1,0,1:2:0:0:
201,64,63486,1,10,0:0:0:0:
311,353,63653,6,0,B|279:308|279:308|306:199,1,134.999995880127,0|10,1:2|3:0,0:0:0:0:
298,230,63903,1,0,1:2:0:0:
298,230,63986,1,8,0:0:0:0:
454,268,64153,6,0,B|486:223|486:223|459:114,1,134.999995880127,2|8,1:2|3:0,0:0:0:0:
467,146,64403,1,0,1:2:0:0:
467,146,64486,1,10,0:0:0:0:
271,115,64653,6,0,L|197:100,1,67.4999979400635,0|0,1:2|0:0,0:0:0:0:
207,186,64819,1,8,3:0:0:0:
209,197,64903,1,0,1:2:0:0:
210,207,64986,1,0,1:2:0:0:
211,218,65069,1,0,1:2:0:0:
213,228,65153,1,0,1:2:0:0:
214,239,65236,1,0,1:2:0:0:
190,273,65319,6,0,B|428:255|284:16|514:-1,1,450.000017166138,6|2,1:2|0:0,0:0:0:0:
443,352,67986,2,0,B|206:300|113:75|113:75|57:298,1,675.000025749207,2|2,0:0|0:0,0:0:0:0:
58,293,70653,6,0,B|143:147|346:158|346:158|310:287,1,450.000017166138,2|2,0:0|0:0,0:0:0:0:
315,267,73319,2,0,B|240:148|301:40|436:27|487:150|445:268,1,450.000017166138,2|2,0:0|0:0,0:0:0:0:
487,355,75986,6,0,P|459:314|455:254,1,75,6|0,0:0|0:0,0:0:0:0:
454,290,76319,2,0,L|367:357,1,75,10|2,0:0|0:0,0:0:0:0:
394,335,76986,2,0,L|327:248,1,75,10|2,0:0|0:0,0:0:0:0:
348,275,77653,2,0,L|281:362,1,75,10|0,0:0|0:0,0:0:0:0:
302,334,78319,2,0,P|272:297|213:285,1,75,10|2,0:0|0:0,0:0:0:0:
141,233,78653,6,0,L|235:211,1,75,2|0,0:0|0:0,0:0:0:0:
214,215,78986,2,0,P|195:174|142:156,1,75,10|2,0:0|0:0,0:0:0:0:
170,159,79653,2,0,P|189:117|242:99,1,75,10|2,0:0|0:0,0:0:0:0:
212,102,80319,2,0,P|192:60|139:42,1,75,10|0,0:0|0:0,0:0:0:0:
168,45,80653,2,0,L|270:19,1,75,2|0,0:0|0:0,0:0:0:0:
323,56,80986,2,0,B|300:98|300:98|314:184,1,112.5,10|0,0:0|0:0,0:0:0:0:
310,161,81319,6,0,L|401:169,1,75,2|0,0:0|0:0,0:0:0:0:
384,167,81653,2,0,L|481:157,1,75,10|2,0:0|0:0,0:0:0:0:
230,187,82319,2,0,L|327:177,1,75,10|2,0:0|0:0,0:0:0:0:
77,206,82986,2,0,L|174:196,1,75,10|0,0:0|0:0,0:0:0:0:
151,198,83653,2,0,L|66:187,1,75,10|2,0:0|0:0,0:0:0:0:
120,110,83986,6,0,B|106:68|106:68|123:9,1,75,2|0,0:0|0:0,0:0:0:0:
114,38,84319,2,0,L|51:98,1,75,10|2,0:0|0:0,0:0:0:0:
59,89,84986,2,0,L|122:148,1,75,10|2,0:0|0:0,0:0:0:0:
148,207,85319,6,0,B|137:242|137:242|150:288,1,75,2|2,0:0|0:0,0:0:0:0:
147,278,85653,2,0,L|49:298,1,75,10|0,0:0|0:0,0:0:0:0:
303,384,85986,6,0,B|292:349|292:349|305:303,1,75,2|0,0:0|0:0,0:0:0:0:
302,313,86320,2,0,L|204:293,1,75,10|0,0:0|1:0,0:0:0:0:
119,282,86653,5,8,1:2:0:0:
121,208,86819,1,2,0:0:0:0:
128,134,86986,1,8,1:2:0:0:
128,134,87069,2,0,L|131:40,1,75,2|0,0:0|0:0,0:0:0:0:
132,35,87319,2,0,B|170:42|170:42|225:26,1,75,10|0,1:2|0:0,0:0:0:0:
229,25,87569,1,2,1:2:0:0:
264,170,87736,2,0,L|252:111,2,37.5,0|2|2,0:0|1:2|0:0,0:0:0:0:
338,94,87986,5,8,1:2:0:0:
338,94,88069,1,0,0:0:0:0:
338,94,88153,2,0,L|358:187,1,75,2|8,0:0|1:2,0:0:0:0:
353,167,88403,2,0,L|444:152,1,75,2|0,0:0|0:0,0:0:0:0:
440,169,88653,1,10,1:2:0:0:
497,246,88819,1,0,0:0:0:0:
497,246,88903,1,2,1:2:0:0:
422,333,89069,2,0,L|427:269,2,37.5,0|2|0,0:0|1:2|0:0,0:0:0:0:
434,364,89319,6,0,L|350:378,1,75,10|2,1:2|0:0,0:0:0:0:
249,342,89653,1,8,1:2:0:0:
249,342,89736,1,2,0:0:0:0:
167,353,89903,1,0,0:0:0:0:
167,353,89986,1,10,1:2:0:0:
85,366,90153,1,0,0:0:0:0:
85,366,90236,1,2,1:2:0:0:
0,383,90403,1,0,0:0:0:0:
0,383,90486,2,0,L|8:324,1,37.5,2|2,1:2|0:0,0:0:0:0:
56,284,90653,6,0,L|42:189,1,75,10|2,1:2|0:0,0:0:0:0:
118,123,90986,1,8,1:2:0:0:
118,123,91069,1,2,0:0:0:0:
200,112,91236,1,0,0:0:0:0:
200,112,91319,1,10,1:2:0:0:
282,99,91486,1,0,0:0:0:0:
282,99,91569,1,2,1:2:0:0:
367,82,91736,1,0,0:0:0:0:
367,82,91819,2,0,L|359:141,1,37.5,2|2,1:2|0:0,0:0:0:0:
417,225,91986,5,10,1:2:0:0:
417,256,92069,1,0,1:0:0:0:
410,287,92152,1,2,1:2:0:0:
395,315,92235,1,0,1:0:0:0:
374,339,92319,1,8,1:2:0:0:
348,357,92402,1,2,1:2:0:0:
318,368,92485,1,0,1:0:0:0:
286,371,92569,1,0,1:0:0:0:
255,367,92653,2,0,L|264:305,3,37.5,10|0|0|2,1:2|1:0|1:0|1:2,0:0:0:0:
184,328,92987,2,0,L|193:266,3,37.5,8|0|2|0,1:2|1:0|1:2|1:0,0:0:0:0:
320,263,93319,5,8,1:2:0:0:
322,244,93402,1,0,1:0:0:0:
324,225,93485,1,2,1:2:0:0:
326,207,93568,1,0,1:0:0:0:
329,188,93653,2,0,L|321:132,3,37.5,8|2|0|0,1:2|1:2|1:0|1:0,0:0:0:0:
310,76,93985,1,10,1:2:0:0:
308,57,94068,1,0,1:0:0:0:
305,38,94152,1,0,1:0:0:0:
303,20,94235,1,2,1:2:0:0:
302,0,94319,2,0,L|269:232,1,225.000008583069,12|2,1:2|0:0,0:0:0:0:
256,192,95153,12,6,96653,3:0:0:0:
222,199,97319,6,0,L|233:38,1,134.999995880127,6|0,1:2|0:0,0:0:0:0:
331,71,97569,1,0,3:0:0:0:
331,71,97653,2,0,L|322:205,1,134.999995880127,10|2,1:2|3:0,0:0:0:0:
488,321,97986,6,0,B|407:326|446:372|348:373,1,134.999995880127,2|0,1:2|3:0,0:0:0:0:
334,291,98236,1,0,0:0:0:0:
334,291,98319,2,0,L|200:274,1,134.999995880127,10|2,1:2|0:0,0:0:0:0:
106,384,98653,2,0,P|79:319|7:292,1,134.999995880127,2|2,1:2|0:0,0:0:0:0:
50,141,98986,2,0,L|45:62,2,67.4999979400635,10|2|2,1:2|0:0|1:2,0:0:0:0:
83,219,99236,1,2,0:0:0:0:
83,219,99319,6,0,B|91:134|91:134|84:121|84:121|92:10,1,179.999994506836,2|2,0:0|0:0,0:0:0:0:
170,205,99653,2,0,B|178:120|178:120|171:107|171:107|179:-4,1,179.999994506836,2|2,0:0|0:0,0:0:0:0:
367,15,99986,6,0,P|285:42|266:92,1,134.999995880127,6|0,1:2|0:0,0:0:0:0:
264,167,100236,1,0,3:0:0:0:
264,167,100319,2,0,P|291:249|348:275,1,134.999995880127,10|2,1:2|3:0,0:0:0:0:
457,333,100653,6,0,B|433:283|433:283|452:161,1,134.999995880127,2|0,1:2|3:0,0:0:0:0:
357,185,100903,1,0,0:0:0:0:
357,185,100986,2,0,L|334:43,1,134.999995880127,10|2,1:2|0:0,0:0:0:0:
230,346,101319,6,0,P|242:295|349:271,1,150,2|2,1:2|0:0,0:0:0:0:
374,342,101819,5,2,1:2:0:0:
374,342,101903,1,0,1:2:0:0:
374,342,101986,2,0,L|289:350,1,56.2500021457673,8|0,0:0|0:0,0:0:0:0:
415,207,102153,2,0,L|500:215,1,56.2500021457673,0|0,1:2|0:0,0:0:0:0:
479,341,102319,2,0,P|485:240|449:85,1,225,10|0,0:0|0:0,0:0:0:0:
385,9,102653,6,0,L|225:35,1,150,6|0,1:2|0:0,0:0:0:0:
137,38,102903,1,0,3:0:0:0:
137,38,102986,2,0,B|170:102|118:103|159:184,1,134.999995880127,10|2,1:2|3:0,0:0:0:0:
152,169,103319,6,0,L|324:180,1,134.999995880127,2|0,1:2|3:0,0:0:0:0:
145,254,103569,1,0,0:0:0:0:
145,254,103653,2,0,L|317:265,1,134.999995880127,10|2,1:2|0:0,0:0:0:0:
334,353,103986,6,0,B|393:335|393:335|480:353,1,134.999995880127,2|2,1:2|0:0,0:0:0:0:
485,261,104320,1,10,1:2:0:0:
485,261,104403,2,0,B|497:112,1,134.999995880127
426,51,104653,5,0,1:2:0:0:
405,62,104736,1,0,0:0:0:0:
384,74,104819,1,2,3:0:0:0:
363,86,104902,1,0,0:0:0:0:
342,98,104986,2,0,L|356:167,3,67.4999979400635,10|0|2|0,1:2|0:0|0:0|0:0,0:0:0:0:
224,163,105319,6,0,B|204:205|204:205|248:299|354:246,1,202.499993820191,2|0,1:2|3:0,0:0:0:0:
332,255,105653,1,2,0:0:0:0:
263,83,105819,1,0,1:2:0:0:
443,146,105986,2,0,L|336:167,1,89.9999972534181,10|0,0:0|0:0,0:0:0:0:
376,339,106319,2,0,L|269:360,1,89.9999972534181,2|0,0:0|1:2,0:0:0:0:
144,334,106653,6,0,P|111:320|64:326,1,67.4999979400635,2|0,1:2|0:0,0:0:0:0:
2,346,106819,2,0,L|11:259,1,67.4999979400635,2|0,0:0|3:0,0:0:0:0:
226,228,106986,6,0,P|193:214|146:220,1,67.4999979400635,2|0,0:0|0:0,0:0:0:0:
84,240,107152,2,0,L|93:153,1,67.4999979400635,2|0,1:2|0:0,0:0:0:0:
175,93,107319,6,0,L|356:103,1,134.999995880127,10|2,0:0|0:0,0:0:0:0:
309,100,107569,2,0,L|399:104,1,67.4999979400635,0|10,3:0|0:0,0:0:0:0:
462,245,107819,1,2,1:2:0:0:
462,245,107903,1,2,0:0:0:0:
462,245,107986,6,0,B|389:262|403:208|311:229,1,134.999995880127,14|0,3:0|0:0,0:0:0:0:
246,244,108319,6,0,P|238:160|177:109,1,134.999995880127,14|0,1:2|3:0,0:0:0:0:
84,172,108653,2,0,P|92:256|153:307,1,134.999995880127,2|2,1:2|0:0,0:0:0:0:
135,377,108903,1,2,1:2:0:0:
135,377,108986,2,0,L|197:352,2,67.4999979400635,10|0|2,3:2|0:0|1:2,0:0:0:0:
236,230,109319,6,0,B|160:229|195:293|104:293,1,134.999995880127,2|0,1:2|3:0,0:0:0:0:
354,246,109569,1,0,3:0:0:0:
354,246,109653,2,0,B|430:247|395:183|486:183,1,134.999995880127,10|0,3:2|3:0,0:0:0:0:
467,184,109986,6,0,B|439:121|439:121|457:49,1,134.999995880127,2|2,1:2|3:0,0:0:0:0:
512,0,110236,1,2,1:2:0:0:
512,0,110319,2,0,L|371:12,1,134.999995880127,10|2,3:2|1:2,0:0:0:0:
326,202,110653,6,0,B|349:165|349:165|319:32,1,134.999995880127,2|2,1:2|3:0,0:0:0:0:
182,76,110903,1,2,0:0:0:0:
182,76,110986,2,0,B|162:165|162:165|186:202,1,134.999995880127,10|2,1:2|0:0,0:0:0:0:
408,263,111319,2,0,P|343:302|307:369,1,134.999995880127,2|2,1:2|3:0,0:0:0:0:
199,352,111569,1,2,3:2:0:0:
199,352,111653,2,0,P|161:296|104:263,1,134.999995880127,10|2,0:0|3:2,0:0:0:0:
326,203,111986,5,2,1:2:0:0:
185,202,112153,1,2,0:0:0:0:
199,352,112319,1,10,1:2:0:0:
313,352,112486,1,2,3:0:0:0:
252,274,112653,6,0,L|247:240,2,18.75,0|0|2,0:0|0:0|0:0,0:0:0:0:
333,237,112903,1,0,0:0:0:0:
333,237,112986,2,0,B|216:228|257:361|96:335,1,225,2|0,1:2|0:0,0:0:0:0:
52,287,113319,6,0,B|21:242|21:242|48:116,1,150,2|0,1:2|1:0,0:0:0:0:
51,70,113569,1,0,1:0:0:0:
51,70,113653,2,0,B|124:94|124:94|206:58,1,150,10|0,1:2|1:0,0:0:0:0:
190,64,113986,6,0,B|256:34|256:34|329:58,1,150,2|2,1:2|1:2,0:0:0:0:
415,103,114236,1,0,1:0:0:0:
415,103,114319,2,0,L|404:11,2,75,10|0|2,1:2|1:0|1:2,0:0:0:0:
259,132,114653,6,0,B|236:188|236:188|271:285|271:285|245:362,1,225,2|0,1:2|1:2,0:0:0:0:
251,343,114986,6,0,L|317:326,1,37.5,10|0,1:2|1:2,0:0:0:0:
244,269,115153,2,0,L|310:252,1,37.5,2|0,1:2|1:2,0:0:0:0:
371,175,115319,6,0,L|437:192,1,37.5,2|0,1:2|1:2,0:0:0:0:
364,249,115486,2,0,L|430:266,1,37.5,2|0,1:2|1:2,0:0:0:0:
455,383,115653,5,10,1:2:0:0:
458,354,115735,1,0,1:2:0:0:
465,326,115819,1,2,1:2:0:0:
469,297,115902,1,0,1:2:0:0:
475,269,115986,6,0,P|390:246|379:156,1,168.750006437302,2|0,1:2|1:0,0:0:0:0:
413,99,116319,2,0,L|240:118,1,168.750006437302,10|0,1:2|1:0,0:0:0:0:
233,0,116653,6,0,P|148:23|137:113,1,168.750006437302,2|0,1:2|1:0,0:0:0:0:
171,170,116986,2,0,L|-2:151,1,168.750006437302,10|0,1:2|1:0,0:0:0:0:
37,260,117319,5,2,1:2:0:0:
42,289,117402,1,0,1:0:0:0:
47,319,117485,1,0,1:0:0:0:
52,348,117568,1,0,1:0:0:0:
58,378,117653,1,10,1:2:0:0:
78,356,117736,1,0,1:0:0:0:
99,335,117819,1,0,1:0:0:0:
120,314,117902,1,0,1:0:0:0:
141,291,117986,5,2,1:2:0:0:
225,316,118153,2,0,L|238:380,2,56.2500021457673,0|0|10,1:0|1:0|1:2,0:0:0:0:
195,146,118486,1,6,1:2:0:0:
