osu file format v14

[General]
AudioFilename: audio.mp3
AudioLeadIn: 0
PreviewTime: 86816
Countdown: 0
SampleSet: Normal
StackLeniency: 0.7
Mode: 1
LetterboxInBreaks: 0
WidescreenStoryboard: 1

[Editor]
Bookmarks: 1553,20500,33131,45763,61552,74184,80500,88395,94710,101026,107342,113658
DistanceSpacing: 2.2
BeatDivisor: 6
GridSize: 32
TimelineZoom: 2.4

[Metadata]
Title:YInMn Blue
TitleUnicode:YInMn Blue
Artist:siqlo
ArtistUnicode:siqlo
Creator:gaston_2199
Version:Oni
Source:
Tags:bms hi-tech psytrance BOFU2017 electronic instrumental
BeatmapID:2564433
BeatmapSetID:1233593

[Difficulty]
HPDrainRate:5
CircleSize:2
OverallDifficulty:6
ApproachRate:10
SliderMultiplier:1.4
SliderTickRate:1

[Events]
//Background and Video events
0,0,"BG.jpg",0,0
//Break Periods
//Storyboard Layer 0 (Background)
//Storyboard Layer 1 (Fail)
//Storyboard Layer 2 (Pass)
//Storyboard Layer 3 (Foreground)
//Storyboard Layer 4 (Overlay)
//Storyboard Sound Samples

[TimingPoints]
39,394.736842105263,4,1,0,70,1,0
39,-133.333333333333,4,1,0,70,0,0
1354,-83.3333333333333,4,1,0,80,0,0
1611,394.736842105263,4,1,0,80,1,0
1611,-83.3333333333333,4,1,0,80,0,0
2397,-86.9565217391304,4,1,0,80,0,0
2792,-100,4,1,0,80,0,0
3186,-50,4,1,0,80,0,0
4371,-83.3333333333333,4,1,0,80,0,0
5554,-100,4,1,0,80,0,0
6643,-97.8260869565217,4,1,0,80,0,0
6742,-95.7446808510638,4,1,0,80,0,0
6936,-93.75,4,1,0,80,0,0
7134,-91.8367346938776,4,1,0,80,0,0
7331,-90,4,1,0,80,0,0
7430,-88.2352941176471,4,1,0,80,0,0
7529,-86.5384615384615,4,1,0,80,0,0
7726,-84.9056603773585,4,1,0,80,0,0
7923,-83.3333333333333,4,1,0,80,0,0
8713,-86.9565217391304,4,1,0,80,0,0
9108,-100,4,1,0,80,0,0
9502,-83.4413899332969,4,1,0,80,0,0
10292,-86.9565217391304,4,1,0,80,0,0
10687,-100,4,1,0,80,0,0
11081,-83.4413899332969,4,1,0,80,0,0
11871,-86.9565217391304,4,1,0,80,0,0
12265,-95.2380952380952,4,1,0,80,0,0
12463,-100,4,1,0,80,0,0
12660,-83.3333333333333,4,1,0,80,0,0
13647,-90.9090909090909,4,1,0,80,0,0
13844,-95.2380952380952,4,1,0,80,0,0
14042,-100,4,1,0,80,0,0
14239,-83.3333333333333,4,1,0,80,0,0
14535,-82.5688073394495,4,1,0,80,0,0
14831,-81.8181818181818,4,1,0,80,0,0
15127,-81.0810810810811,4,1,0,80,0,0
15423,-80.3571428571429,4,1,0,80,0,0
15719,-79.646017699115,4,1,0,80,0,0
16015,-78.9473684210526,4,1,0,80,0,0
16311,-78.2608695652174,4,1,0,80,0,0
16607,-77.5862068965517,4,1,0,80,0,0
16904,-76.9230769230769,4,1,0,80,0,0
17200,-76.271186440678,4,1,0,80,0,0
17397,-75.6302521008403,4,1,0,80,0,0
17496,-75,4,1,0,80,0,0
17594,-74.3801652892562,4,1,0,80,0,0
17693,-73.7704918032787,4,1,0,80,0,0
17792,-73.1707317073171,4,1,0,80,0,0
17989,-72,4,1,0,80,0,0
18186,-70.8661417322835,4,1,0,80,0,0
18285,-70.3125,4,1,0,80,0,0
18384,-69.7674418604651,4,1,0,80,0,0
18482,-69.2307692307692,4,1,0,80,0,0
18581,-68.7022900763359,4,1,0,80,0,0
18680,-68.1818181818182,4,1,0,80,0,0
18779,-67.6691729323308,4,1,0,80,0,0
18976,-66.6666666666667,4,1,0,80,0,0
19469,-83.3333333333333,4,1,0,80,0,0
19667,-85.3658536585366,4,1,0,80,0,0
19864,-87.5,4,1,0,80,0,0
19963,-89.7435897435897,4,1,0,80,0,0
20160,-92.1052631578947,4,1,0,80,0,0
20262,-94.5945945945946,4,1,0,80,0,0
20357,-97.2222222222222,4,1,0,80,0,0
20555,-100,4,1,0,80,0,0
22726,-83.3333333333333,4,1,0,80,0,0
22923,-100,4,1,0,80,0,0
23713,-83.3333333333333,4,1,0,80,0,0
23910,-100,4,1,0,80,0,0
26279,-105.263157894737,4,1,0,80,0,0
26476,-108.108108108108,4,1,0,80,0,0
26673,-111.111111111111,4,1,0,80,0,0
26871,-83.3333333333333,4,1,0,80,0,0
27265,-100,4,1,0,80,0,0
29042,-83.3333333333333,4,1,0,80,0,0
29239,-100,4,1,0,80,0,0
32792,-111.111111111111,4,1,0,80,0,0
33186,-83.3333333333333,4,1,0,80,0,0
33581,-100,4,1,0,80,0,0
35357,-83.3333333333333,4,1,0,80,0,0
35554,-100,4,1,0,80,0,0
36344,-83.3333333333333,4,1,0,80,0,0
36541,-100,4,1,0,80,0,0
38910,-102.040816326531,4,1,0,80,0,0
39107,-104.166666666667,4,1,0,80,0,0
39206,-106.382978723404,4,1,0,80,0,0
39305,-108.695652173913,4,1,0,80,0,0
39502,-111.111111111111,4,1,0,80,0,0
39897,-83.3333333333333,4,1,0,80,0,0
40094,-100,4,1,0,80,0,0
41673,-83.3333333333333,4,1,0,80,0,0
41870,-100,4,1,0,80,0,0
43055,-83.3333333333333,4,1,0,80,0,0
43252,-100,4,1,0,80,0,0
43844,-83.3333333333333,4,1,0,80,0,0
44042,-100,4,1,0,80,0,0
44831,-83.3333333333333,4,1,0,80,0,0
45029,-85.1063829787234,4,1,0,80,0,0
45127,-86.9565217391304,4,1,0,80,0,0
45226,-88.8888888888889,4,1,0,80,0,0
45325,-90.9090909090909,4,1,0,80,0,0
45423,-93.0232558139535,4,1,0,80,0,0
45522,-95.2380952380952,4,1,0,80,0,0
45621,-97.5609756097561,4,1,0,80,0,0
45818,-100,4,1,0,80,0,0
47594,-101.694915254237,4,1,0,80,0,0
47693,-103.448275862069,4,1,0,80,0,0
47890,-105.263157894737,4,1,0,80,0,0
47989,-107.142857142857,4,1,0,80,0,0
48088,-109.090909090909,4,1,0,80,0,0
48186,-111.111111111111,4,1,0,80,0,0
48581,-83.3333333333333,4,1,0,80,0,0
60226,-84.8484848484848,4,1,0,80,0,0
60325,-86.4197530864198,4,1,0,80,0,0
60423,-88.0503144654088,4,1,0,80,0,0
60522,-89.7435897435897,4,1,0,80,0,0
60621,-91.5032679738562,4,1,0,80,0,0
60818,-93.3333333333333,4,1,0,80,0,0
60917,-95.2380952380952,4,1,0,80,0,0
61015,-97.2222222222222,4,1,0,80,0,0
61114,-99.290780141844,4,1,0,80,0,0
61213,-101.449275362319,4,1,0,80,0,0
61311,-103.703703703704,4,1,0,80,0,0
61410,-106.060606060606,4,1,0,80,0,0
61509,-108.527131782946,4,1,0,80,0,0
61607,-111.111111111111,4,1,0,80,0,0
62005,-111.111111111111,4,1,0,60,0,0
74239,-100,4,1,0,80,0,0
75423,-83.3333333333333,4,1,0,80,0,0
75818,-100,4,1,0,80,0,0
77002,-90.9090909090909,4,1,0,80,0,0
77101,-93.75,4,1,0,80,0,0
77200,-96.7741935483871,4,1,0,80,0,0
77400,-100,4,1,0,80,0,0
78581,-83.3333333333333,4,1,0,80,0,0
78976,-100,4,1,0,80,0,0
80555,-99.4764397905759,4,1,0,80,0,0
80654,-98.9583333333333,4,1,0,80,0,0
80752,-98.4455958549223,4,1,0,80,0,0
80851,-97.9381443298969,4,1,0,80,0,0
80950,-97.4358974358974,4,1,0,80,0,0
81147,-96.9387755102041,4,1,0,80,0,0
81344,-96.4467005076142,4,1,0,80,0,0
81443,-95.959595959596,4,1,0,80,0,0
81542,-95.4773869346734,4,1,0,80,0,0
81739,-95,4,1,0,80,0,0
81936,-94.5273631840796,4,1,0,80,0,0
82134,-94.0594059405941,4,1,0,80,0,0
82232,-93.5960591133005,4,1,0,80,0,0
82331,-93.1372549019608,4,1,0,80,0,0
82430,-92.6829268292683,4,1,0,80,0,0
82529,-92.2330097087379,4,1,0,80,0,0
82726,-91.7874396135266,4,1,0,80,0,0
82923,-91.3461538461538,4,1,0,80,0,0
83022,-90.9090909090909,4,1,0,80,0,0
83121,-90.4761904761905,4,1,0,80,0,0
83219,-90.0473933649289,4,1,0,80,0,0
83318,-89.622641509434,4,1,0,80,0,0
83515,-89.2018779342723,4,1,0,80,0,0
83614,-88.785046728972,4,1,0,80,0,0
83713,-88.3720930232558,4,1,0,80,0,0
83910,-87.962962962963,4,1,0,80,0,0
84107,-87.5576036866359,4,1,0,80,0,0
84206,-87.1559633027523,4,1,0,80,0,0
84305,-86.7579908675799,4,1,0,80,0,0
84404,-86.3636363636364,4,1,0,80,0,0
84505,-85.972850678733,4,1,0,80,0,0
84700,-85.5855855855856,4,1,0,80,0,0
84897,-85.2017937219731,4,1,0,80,0,0
84996,-84.8214285714286,4,1,0,80,0,0
85094,-84.4444444444445,4,1,0,80,0,0
85193,-84.070796460177,4,1,0,80,0,0
85292,-83.3333333333333,4,1,0,80,0,0
86871,-85.2713178294574,4,1,0,80,0,0
86969,-87.3015873015873,4,1,0,80,0,0
87167,-89.4308943089431,4,1,0,80,0,0
87265,-91.6666666666667,4,1,0,80,0,0
87364,-94.017094017094,4,1,0,80,0,0
87561,-96.4912280701754,4,1,0,80,0,0
87660,-99.0990990990991,4,1,0,80,0,0
87857,-101.851851851852,4,1,0,80,0,0
88055,-104.761904761905,4,1,0,80,0,0
88154,-107.843137254902,4,1,0,80,0,0
88252,-111.111111111111,4,1,0,80,0,0
88453,-100,4,1,0,90,0,1
94374,-103.448275862069,4,1,0,80,0,0
94472,-105.263157894737,4,1,0,80,0,0
94768,-100,4,1,0,90,0,1
100689,-100,4,1,0,80,0,0
101084,-100,4,1,0,90,0,1
101282,-98.7685536728074,4,1,0,90,0,1
101380,-98.1642307212813,4,1,0,90,0,1
101479,-97.5671627956895,4,1,0,90,0,1
101578,-96.9773140969133,4,1,0,90,0,1
101676,-96.3945544788284,4,1,0,90,0,1
101874,-95.2498880813815,4,1,0,90,0,1
102071,-94.1319994201469,4,1,0,90,0,1
102268,-93.0401328613097,4,1,0,90,0,1
102367,-92.5036007026573,4,1,0,90,0,1
102466,-91.9732210769512,4,1,0,90,0,1
102564,-91.4489723878973,4,1,0,90,0,1
102663,-90.9305835924855,4,1,0,90,0,1
102860,-89.9112396242429,4,1,0,90,0,1
102959,-89.4100901074888,4,1,0,90,0,1
103058,-88.9145753217596,4,1,0,90,0,1
103255,-87.9396874447629,4,1,0,90,0,1
103354,-87.4602165340041,4,1,0,90,0,1
103551,-86.5168655977796,4,1,0,90,0,1
103847,-85.1393518341145,4,1,0,90,0,1
104045,-84.2450756647147,4,1,0,90,0,1
104242,-83.3333333333333,4,1,0,90,0,1
104341,-83.9694720587383,4,1,0,90,0,1
104538,-85.271337660001,4,1,0,90,0,1
104637,-85.9375268554771,4,1,0,90,0,1
104735,-86.6142073284281,4,1,0,90,0,1
104834,-87.301552658114,4,1,0,90,0,1
105032,-88.7096559573413,4,1,0,90,0,1
105130,-89.4308797673366,4,1,0,90,0,1
105328,-90.9090909090909,4,1,0,90,0,1
105426,-91.6666743055562,4,1,0,90,0,1
105624,-93.2203626831431,4,1,0,90,0,1
105722,-94.0171261597012,4,1,0,90,0,1
105821,-94.8276270808737,4,1,0,90,0,1
106018,-96.4911942136161,4,1,0,90,0,1
106117,-97.3451068995291,4,1,0,90,0,1
106216,-98.2142681760236,4,1,0,90,0,1
106314,-99.0990901712531,4,1,0,90,0,1
106413,-100,4,1,0,90,0,1
106610,-83.3333333333333,4,1,0,90,0,1
107005,-103.448275862069,4,1,0,80,0,0
107101,-105.263157894737,4,1,0,80,0,0
107400,-100,4,1,0,90,0,1
107595,-98.7685536728074,4,1,0,90,0,1
107693,-98.1642307212813,4,1,0,90,0,1
107792,-97.5671627956895,4,1,0,90,0,1
107891,-96.9773140969133,4,1,0,90,0,1
107989,-96.3945544788284,4,1,0,90,0,1
108187,-95.2498880813815,4,1,0,90,0,1
108384,-94.1319994201469,4,1,0,90,0,1
108581,-93.0401328613097,4,1,0,90,0,1
108680,-92.5036007026573,4,1,0,90,0,1
108779,-91.9732210769512,4,1,0,90,0,1
108877,-91.4489723878973,4,1,0,90,0,1
108976,-90.9305835924855,4,1,0,90,0,1
109173,-89.9112396242429,4,1,0,90,0,1
109272,-89.4100901074888,4,1,0,90,0,1
109371,-88.9145753217596,4,1,0,90,0,1
109568,-87.9396874447629,4,1,0,90,0,1
109667,-87.4602165340041,4,1,0,90,0,1
109864,-86.5168655977796,4,1,0,90,0,1
110160,-85.1393518341145,4,1,0,90,0,1
110358,-84.2450756647147,4,1,0,90,0,1
110555,-83.3333333333333,4,1,0,90,0,1
112134,-84.8982918463681,4,1,0,90,0,1
112232,-85.7030218885518,4,1,0,90,0,1
112331,-86.5231535959023,4,1,0,90,0,1
112430,-87.3591333973967,4,1,0,90,0,1
112529,-88.211347331298,4,1,0,90,0,1
112726,-89.9668112433323,4,1,0,90,0,1
112923,-91.7935636189062,4,1,0,90,0,1
113022,-92.7350439239536,4,1,0,90,0,1
113219,-94.6771556331487,4,1,0,90,0,1
113318,-95.6790389231898,4,1,0,90,0,1
113515,-97.7477930992013,4,1,0,90,0,1
113716,-100,4,1,0,80,0,0
115884,-83.3333333333333,4,1,0,80,0,0
116081,-100,4,1,0,80,0,0
116871,-83.3333333333333,4,1,0,80,0,0
117068,-100,4,1,0,80,0,0
119439,-105.263157894737,4,1,0,80,0,0
119636,-108.108108108108,4,1,0,80,0,0
119833,-111.111111111111,4,1,0,80,0,0
120031,-83.3333333333333,4,1,0,80,0,0
120425,-100,4,1,0,80,0,0
122202,-83.3333333333333,4,1,0,80,0,0
122399,-100,4,1,0,80,0,0
125952,-111.111111111111,4,1,0,80,0,0
126346,-83.3333333333333,4,1,0,80,0,0

[HitObjects]
256,192,39,12,0,1223,0:0:0:0:
378,61,1420,5,8,0:0:0:0:
378,61,1611,1,4,0:0:0:0:
318,92,1907,1,4,0:0:0:0:
243,101,2203,1,4,0:0:0:0:
243,101,2400,1,8,0:0:0:0:
229,9,2795,1,0,0:0:0:0:
256,192,3189,12,0,4176,0:0:0:0:
234,67,4374,5,0,0:0:0:0:
234,67,4472,1,0,0:0:0:0:
234,67,4571,1,8,0:0:0:0:
234,67,4768,1,4,0:0:0:0:
234,67,5064,1,4,0:0:0:0:
234,67,5360,1,4,0:0:0:0:
234,67,5953,1,0,0:0:0:0:
244,59,6150,1,8,0:0:0:0:
244,59,6249,1,0,0:0:0:0:
449,186,6347,1,8,0:0:0:0:
386,150,6643,1,0,0:0:0:0:
359,135,6742,1,8,0:0:0:0:
310,108,6939,1,0,0:0:0:0:
289,97,7137,1,8,0:0:0:0:
244,59,7334,1,0,0:0:0:0:
244,59,7433,1,0,0:0:0:0:
289,97,7532,1,8,0:0:0:0:
289,97,7729,1,8,0:0:0:0:
289,97,7926,1,4,0:0:0:0:
289,97,8222,1,4,0:0:0:0:
289,97,8518,1,4,0:0:0:0:
257,69,8716,1,8,0:0:0:0:
257,69,9110,1,0,0:0:0:0:
257,69,9505,1,4,0:0:0:0:
257,69,9801,1,4,0:0:0:0:
257,69,10097,1,4,0:0:0:0:
257,69,10295,1,8,0:0:0:0:
257,69,10689,1,8,0:0:0:0:
257,69,11084,1,4,0:0:0:0:
257,69,11380,1,4,0:0:0:0:
257,69,11676,1,4,0:0:0:0:
20,150,11972,1,8,0:0:0:0:
257,69,12268,1,0,0:0:0:0:
257,69,12466,1,0,0:0:0:0:
257,69,12663,1,12,0:0:0:0:
257,69,12959,1,12,0:0:0:0:
257,69,13255,1,12,0:0:0:0:
257,69,13650,1,0,0:0:0:0:
257,69,13847,1,8,0:0:0:0:
257,69,14045,1,0,0:0:0:0:
257,69,14242,1,12,0:0:0:0:
257,69,14538,1,12,0:0:0:0:
257,69,14834,1,12,0:0:0:0:
257,69,15130,1,12,0:0:0:0:
257,69,15426,1,12,0:0:0:0:
257,69,15722,1,12,0:0:0:0:
257,69,16018,1,12,0:0:0:0:
257,69,16314,1,12,0:0:0:0:
257,69,16610,1,12,0:0:0:0:
257,69,16907,1,12,0:0:0:0:
257,69,17203,1,12,0:0:0:0:
257,69,17400,1,8,0:0:0:0:
257,69,17499,1,8,0:0:0:0:
257,69,17597,1,8,0:0:0:0:
257,69,17696,1,8,0:0:0:0:
257,69,17795,1,8,0:0:0:0:
257,69,17992,1,8,0:0:0:0:
257,69,18189,1,8,0:0:0:0:
257,69,18288,1,8,0:0:0:0:
257,69,18387,1,8,0:0:0:0:
257,69,18485,1,8,0:0:0:0:
257,69,18584,1,8,0:0:0:0:
257,69,18683,1,8,0:0:0:0:
257,69,18782,1,8,0:0:0:0:
257,69,18979,1,0,0:0:0:0:
257,69,19472,1,8,0:0:0:0:
257,69,19670,1,8,0:0:0:0:
257,69,19867,1,0,0:0:0:0:
257,69,19966,1,8,0:0:0:0:
257,69,20163,1,8,0:0:0:0:
257,69,20262,1,8,0:0:0:0:
257,69,20360,1,0,0:0:0:0:
257,69,20558,1,12,0:0:0:0:
304,145,20953,1,8,0:0:0:0:
276,100,21150,1,8,0:0:0:0:
276,100,21249,1,0,0:0:0:0:
246,98,21446,1,8,0:0:0:0:
243,73,21643,1,0,0:0:0:0:
249,123,21742,1,8,0:0:0:0:
276,100,21939,1,8,0:0:0:0:
276,100,22137,1,0,0:0:0:0:
276,100,22532,1,8,0:0:0:0:
276,100,22729,1,4,0:0:0:0:
276,100,23025,1,8,0:0:0:0:
276,100,23124,1,0,0:0:0:0:
276,100,23321,1,8,0:0:0:0:
276,100,23518,1,8,0:0:0:0:
276,100,23716,1,4,0:0:0:0:
276,100,24012,1,0,0:0:0:0:
263,88,24110,1,8,0:0:0:0:
276,100,24308,1,0,0:0:0:0:
260,114,24407,1,8,0:0:0:0:
260,114,24505,1,0,0:0:0:0:
260,114,24703,1,0,0:0:0:0:
260,114,24900,1,8,0:0:0:0:
260,114,25097,1,8,0:0:0:0:
260,114,25295,1,0,0:0:0:0:
260,114,25492,1,8,0:0:0:0:
260,114,25591,1,8,0:0:0:0:
260,114,25689,1,0,0:0:0:0:
260,114,25887,1,12,0:0:0:0:
260,114,26282,1,0,0:0:0:0:
260,114,26479,1,8,0:0:0:0:
240,78,26676,1,8,0:0:0:0:
221,44,26874,1,4,0:0:0:0:
254,62,27268,1,8,0:0:0:0:
233,23,27466,1,8,0:0:0:0:
254,62,27564,1,0,0:0:0:0:
236,27,27762,1,8,0:0:0:0:
236,27,27959,1,0,0:0:0:0:
254,62,28058,1,8,0:0:0:0:
234,25,28255,1,8,0:0:0:0:
231,19,28453,1,0,0:0:0:0:
231,19,28847,1,8,0:0:0:0:
231,19,29045,1,4,0:0:0:0:
231,19,29341,1,8,0:0:0:0:
231,19,29439,1,0,0:0:0:0:
231,19,29637,1,8,0:0:0:0:
231,19,29834,1,8,0:0:0:0:
226,46,29933,1,8,0:0:0:0:
231,19,30032,1,0,0:0:0:0:
262,85,30328,1,0,0:0:0:0:
262,85,30426,1,8,0:0:0:0:
262,85,30624,1,0,0:0:0:0:
262,85,30722,1,0,0:0:0:0:
256,160,30920,1,8,0:0:0:0:
288,288,31117,1,0,0:0:0:0:
231,19,31216,1,8,0:0:0:0:
262,85,31413,1,8,0:0:0:0:
231,19,31610,1,0,0:0:0:0:
231,19,31907,1,0,0:0:0:0:
231,19,32005,1,8,0:0:0:0:
231,19,32203,1,12,0:0:0:0:
231,19,32795,1,4,0:0:0:0:
257,69,33189,1,12,0:0:0:0:
304,145,33584,1,8,0:0:0:0:
276,100,33782,1,0,0:0:0:0:
276,100,33880,1,0,0:0:0:0:
246,98,34078,1,8,0:0:0:0:
243,73,34176,1,0,0:0:0:0:
249,123,34374,1,8,0:0:0:0:
276,100,34571,1,8,0:0:0:0:
276,100,34768,1,0,0:0:0:0:
243,73,35064,1,0,0:0:0:0:
276,100,35163,1,8,0:0:0:0:
276,100,35360,1,4,0:0:0:0:
276,100,35657,1,8,0:0:0:0:
276,100,35755,1,0,0:0:0:0:
276,100,35953,1,8,0:0:0:0:
276,100,36150,1,8,0:0:0:0:
276,100,36347,1,4,0:0:0:0:
276,100,36643,1,0,0:0:0:0:
263,88,36742,1,8,0:0:0:0:
276,100,36939,1,0,0:0:0:0:
260,114,37038,1,8,0:0:0:0:
260,114,37137,1,0,0:0:0:0:
260,114,37334,1,0,0:0:0:0:
260,114,37532,1,8,0:0:0:0:
260,114,37729,1,8,0:0:0:0:
260,114,37926,1,0,0:0:0:0:
260,114,38124,1,8,0:0:0:0:
263,93,38222,1,8,0:0:0:0:
260,114,38321,1,0,0:0:0:0:
260,114,38518,1,12,0:0:0:0:
260,114,38913,1,8,0:0:0:0:
260,114,39110,1,8,0:0:0:0:
263,96,39209,1,0,0:0:0:0:
240,78,39308,1,8,0:0:0:0:
221,44,39505,1,0,0:0:0:0:
254,62,39900,1,12,0:0:0:0:
233,23,40097,1,0,0:0:0:0:
254,62,40196,1,0,0:0:0:0:
236,27,40393,1,8,0:0:0:0:
236,27,40492,1,0,0:0:0:0:
254,62,40591,1,0,0:0:0:0:
254,62,40689,1,8,0:0:0:0:
234,25,40887,1,8,0:0:0:0:
233,23,41084,1,0,0:0:0:0:
221,44,41183,1,0,0:0:0:0:
231,19,41282,1,8,0:0:0:0:
231,19,41479,1,8,0:0:0:0:
231,19,41676,1,4,0:0:0:0:
231,19,41972,1,8,0:0:0:0:
231,19,42071,1,0,0:0:0:0:
231,19,42268,1,8,0:0:0:0:
231,19,42466,1,8,0:0:0:0:
226,46,42564,1,8,0:0:0:0:
263,42,42663,1,0,0:0:0:0:
263,42,42762,1,0,0:0:0:0:
263,42,42860,1,0,0:0:0:0:
262,85,43058,1,12,0:0:0:0:
262,85,43453,1,0,0:0:0:0:
231,19,43551,1,0,0:0:0:0:
260,60,43650,1,0,0:0:0:0:
231,19,43847,1,12,0:0:0:0:
262,85,44045,1,0,0:0:0:0:
231,19,44242,1,0,0:0:0:0:
248,21,44341,1,8,0:0:0:0:
231,19,44439,1,0,0:0:0:0:
231,19,44538,1,0,0:0:0:0:
231,19,44637,1,8,0:0:0:0:
231,19,44834,1,12,0:0:0:0:
229,32,45032,1,0,0:0:0:0:
229,32,45130,1,0,0:0:0:0:
229,32,45229,1,8,0:0:0:0:
229,32,45328,1,8,0:0:0:0:
229,32,45426,1,0,0:0:0:0:
229,32,45525,1,0,0:0:0:0:
229,32,45624,1,0,0:0:0:0:
229,32,45821,1,12,0:0:0:0:
324,35,46216,1,0,0:0:0:0:
229,32,46610,1,12,0:0:0:0:
324,35,47005,1,0,0:0:0:0:
229,32,47400,1,12,0:0:0:0:
229,32,47597,1,0,0:0:0:0:
229,32,47696,1,8,0:0:0:0:
229,32,47893,1,8,0:0:0:0:
229,32,47992,1,0,0:0:0:0:
229,32,48091,1,0,0:0:0:0:
229,32,48189,1,0,0:0:0:0:
229,32,48584,1,12,0:0:0:0:
229,32,48979,1,4,0:0:0:0:
229,32,49374,1,4,0:0:0:0:
229,32,49768,1,4,0:0:0:0:
229,32,50064,1,4,0:0:0:0:
229,32,50360,1,4,0:0:0:0:
229,32,50558,1,4,0:0:0:0:
229,32,50953,1,4,0:0:0:0:
229,128,51347,1,4,0:0:0:0:
229,63,51742,1,12,0:0:0:0:
253,66,52137,1,4,0:0:0:0:
253,66,52532,1,4,0:0:0:0:
253,66,52926,1,4,0:0:0:0:
253,66,53222,1,4,0:0:0:0:
253,66,53518,1,4,0:0:0:0:
253,66,53716,1,4,0:0:0:0:
253,66,54110,1,4,0:0:0:0:
253,66,54505,1,4,0:0:0:0:
235,39,55295,5,12,0:0:0:0:
235,39,55689,1,12,0:0:0:0:
235,39,56084,1,12,0:0:0:0:
235,39,56380,1,12,0:0:0:0:
235,39,56676,1,12,0:0:0:0:
235,39,56874,1,12,0:0:0:0:
235,39,57268,1,12,0:0:0:0:
235,39,57663,1,12,0:0:0:0:
235,39,58058,1,4,0:0:0:0:
235,39,58453,1,12,0:0:0:0:
235,39,58847,1,12,0:0:0:0:
235,39,59242,1,12,0:0:0:0:
235,39,59538,1,12,0:0:0:0:
235,39,59834,1,12,0:0:0:0:
235,39,60032,1,0,0:0:0:0:
235,39,60229,1,0,0:0:0:0:
235,39,60328,1,8,0:0:0:0:
235,39,60426,1,0,0:0:0:0:
235,39,60624,1,8,0:0:0:0:
235,39,60821,1,8,0:0:0:0:
235,39,61018,1,0,0:0:0:0:
235,39,61117,1,8,0:0:0:0:
235,39,61216,1,0,0:0:0:0:
235,39,61314,1,0,0:0:0:0:
235,39,61413,1,8,0:0:0:0:
235,39,61610,1,4,0:0:0:0:
235,39,62203,1,0,0:0:0:0:
235,39,62795,1,8,0:0:0:0:
235,39,63189,1,8,0:0:0:0:
235,39,63782,1,0,0:0:0:0:
235,39,64374,1,8,0:0:0:0:
235,39,64768,1,0,0:0:0:0:
507,311,66347,1,0,0:0:0:0:
235,39,67137,1,8,0:0:0:0:
235,39,67926,1,8,0:0:0:0:
235,39,68518,1,0,0:0:0:0:
235,39,69110,1,8,0:0:0:0:
235,39,69505,1,0,0:0:0:0:
235,39,69900,1,0,0:0:0:0:
235,39,70295,1,8,0:0:0:0:
235,39,71084,1,0,0:0:0:0:
371,175,71874,1,8,0:0:0:0:
235,39,72663,1,0,0:0:0:0:
235,39,73453,1,12,0:0:0:0:
235,39,74242,1,4,0:0:0:0:
235,39,74439,1,8,0:0:0:0:
235,39,74538,1,8,0:0:0:0:
235,39,74637,1,0,0:0:0:0:
235,39,74834,1,8,0:0:0:0:
235,39,74933,1,8,0:0:0:0:
235,39,75032,1,0,0:0:0:0:
235,39,75229,1,0,0:0:0:0:
235,39,75426,1,12,0:0:0:0:
235,39,75821,1,4,0:0:0:0:
235,39,76018,1,8,0:0:0:0:
235,39,76117,1,8,0:0:0:0:
235,39,76216,1,0,0:0:0:0:
235,39,76413,1,8,0:0:0:0:
235,39,76512,1,8,0:0:0:0:
235,39,76610,1,0,0:0:0:0:
235,39,76808,1,0,0:0:0:0:
235,39,77005,1,8,0:0:0:0:
235,39,77104,1,8,0:0:0:0:
235,39,77203,1,8,0:0:0:0:
235,39,77400,1,4,0:0:0:0:
235,39,77597,1,8,0:0:0:0:
235,39,77696,1,8,0:0:0:0:
235,39,77795,1,0,0:0:0:0:
235,39,77992,1,8,0:0:0:0:
235,39,78091,1,8,0:0:0:0:
235,39,78189,1,0,0:0:0:0:
235,39,78387,1,0,0:0:0:0:
235,39,78584,1,12,0:0:0:0:
258,44,78979,1,4,0:0:0:0:
258,44,79176,1,8,0:0:0:0:
258,44,79275,1,8,0:0:0:0:
258,44,79374,1,0,0:0:0:0:
258,44,79571,1,8,0:0:0:0:
258,44,79670,1,8,0:0:0:0:
258,44,79768,1,0,0:0:0:0:
258,44,79966,1,0,0:0:0:0:
258,44,80163,1,8,0:0:0:0:
261,44,80558,1,0,0:0:0:0:
264,100,80657,1,0,0:0:0:0:
258,55,80755,1,8,0:0:0:0:
258,55,80854,1,0,0:0:0:0:
258,55,80953,1,0,0:0:0:0:
264,100,81150,1,8,0:0:0:0:
264,100,81347,1,0,0:0:0:0:
264,100,81446,1,8,0:0:0:0:
264,100,81545,1,0,0:0:0:0:
264,100,81742,1,8,0:0:0:0:
264,100,81939,1,8,0:0:0:0:
264,100,82137,1,0,0:0:0:0:
264,100,82235,1,0,0:0:0:0:
264,100,82334,1,8,0:0:0:0:
264,100,82433,1,8,0:0:0:0:
264,100,82532,1,0,0:0:0:0:
258,55,82729,1,8,0:0:0:0:
258,55,82926,1,0,0:0:0:0:
258,55,83025,1,8,0:0:0:0:
258,55,83124,1,8,0:0:0:0:
258,55,83222,1,8,0:0:0:0:
258,55,83321,1,0,0:0:0:0:
258,55,83518,1,8,0:0:0:0:
258,55,83617,1,8,0:0:0:0:
258,55,83716,1,0,0:0:0:0:
258,55,83913,1,8,0:0:0:0:
258,55,84110,1,0,0:0:0:0:
258,55,84209,1,8,0:0:0:0:
258,55,84308,1,0,0:0:0:0:
258,55,84407,1,8,0:0:0:0:
258,55,84505,1,8,0:0:0:0:
258,55,84703,1,0,0:0:0:0:
258,55,84900,1,0,0:0:0:0:
258,55,84999,1,8,0:0:0:0:
258,55,85097,1,0,0:0:0:0:
258,55,85196,1,8,0:0:0:0:
258,55,85295,1,0,0:0:0:0:
475,378,86874,1,8,0:0:0:0:
465,363,86972,1,0,0:0:0:0:
441,328,87170,1,8,0:0:0:0:
429,310,87268,1,0,0:0:0:0:
418,294,87367,1,8,0:0:0:0:
391,255,87564,1,0,0:0:0:0:
361,208,87663,1,8,0:0:0:0:
298,106,87860,1,0,0:0:0:0:
298,106,88058,1,8,0:0:0:0:
298,106,88157,1,8,0:0:0:0:
298,106,88255,1,8,0:0:0:0:
298,106,88453,1,4,0:0:0:0:
268,70,88650,1,8,0:0:0:0:
252,61,88847,1,0,0:0:0:0:
288,86,88946,1,8,0:0:0:0:
298,106,89143,1,8,0:0:0:0:
131,109,89341,1,0,0:0:0:0:
251,51,89538,1,0,0:0:0:0:
251,51,89637,1,8,0:0:0:0:
269,63,90032,1,0,0:0:0:0:
251,51,90229,1,8,0:0:0:0:
160,0,90426,1,0,0:0:0:0:
251,51,90624,1,8,0:0:0:0:
251,51,90722,1,0,0:0:0:0:
251,51,90920,1,8,0:0:0:0:
251,51,91117,1,0,0:0:0:0:
251,51,91216,1,8,0:0:0:0:
251,51,91413,1,8,0:0:0:0:
251,51,91610,1,0,0:0:0:0:
256,128,92005,1,0,0:0:0:0:
320,192,92104,1,0,0:0:0:0:
256,160,92301,1,0,0:0:0:0:
251,51,92499,1,8,0:0:0:0:
251,51,92696,1,0,0:0:0:0:
274,39,92795,1,8,0:0:0:0:
192,160,92992,1,8,0:0:0:0:
269,63,93189,1,0,0:0:0:0:
274,39,93387,1,8,0:0:0:0:
253,37,93485,1,0,0:0:0:0:
269,63,93584,1,0,0:0:0:0:
269,63,93683,1,8,0:0:0:0:
274,39,93880,1,0,0:0:0:0:
274,39,94078,1,8,0:0:0:0:
114,35,94176,1,8,0:0:0:0:
274,39,94374,1,0,0:0:0:0:
214,67,94472,1,0,0:0:0:0:
298,106,94768,1,4,0:0:0:0:
268,70,94966,1,8,0:0:0:0:
298,106,95163,1,0,0:0:0:0:
288,86,95262,1,8,0:0:0:0:
298,106,95459,1,8,0:0:0:0:
268,71,95657,1,0,0:0:0:0:
251,51,95854,1,0,0:0:0:0:
251,51,95953,1,8,0:0:0:0:
269,63,96347,1,0,0:0:0:0:
128,64,96545,1,0,0:0:0:0:
251,51,96643,1,8,0:0:0:0:
160,160,96742,1,0,0:0:0:0:
160,160,96841,1,0,0:0:0:0:
192,32,97038,1,0,0:0:0:0:
251,51,97235,1,8,0:0:0:0:
251,51,97334,1,0,0:0:0:0:
251,51,97532,1,8,0:0:0:0:
251,51,97729,1,0,0:0:0:0:
251,51,97926,1,8,0:0:0:0:
178,54,98025,1,8,0:0:0:0:
149,109,98124,1,0,0:0:0:0:
251,51,98222,1,8,0:0:0:0:
149,109,98321,1,0,0:0:0:0:
251,51,98617,1,0,0:0:0:0:
251,51,98814,1,8,0:0:0:0:
251,51,99012,1,0,0:0:0:0:
274,39,99110,1,8,0:0:0:0:
269,63,99308,1,0,0:0:0:0:
269,63,99505,1,8,0:0:0:0:
252,49,99604,1,0,0:0:0:0:
274,39,99703,1,0,0:0:0:0:
269,63,99801,1,8,0:0:0:0:
269,63,99999,1,8,0:0:0:0:
274,39,100097,1,0,0:0:0:0:
274,39,100295,1,8,0:0:0:0:
274,39,100492,1,8,0:0:0:0:
253,37,100689,1,0,0:0:0:0:
298,106,101084,1,4,0:0:0:0:
268,70,101282,1,8,0:0:0:0:
252,61,101380,1,0,0:0:0:0:
298,106,101479,1,8,0:0:0:0:
198,110,101578,1,8,0:0:0:0:
287,83,101775,1,0,0:0:0:0:
298,106,101874,1,0,0:0:0:0:
251,51,102071,1,8,0:0:0:0:
251,51,102268,1,8,0:0:0:0:
269,63,102367,1,8,0:0:0:0:
269,63,102466,1,8,0:0:0:0:
269,63,102564,1,8,0:0:0:0:
269,63,102663,1,0,0:0:0:0:
251,51,102860,1,0,0:0:0:0:
275,81,102959,1,8,0:0:0:0:
284,59,103058,1,0,0:0:0:0:
251,51,103255,1,8,0:0:0:0:
251,51,103354,1,0,0:0:0:0:
251,51,103551,1,8,0:0:0:0:
251,51,103847,1,8,0:0:0:0:
251,51,104045,1,8,0:0:0:0:
249,51,104242,1,0,0:0:0:0:
227,59,104341,1,8,0:0:0:0:
269,62,104538,1,8,0:0:0:0:
287,73,104637,1,0,0:0:0:0:
251,51,104735,1,0,0:0:0:0:
151,33,104834,1,8,0:0:0:0:
362,121,105032,1,0,0:0:0:0:
249,51,105130,1,0,0:0:0:0:
251,51,105328,1,0,0:0:0:0:
269,62,105426,1,8,0:0:0:0:
157,57,105624,1,0,0:0:0:0:
249,51,105722,1,8,0:0:0:0:
249,51,105821,1,0,0:0:0:0:
290,61,106018,1,8,0:0:0:0:
312,67,106117,1,8,0:0:0:0:
312,67,106216,1,0,0:0:0:0:
312,67,106314,1,0,0:0:0:0:
312,67,106413,1,0,0:0:0:0:
312,67,106610,1,12,0:0:0:0:
312,67,107005,1,0,0:0:0:0:
312,67,107104,1,8,0:0:0:0:
298,106,107400,1,4,0:0:0:0:
268,70,107597,1,8,0:0:0:0:
252,61,107696,1,0,0:0:0:0:
298,106,107795,1,8,0:0:0:0:
257,89,107893,1,8,0:0:0:0:
287,83,108091,1,0,0:0:0:0:
298,106,108189,1,0,0:0:0:0:
251,51,108387,1,8,0:0:0:0:
251,51,108584,1,8,0:0:0:0:
269,63,108683,1,8,0:0:0:0:
269,63,108782,1,8,0:0:0:0:
269,63,108880,1,8,0:0:0:0:
269,63,108979,1,0,0:0:0:0:
251,51,109176,1,0,0:0:0:0:
275,81,109275,1,8,0:0:0:0:
284,59,109374,1,0,0:0:0:0:
251,51,109571,1,8,0:0:0:0:
251,51,109670,1,0,0:0:0:0:
251,51,109867,1,8,0:0:0:0:
251,51,110163,1,8,0:0:0:0:
251,51,110360,1,8,0:0:0:0:
249,51,110558,1,0,0:0:0:0:
227,59,110657,1,8,0:0:0:0:
269,62,110854,1,8,0:0:0:0:
287,73,110953,1,0,0:0:0:0:
192,32,111051,1,0,0:0:0:0:
251,51,111150,1,8,0:0:0:0:
362,121,111347,1,0,0:0:0:0:
249,51,111446,1,0,0:0:0:0:
251,51,111643,1,0,0:0:0:0:
269,62,111742,1,8,0:0:0:0:
249,51,111841,1,8,0:0:0:0:
249,51,111939,1,8,0:0:0:0:
249,51,112137,1,0,0:0:0:0:
130,18,112235,1,0,0:0:0:0:
289,61,112334,1,0,0:0:0:0:
249,51,112433,1,0,0:0:0:0:
270,68,112532,1,8,0:0:0:0:
270,68,112729,1,0,0:0:0:0:
270,68,112926,1,8,0:0:0:0:
312,67,113025,1,0,0:0:0:0:
312,67,113222,1,0,0:0:0:0:
312,67,113321,1,8,0:0:0:0:
301,68,113518,1,8,0:0:0:0:
312,67,113716,1,4,0:0:0:0:
300,164,114110,1,8,0:0:0:0:
272,119,114308,1,0,0:0:0:0:
272,119,114407,1,0,0:0:0:0:
239,92,114703,1,0,0:0:0:0:
245,142,114900,1,8,0:0:0:0:
272,119,115097,1,8,0:0:0:0:
272,119,115295,1,0,0:0:0:0:
272,119,115689,1,8,0:0:0:0:
272,119,115887,1,4,0:0:0:0:
272,119,116183,1,8,0:0:0:0:
272,119,116282,1,0,0:0:0:0:
272,119,116479,1,8,0:0:0:0:
272,119,116676,1,8,0:0:0:0:
272,119,116874,1,4,0:0:0:0:
272,119,117170,1,0,0:0:0:0:
259,107,117268,1,8,0:0:0:0:
272,119,117466,1,0,0:0:0:0:
256,133,117564,1,8,0:0:0:0:
256,133,117663,1,0,0:0:0:0:
256,133,117860,1,0,0:0:0:0:
256,133,118058,1,8,0:0:0:0:
256,133,118255,1,8,0:0:0:0:
256,133,118453,1,0,0:0:0:0:
256,133,118650,1,8,0:0:0:0:
256,133,118749,1,8,0:0:0:0:
256,133,118847,1,0,0:0:0:0:
256,133,119045,1,12,0:0:0:0:
256,133,119439,1,0,0:0:0:0:
256,133,119637,1,8,0:0:0:0:
236,97,119834,1,8,0:0:0:0:
217,63,120032,1,4,0:0:0:0:
250,81,120426,1,8,0:0:0:0:
229,42,120624,1,0,0:0:0:0:
250,81,120722,1,0,0:0:0:0:
232,46,120920,1,8,0:0:0:0:
232,46,121018,1,0,0:0:0:0:
250,81,121216,1,8,0:0:0:0:
230,44,121413,1,8,0:0:0:0:
227,38,121610,1,0,0:0:0:0:
227,38,121907,1,0,0:0:0:0:
227,38,122005,1,8,0:0:0:0:
227,38,122203,1,4,0:0:0:0:
227,38,122499,1,8,0:0:0:0:
227,38,122597,1,0,0:0:0:0:
227,38,122795,1,8,0:0:0:0:
227,38,122992,1,8,0:0:0:0:
222,65,123091,1,8,0:0:0:0:
227,38,123189,1,0,0:0:0:0:
258,104,123485,1,0,0:0:0:0:
258,104,123584,1,8,0:0:0:0:
258,104,123782,1,0,0:0:0:0:
192,32,123880,1,0,0:0:0:0:
192,32,124078,1,8,0:0:0:0:
258,104,124275,1,0,0:0:0:0:
227,38,124374,1,8,0:0:0:0:
258,104,124571,1,8,0:0:0:0:
227,38,124768,1,0,0:0:0:0:
227,38,125064,1,0,0:0:0:0:
227,38,125163,1,8,0:0:0:0:
227,38,125360,1,12,0:0:0:0:
227,38,125953,1,12,0:0:0:0:
227,38,126347,1,4,0:0:0:0:
