osu file format v14

[General]
AudioFilename: audio.mp3
AudioLeadIn: 0
PreviewTime: 86816
Countdown: 0
SampleSet: Normal
StackLeniency: 0.7
Mode: 1
LetterboxInBreaks: 0
WidescreenStoryboard: 1

[Editor]
Bookmarks: 1553,20500,33131,45763,61552,74184,80500,88395,94710,101026,107342,113658
DistanceSpacing: 2.2
BeatDivisor: 6
GridSize: 32
TimelineZoom: 2.4

[Metadata]
Title:YInMn Blue
TitleUnicode:YInMn Blue
Artist:siqlo
ArtistUnicode:siqlo
Creator:gaston_2199
Version:Muzukashii
Source:
Tags:bms hi-tech psytrance BOFU2017 electronic instrumental
BeatmapID:2564432
BeatmapSetID:1233593

[Difficulty]
HPDrainRate:6
CircleSize:2
OverallDifficulty:5
ApproachRate:10
SliderMultiplier:1.4
SliderTickRate:1

[Events]
//Background and Video events
0,0,"BG.jpg",0,0
//Break Periods
//Storyboard Layer 0 (Background)
//Storyboard Layer 1 (Fail)
//Storyboard Layer 2 (Pass)
//Storyboard Layer 3 (Foreground)
//Storyboard Layer 4 (Overlay)
//Storyboard Sound Samples

[TimingPoints]
39,394.736842105263,4,1,0,70,1,0
39,-133.333333333333,4,1,0,70,0,0
1354,-100,4,1,0,80,0,0
1611,394.736842105263,4,1,0,80,1,0
1611,-90.9090909090909,4,1,0,80,0,0
4374,-100,4,1,0,80,0,0
6347,-111.111111111111,4,1,0,80,0,0
6742,-108.695652173913,4,1,0,80,0,0
7137,-106.382978723404,4,1,0,80,0,0
7529,-104.166666666667,4,1,0,80,0,0
7726,-102.040816326531,4,1,0,80,0,0
7923,-90.9090909090909,4,1,0,80,0,0
14239,-90.5349794238683,4,1,0,80,0,0
14535,-90.1639344262295,4,1,0,80,0,0
14831,-89.7959183673469,4,1,0,80,0,0
15127,-89.4308943089431,4,1,0,80,0,0
15423,-89.0688259109312,4,1,0,80,0,0
15719,-88.7096774193548,4,1,0,80,0,0
16015,-88.3534136546185,4,1,0,80,0,0
16311,-88,4,1,0,80,0,0
16607,-87.6494023904383,4,1,0,80,0,0
16904,-87.3015873015873,4,1,0,80,0,0
17200,-86.9565217391304,4,1,0,80,0,0
17397,-86.6141732283465,4,1,0,80,0,0
17496,-86.2745098039216,4,1,0,80,0,0
17594,-85.9375,4,1,0,80,0,0
17792,-85.6031128404669,4,1,0,80,0,0
17989,-85.2713178294574,4,1,0,80,0,0
18186,-84.9420849420849,4,1,0,80,0,0
18285,-84.6153846153846,4,1,0,80,0,0
18384,-84.2911877394636,4,1,0,80,0,0
18584,-83.969465648855,4,1,0,80,0,0
18779,-83.6501901140685,4,1,0,80,0,0
18976,-83.3333333333333,4,1,0,80,0,0
19469,-90.9090909090909,4,1,0,80,0,0
19963,-98.5915492957741,4,1,0,80,0,0
20160,-101.449275362318,4,1,0,80,0,0
20555,-100,4,1,0,80,0,0
39107,-104.166666666667,4,1,0,80,0,0
39305,-108.695652173913,4,1,0,80,0,0
39502,-111.111111111111,4,1,0,80,0,0
39897,-100,4,1,0,80,0,0
47594,-101.694915254237,4,1,0,80,0,0
47693,-103.448275862069,4,1,0,80,0,0
47890,-105.263157894737,4,1,0,80,0,0
48088,-109.090909090909,4,1,0,80,0,0
48186,-111.111111111111,4,1,0,80,0,0
48581,-90.9090909090909,4,1,0,80,0,0
60325,-93.3333333333333,4,1,0,80,0,0
60621,-95.8904109589041,4,1,0,80,0,0
60818,-98.5915492957747,4,1,0,80,0,0
61015,-101.449275362319,4,1,0,80,0,0
61114,-104.477611940299,4,1,0,80,0,0
61413,-107.692307692308,4,1,0,80,0,0
61607,-111.111111111111,4,1,0,80,0,0
62005,-111.111111111111,4,1,0,60,0,0
74239,-100,4,1,0,80,0,0
75423,-90.9090909090909,4,1,0,80,0,0
77400,-100,4,1,0,80,0,0
78581,-90.9090909090909,4,1,0,80,0,0
78976,-100,4,1,0,80,0,0
80555,-99.644128113879,4,1,0,80,0,0
80654,-99.290780141844,4,1,0,80,0,0
80752,-98.9399293286219,4,1,0,80,0,0
80950,-98.5915492957747,4,1,0,80,0,0
81147,-98.2456140350877,4,1,0,80,0,0
81344,-97.9020979020979,4,1,0,80,0,0
81739,-97.5609756097561,4,1,0,80,0,0
81936,-97.2222222222222,4,1,0,80,0,0
82134,-96.8858131487889,4,1,0,80,0,0
82232,-96.551724137931,4,1,0,80,0,0
82331,-96.2199312714777,4,1,0,80,0,0
82529,-95.8904109589041,4,1,0,80,0,0
82726,-95.5631399317406,4,1,0,80,0,0
82923,-95.2380952380952,4,1,0,80,0,0
83121,-94.9152542372881,4,1,0,80,0,0
83219,-94.5945945945946,4,1,0,80,0,0
83318,-94.2760942760943,4,1,0,80,0,0
83515,-93.9597315436242,4,1,0,80,0,0
83713,-93.6454849498328,4,1,0,80,0,0
84107,-93.3333333333333,4,1,0,80,0,0
84305,-93.0232558139535,4,1,0,80,0,0
84404,-92.7152317880795,4,1,0,80,0,0
84505,-92.4092409240924,4,1,0,80,0,0
84700,-92.1052631578947,4,1,0,80,0,0
84897,-91.8032786885246,4,1,0,80,0,0
85094,-91.5032679738562,4,1,0,80,0,0
85193,-91.2052117263844,4,1,0,80,0,0
85292,-90.9090909090909,4,1,0,80,0,0
86871,-100,4,1,0,80,0,0
87167,-101.694915254237,4,1,0,80,0,0
87265,-103.448275862069,4,1,0,80,0,0
87660,-105.263157894737,4,1,0,80,0,0
87857,-107.142857142857,4,1,0,80,0,0
88055,-109.090909090909,4,1,0,80,0,0
88252,-111.111111111111,4,1,0,80,0,0
88453,-100,4,1,0,90,0,1
94374,-100,4,1,0,80,0,0
94768,-100,4,1,0,90,0,1
100689,-100,4,1,0,80,0,0
101084,-100,4,1,0,90,0,1
107005,-100,4,1,0,80,0,0
107400,-100,4,1,0,90,0,1
113716,-100,4,1,0,80,0,0

[HitObjects]
256,192,39,12,0,1223,0:0:0:0:
378,61,1420,5,8,0:0:0:0:
378,61,1611,1,4,0:0:0:0:
318,92,1907,1,4,0:0:0:0:
243,101,2203,1,4,0:0:0:0:
256,192,3189,12,0,4176,0:0:0:0:
234,67,4374,5,0,0:0:0:0:
234,67,4472,1,0,0:0:0:0:
234,67,4571,1,0,0:0:0:0:
234,67,4768,1,4,0:0:0:0:
234,67,5064,1,4,0:0:0:0:
234,67,5360,1,4,0:0:0:0:
449,186,6347,1,8,0:0:0:0:
359,135,6742,1,0,0:0:0:0:
289,97,7137,1,8,0:0:0:0:
289,97,7532,1,8,0:0:0:0:
289,97,7729,1,8,0:0:0:0:
289,97,7926,1,4,0:0:0:0:
289,97,8222,1,4,0:0:0:0:
289,97,8518,1,4,0:0:0:0:
257,69,9505,1,4,0:0:0:0:
257,69,9801,1,4,0:0:0:0:
257,69,10097,1,4,0:0:0:0:
257,69,11084,1,4,0:0:0:0:
257,69,11380,1,4,0:0:0:0:
257,69,11676,1,4,0:0:0:0:
257,69,12466,1,0,0:0:0:0:
257,69,12663,1,12,0:0:0:0:
257,69,12959,1,12,0:0:0:0:
257,69,13255,1,12,0:0:0:0:
257,69,13650,1,0,0:0:0:0:
257,69,13847,1,8,0:0:0:0:
257,69,14242,1,12,0:0:0:0:
257,69,14538,1,12,0:0:0:0:
257,69,14834,1,12,0:0:0:0:
257,69,15130,1,12,0:0:0:0:
257,69,15426,1,12,0:0:0:0:
257,69,15722,1,12,0:0:0:0:
257,69,16018,1,12,0:0:0:0:
257,69,16314,1,12,0:0:0:0:
257,69,16610,1,12,0:0:0:0:
257,69,16907,1,12,0:0:0:0:
257,69,17203,1,12,0:0:0:0:
257,69,17400,1,8,0:0:0:0:
257,69,17499,1,8,0:0:0:0:
257,69,17597,1,8,0:0:0:0:
257,69,17795,1,8,0:0:0:0:
257,69,17992,1,8,0:0:0:0:
257,69,18189,1,8,0:0:0:0:
257,69,18288,1,8,0:0:0:0:
257,69,18387,1,8,0:0:0:0:
257,69,18584,1,8,0:0:0:0:
257,69,18782,1,8,0:0:0:0:
257,69,18979,1,0,0:0:0:0:
175,26,19472,1,8,0:0:0:0:
257,69,19966,1,8,0:0:0:0:
257,69,20163,1,0,0:0:0:0:
257,69,20558,1,12,0:0:0:0:
304,145,20953,1,8,0:0:0:0:
276,100,21150,1,0,0:0:0:0:
243,73,21545,1,0,0:0:0:0:
249,123,21742,1,8,0:0:0:0:
128,96,21939,1,0,0:0:0:0:
276,100,22137,1,0,0:0:0:0:
191,60,22532,1,8,0:0:0:0:
276,100,22729,1,4,0:0:0:0:
276,100,23124,1,0,0:0:0:0:
276,100,23321,1,8,0:0:0:0:
276,100,23518,1,8,0:0:0:0:
276,100,23716,1,4,0:0:0:0:
263,88,24110,1,8,0:0:0:0:
276,100,24308,1,0,0:0:0:0:
260,114,24703,1,0,0:0:0:0:
260,114,24900,1,8,0:0:0:0:
260,114,25295,1,0,0:0:0:0:
260,114,25492,1,0,0:0:0:0:
260,114,25591,1,0,0:0:0:0:
260,114,25689,1,0,0:0:0:0:
260,114,25887,1,12,0:0:0:0:
260,114,26479,1,8,0:0:0:0:
221,44,26874,1,4,0:0:0:0:
254,62,27268,1,8,0:0:0:0:
233,23,27466,1,0,0:0:0:0:
236,27,27860,1,0,0:0:0:0:
254,62,28058,1,8,0:0:0:0:
234,25,28255,1,8,0:0:0:0:
231,19,28453,1,0,0:0:0:0:
231,19,28847,1,8,0:0:0:0:
231,19,29045,1,4,0:0:0:0:
231,19,29439,1,0,0:0:0:0:
231,19,29637,1,8,0:0:0:0:
231,19,29834,1,8,0:0:0:0:
231,19,30032,1,0,0:0:0:0:
262,85,30426,1,8,0:0:0:0:
262,85,30624,1,0,0:0:0:0:
262,85,30722,1,0,0:0:0:0:
262,85,30821,1,0,0:0:0:0:
262,85,31018,1,0,0:0:0:0:
231,19,31216,1,8,0:0:0:0:
231,19,31610,1,0,0:0:0:0:
231,19,32005,1,0,0:0:0:0:
231,19,32203,1,12,0:0:0:0:
231,19,32795,1,4,0:0:0:0:
257,69,33189,1,12,0:0:0:0:
304,145,33584,1,8,0:0:0:0:
276,100,33782,1,0,0:0:0:0:
243,73,34176,1,0,0:0:0:0:
249,123,34374,1,8,0:0:0:0:
276,100,34571,1,0,0:0:0:0:
276,100,34768,1,0,0:0:0:0:
276,100,35163,1,8,0:0:0:0:
276,100,35360,1,4,0:0:0:0:
325,304,35657,1,0,0:0:0:0:
276,100,35755,1,0,0:0:0:0:
276,100,35953,1,8,0:0:0:0:
276,100,36150,1,8,0:0:0:0:
276,100,36347,1,4,0:0:0:0:
263,88,36742,1,8,0:0:0:0:
276,100,36939,1,0,0:0:0:0:
260,114,37334,1,0,0:0:0:0:
260,114,37532,1,8,0:0:0:0:
260,114,37926,1,0,0:0:0:0:
260,114,38124,1,0,0:0:0:0:
263,93,38222,1,0,0:0:0:0:
260,114,38321,1,0,0:0:0:0:
260,114,38518,1,12,0:0:0:0:
260,114,39110,1,8,0:0:0:0:
240,78,39308,1,8,0:0:0:0:
221,44,39505,1,0,0:0:0:0:
254,62,39900,1,12,0:0:0:0:
233,23,40196,1,0,0:0:0:0:
236,27,40492,1,0,0:0:0:0:
254,62,40689,1,8,0:0:0:0:
234,25,40887,1,8,0:0:0:0:
233,23,41084,1,0,0:0:0:0:
231,19,41282,1,0,0:0:0:0:
231,19,41479,1,8,0:0:0:0:
231,19,41676,1,4,0:0:0:0:
183,223,41972,1,0,0:0:0:0:
231,19,42071,1,0,0:0:0:0:
231,19,42268,1,8,0:0:0:0:
231,19,42466,1,8,0:0:0:0:
263,42,42663,1,0,0:0:0:0:
263,42,42762,1,0,0:0:0:0:
263,42,42860,1,0,0:0:0:0:
262,85,43058,1,12,0:0:0:0:
262,85,43453,1,0,0:0:0:0:
231,19,43551,1,0,0:0:0:0:
260,60,43650,1,0,0:0:0:0:
231,19,43847,1,12,0:0:0:0:
231,19,44242,1,0,0:0:0:0:
248,21,44341,1,0,0:0:0:0:
231,19,44439,1,0,0:0:0:0:
231,19,44637,1,0,0:0:0:0:
231,19,44834,1,12,0:0:0:0:
229,32,45032,1,0,0:0:0:0:
229,32,45229,1,8,0:0:0:0:
229,32,45426,1,0,0:0:0:0:
229,32,45525,1,0,0:0:0:0:
229,32,45624,1,0,0:0:0:0:
229,32,45821,1,12,0:0:0:0:
229,32,46610,1,12,0:0:0:0:
229,32,47400,1,12,0:0:0:0:
229,32,47696,1,0,0:0:0:0:
229,32,47893,1,8,0:0:0:0:
229,32,48091,1,0,0:0:0:0:
229,32,48189,1,0,0:0:0:0:
229,32,48584,1,12,0:0:0:0:
229,32,48979,1,4,0:0:0:0:
229,32,49374,1,4,0:0:0:0:
229,32,49768,1,4,0:0:0:0:
229,32,50360,1,4,0:0:0:0:
229,32,50558,1,4,0:0:0:0:
229,32,50953,1,4,0:0:0:0:
229,128,51347,1,4,0:0:0:0:
229,63,51742,1,12,0:0:0:0:
253,66,52137,1,4,0:0:0:0:
253,66,52532,1,4,0:0:0:0:
253,66,52926,1,4,0:0:0:0:
253,66,53518,1,4,0:0:0:0:
253,66,53716,1,4,0:0:0:0:
253,66,54110,1,4,0:0:0:0:
253,66,54505,1,4,0:0:0:0:
235,39,55295,5,12,0:0:0:0:
235,39,55689,1,12,0:0:0:0:
235,39,56084,1,12,0:0:0:0:
235,39,56676,1,12,0:0:0:0:
235,39,56874,1,12,0:0:0:0:
235,39,57268,1,12,0:0:0:0:
235,39,57663,1,12,0:0:0:0:
235,39,58058,1,4,0:0:0:0:
235,39,58453,1,12,0:0:0:0:
235,39,58847,1,12,0:0:0:0:
235,39,59242,1,12,0:0:0:0:
235,39,59834,1,12,0:0:0:0:
235,39,60032,1,0,0:0:0:0:
183,12,60328,1,8,0:0:0:0:
235,39,60624,1,0,0:0:0:0:
235,39,60821,1,8,0:0:0:0:
235,39,61018,1,8,0:0:0:0:
235,39,61117,1,8,0:0:0:0:
235,39,61413,1,8,0:0:0:0:
235,39,61610,1,4,0:0:0:0:
235,39,62795,1,8,0:0:0:0:
235,39,63189,1,8,0:0:0:0:
235,39,64374,1,8,0:0:0:0:
235,39,64768,1,0,0:0:0:0:
507,311,66347,1,0,0:0:0:0:
235,39,67137,1,8,0:0:0:0:
235,39,67926,1,8,0:0:0:0:
235,39,69110,1,8,0:0:0:0:
235,39,69505,1,0,0:0:0:0:
235,39,70295,1,8,0:0:0:0:
235,39,71084,1,0,0:0:0:0:
235,39,72663,1,0,0:0:0:0:
235,39,73453,1,12,0:0:0:0:
235,39,74242,1,4,0:0:0:0:
235,39,74439,1,8,0:0:0:0:
235,39,74637,1,0,0:0:0:0:
235,39,74834,1,8,0:0:0:0:
235,39,75032,1,0,0:0:0:0:
235,39,75426,1,12,0:0:0:0:
235,39,75821,1,4,0:0:0:0:
235,39,76018,1,8,0:0:0:0:
235,39,76216,1,0,0:0:0:0:
235,39,76413,1,8,0:0:0:0:
235,39,76610,1,0,0:0:0:0:
235,39,77005,1,8,0:0:0:0:
235,39,77104,1,8,0:0:0:0:
235,39,77203,1,8,0:0:0:0:
235,39,77400,1,4,0:0:0:0:
235,39,77597,1,8,0:0:0:0:
235,39,77795,1,0,0:0:0:0:
235,39,77992,1,8,0:0:0:0:
235,39,78189,1,0,0:0:0:0:
235,39,78584,1,12,0:0:0:0:
258,44,78979,1,4,0:0:0:0:
258,44,79176,1,8,0:0:0:0:
258,44,79374,1,0,0:0:0:0:
258,44,79571,1,8,0:0:0:0:
258,44,79768,1,0,0:0:0:0:
261,44,80558,1,0,0:0:0:0:
172,9,80657,1,0,0:0:0:0:
258,55,80755,1,0,0:0:0:0:
258,55,80953,1,0,0:0:0:0:
264,100,81150,1,8,0:0:0:0:
264,100,81347,1,0,0:0:0:0:
264,100,81742,1,8,0:0:0:0:
264,100,81939,1,8,0:0:0:0:
264,100,82137,1,0,0:0:0:0:
264,100,82235,1,0,0:0:0:0:
264,100,82334,1,0,0:0:0:0:
264,100,82532,1,0,0:0:0:0:
258,55,82729,1,8,0:0:0:0:
258,55,82926,1,0,0:0:0:0:
258,55,83124,1,8,0:0:0:0:
258,55,83222,1,8,0:0:0:0:
258,55,83321,1,8,0:0:0:0:
258,55,83518,1,8,0:0:0:0:
258,55,83716,1,0,0:0:0:0:
258,55,84110,1,8,0:0:0:0:
103,48,84308,1,8,0:0:0:0:
258,55,84407,1,8,0:0:0:0:
258,55,84505,1,8,0:0:0:0:
258,55,84703,1,0,0:0:0:0:
258,55,84900,1,8,0:0:0:0:
258,55,85097,1,8,0:0:0:0:
258,55,85196,1,8,0:0:0:0:
258,55,85295,1,0,0:0:0:0:
475,378,86874,1,8,0:0:0:0:
313,205,87170,1,0,0:0:0:0:
429,310,87268,1,8,0:0:0:0:
361,208,87663,1,8,0:0:0:0:
298,106,87860,1,0,0:0:0:0:
298,106,88058,1,8,0:0:0:0:
298,106,88255,1,8,0:0:0:0:
298,106,88453,1,4,0:0:0:0:
252,61,88847,1,0,0:0:0:0:
288,86,88946,1,0,0:0:0:0:
298,106,89143,1,8,0:0:0:0:
197,13,89439,1,0,0:0:0:0:
269,63,89637,1,8,0:0:0:0:
269,63,90032,1,0,0:0:0:0:
251,51,90426,1,8,0:0:0:0:
251,51,90624,1,0,0:0:0:0:
251,51,90722,1,0,0:0:0:0:
251,51,91018,1,0,0:0:0:0:
251,51,91216,1,8,0:0:0:0:
251,51,91610,1,0,0:0:0:0:
251,51,92005,1,0,0:0:0:0:
251,51,92104,1,0,0:0:0:0:
251,51,92301,1,0,0:0:0:0:
251,51,92597,1,0,0:0:0:0:
274,39,92795,1,8,0:0:0:0:
166,131,93189,1,0,0:0:0:0:
166,131,93387,1,0,0:0:0:0:
166,131,93485,1,0,0:0:0:0:
269,63,93584,1,0,0:0:0:0:
269,63,93782,1,8,0:0:0:0:
274,39,94374,1,0,0:0:0:0:
298,106,94768,1,4,0:0:0:0:
298,106,95163,1,0,0:0:0:0:
288,86,95262,1,0,0:0:0:0:
298,106,95459,1,8,0:0:0:0:
251,51,95755,1,0,0:0:0:0:
251,51,95953,1,8,0:0:0:0:
269,63,96347,1,0,0:0:0:0:
128,96,96742,1,8,0:0:0:0:
243,174,96939,1,0,0:0:0:0:
135,169,97038,1,0,0:0:0:0:
183,30,97334,1,0,0:0:0:0:
251,51,97532,1,8,0:0:0:0:
251,51,97926,1,8,0:0:0:0:
251,51,98025,1,8,0:0:0:0:
149,109,98124,1,8,0:0:0:0:
149,109,98321,1,8,0:0:0:0:
251,51,98617,1,0,0:0:0:0:
149,109,98913,1,0,0:0:0:0:
274,39,99110,1,8,0:0:0:0:
192,128,99308,1,0,0:0:0:0:
269,63,99505,1,0,0:0:0:0:
269,63,99604,1,0,0:0:0:0:
274,39,99703,1,0,0:0:0:0:
274,39,99900,1,8,0:0:0:0:
274,39,100295,1,8,0:0:0:0:
298,106,101084,1,4,0:0:0:0:
268,70,101282,1,8,0:0:0:0:
298,106,101479,1,8,0:0:0:0:
146,118,101676,1,0,0:0:0:0:
298,106,101874,1,0,0:0:0:0:
251,51,102071,1,8,0:0:0:0:
251,51,102268,1,8,0:0:0:0:
269,63,102367,1,8,0:0:0:0:
269,63,102466,1,8,0:0:0:0:
269,63,102663,1,0,0:0:0:0:
251,51,102860,1,8,0:0:0:0:
284,59,103058,1,0,0:0:0:0:
192,32,103255,1,8,0:0:0:0:
251,51,103847,1,8,0:0:0:0:
251,51,104045,1,8,0:0:0:0:
249,51,104242,1,0,0:0:0:0:
151,33,104439,1,8,0:0:0:0:
151,33,104637,1,0,0:0:0:0:
163,180,104834,1,8,0:0:0:0:
362,121,105032,1,0,0:0:0:0:
269,62,105426,1,8,0:0:0:0:
111,24,105624,1,8,0:0:0:0:
249,51,105821,1,0,0:0:0:0:
290,61,106018,1,8,0:0:0:0:
312,67,106216,1,0,0:0:0:0:
312,67,106314,1,0,0:0:0:0:
312,67,106413,1,0,0:0:0:0:
312,67,106610,1,12,0:0:0:0:
312,67,107005,1,8,0:0:0:0:
298,106,107400,1,4,0:0:0:0:
268,70,107597,1,8,0:0:0:0:
298,106,107795,1,8,0:0:0:0:
138,118,107992,1,0,0:0:0:0:
298,106,108189,1,0,0:0:0:0:
251,51,108387,1,8,0:0:0:0:
251,51,108584,1,8,0:0:0:0:
269,63,108683,1,8,0:0:0:0:
269,63,108782,1,8,0:0:0:0:
269,63,108979,1,0,0:0:0:0:
251,51,109176,1,8,0:0:0:0:
284,59,109374,1,0,0:0:0:0:
251,51,109571,1,8,0:0:0:0:
251,51,110163,1,8,0:0:0:0:
251,51,110360,1,8,0:0:0:0:
249,51,110558,1,0,0:0:0:0:
76,37,110755,1,8,0:0:0:0:
287,73,110953,1,0,0:0:0:0:
251,51,111150,1,8,0:0:0:0:
362,121,111347,1,0,0:0:0:0:
245,128,111545,1,0,0:0:0:0:
269,62,111742,1,8,0:0:0:0:
249,51,111841,1,8,0:0:0:0:
249,51,111939,1,8,0:0:0:0:
249,51,112137,1,0,0:0:0:0:
289,61,112334,1,0,0:0:0:0:
249,51,112433,1,0,0:0:0:0:
270,68,112532,1,0,0:0:0:0:
270,68,112729,1,0,0:0:0:0:
270,68,112926,1,8,0:0:0:0:
22,97,113321,1,8,0:0:0:0:
312,67,113716,1,4,0:0:0:0:
300,164,114110,1,8,0:0:0:0:
272,119,114308,1,0,0:0:0:0:
239,92,114703,1,0,0:0:0:0:
245,142,114900,1,8,0:0:0:0:
272,119,115097,1,0,0:0:0:0:
272,119,115295,1,0,0:0:0:0:
272,119,115689,1,8,0:0:0:0:
272,119,115887,1,4,0:0:0:0:
272,119,116282,1,0,0:0:0:0:
272,119,116479,1,8,0:0:0:0:
272,119,116676,1,8,0:0:0:0:
272,119,116874,1,4,0:0:0:0:
259,107,117268,1,8,0:0:0:0:
272,119,117466,1,0,0:0:0:0:
256,133,117860,1,0,0:0:0:0:
256,133,118058,1,8,0:0:0:0:
256,133,118453,1,0,0:0:0:0:
256,133,118650,1,0,0:0:0:0:
256,133,118749,1,0,0:0:0:0:
256,133,118847,1,0,0:0:0:0:
256,133,119045,1,12,0:0:0:0:
256,133,119637,1,8,0:0:0:0:
217,63,120032,1,4,0:0:0:0:
250,81,120426,1,8,0:0:0:0:
229,42,120624,1,0,0:0:0:0:
232,46,121018,1,0,0:0:0:0:
250,81,121216,1,8,0:0:0:0:
230,44,121413,1,8,0:0:0:0:
227,38,121610,1,0,0:0:0:0:
227,38,122005,1,8,0:0:0:0:
227,38,122203,1,4,0:0:0:0:
227,38,122597,1,0,0:0:0:0:
227,38,122795,1,8,0:0:0:0:
227,38,122992,1,8,0:0:0:0:
227,38,123189,1,0,0:0:0:0:
258,104,123584,1,8,0:0:0:0:
258,104,123782,1,0,0:0:0:0:
258,104,123880,1,0,0:0:0:0:
258,104,123979,1,0,0:0:0:0:
258,104,124176,1,0,0:0:0:0:
227,38,124374,1,8,0:0:0:0:
192,160,124571,1,8,0:0:0:0:
227,38,124768,1,0,0:0:0:0:
227,38,125163,1,0,0:0:0:0:
227,38,125360,1,12,0:0:0:0:
227,38,125953,1,12,0:0:0:0:
227,38,126347,1,4,0:0:0:0:
