osu file format v14

[General]
AudioFilename: audio.mp3
AudioLeadIn: 0
PreviewTime: 86816
Countdown: 0
SampleSet: Normal
StackLeniency: 0.7
Mode: 1
LetterboxInBreaks: 0
WidescreenStoryboard: 1

[Editor]
Bookmarks: 1553,20500,33131,45763,61552,74184,80500,88395,94710,101026,107342,113658
DistanceSpacing: 2.2
BeatDivisor: 6
GridSize: 32
TimelineZoom: 2

[Metadata]
Title:YInMn Blue
TitleUnicode:YInMn Blue
Artist:siqlo
ArtistUnicode:siqlo
Creator:gaston_2199
Version:Futsuu
Source:
Tags:bms hi-tech psytrance BOFU2017 electronic instrumental
BeatmapID:2564429
BeatmapSetID:1233593

[Difficulty]
HPDrainRate:7
CircleSize:2
OverallDifficulty:4
ApproachRate:10
SliderMultiplier:1.4
SliderTickRate:1

[Events]
//Background and Video events
0,0,"BG.jpg",0,0
//Break Periods
//Storyboard Layer 0 (Background)
//Storyboard Layer 1 (Fail)
//Storyboard Layer 2 (Pass)
//Storyboard Layer 3 (Foreground)
//Storyboard Layer 4 (Overlay)
//Storyboard Sound Samples

[TimingPoints]
39,394.736842105263,4,1,0,70,1,0
39,-133.333333333333,4,1,0,70,0,0
1354,-100,4,1,0,80,0,0
1611,394.736842105263,4,1,0,80,1,0
60325,-102.564102564103,4,1,0,80,0,0
60621,-105.263157894737,4,1,0,80,0,0
61117,-108.108108108108,4,1,0,80,0,0
61413,-109.89010989011,4,1,0,80,0,0
61607,-111.111111111111,4,1,0,80,0,0
62005,-111.111111111111,4,1,0,60,0,0
74239,-100,4,1,0,80,0,0
88453,-100,4,1,0,90,0,1
94374,-100,4,1,0,80,0,0
94768,-100,4,1,0,90,0,1
100689,-100,4,1,0,80,0,0
101084,-100,4,1,0,90,0,1
107005,-100,4,1,0,80,0,0
107400,-100,4,1,0,90,0,1
113716,-100,4,1,0,80,0,0

[HitObjects]
256,192,39,12,0,1223,0:0:0:0:
378,61,1611,5,4,0:0:0:0:
243,101,2203,1,4,0:0:0:0:
256,192,3189,12,0,4176,0:0:0:0:
234,67,4374,5,0,0:0:0:0:
234,67,4768,1,4,0:0:0:0:
234,67,5360,1,4,0:0:0:0:
449,186,6347,1,8,0:0:0:0:
289,97,7137,1,0,0:0:0:0:
289,97,7532,1,8,0:0:0:0:
289,97,7926,1,4,0:0:0:0:
289,97,8518,1,4,0:0:0:0:
257,69,9505,1,4,0:0:0:0:
257,69,10097,1,4,0:0:0:0:
257,69,11084,1,4,0:0:0:0:
257,69,11676,1,4,0:0:0:0:
257,69,12663,1,12,0:0:0:0:
257,69,13255,1,12,0:0:0:0:
257,69,13847,1,0,0:0:0:0:
257,69,14242,1,12,0:0:0:0:
257,69,14834,1,12,0:0:0:0:
257,69,15426,1,12,0:0:0:0:
257,69,16018,1,12,0:0:0:0:
257,69,16610,1,12,0:0:0:0:
257,69,17400,1,8,0:0:0:0:
257,69,17597,1,8,0:0:0:0:
257,69,17795,1,8,0:0:0:0:
257,69,18189,1,8,0:0:0:0:
257,69,18387,1,8,0:0:0:0:
257,69,18584,1,8,0:0:0:0:
257,69,18979,1,0,0:0:0:0:
257,69,19966,1,8,0:0:0:0:
257,69,20163,1,0,0:0:0:0:
257,69,20558,1,12,0:0:0:0:
304,145,20953,1,8,0:0:0:0:
249,123,21742,1,8,0:0:0:0:
276,100,22137,1,0,0:0:0:0:
276,100,22729,1,4,0:0:0:0:
276,100,23321,1,8,0:0:0:0:
276,100,23716,1,4,0:0:0:0:
263,88,24110,1,8,0:0:0:0:
144,120,24703,1,0,0:0:0:0:
260,114,24900,1,8,0:0:0:0:
260,114,25295,1,0,0:0:0:0:
260,114,25689,1,0,0:0:0:0:
260,114,25887,1,12,0:0:0:0:
221,44,26874,1,4,0:0:0:0:
254,62,27268,1,8,0:0:0:0:
182,98,27860,1,0,0:0:0:0:
254,62,28058,1,8,0:0:0:0:
231,19,28453,1,0,0:0:0:0:
231,19,29045,1,4,0:0:0:0:
231,19,29637,1,8,0:0:0:0:
231,19,30032,1,0,0:0:0:0:
262,85,30426,1,8,0:0:0:0:
118,114,30821,1,0,0:0:0:0:
262,85,31018,1,0,0:0:0:0:
231,19,31216,1,8,0:0:0:0:
231,19,31610,1,0,0:0:0:0:
231,19,32203,1,12,0:0:0:0:
231,19,32795,1,0,0:0:0:0:
257,69,33189,1,12,0:0:0:0:
304,145,33584,1,8,0:0:0:0:
249,123,34374,1,8,0:0:0:0:
276,100,34768,1,0,0:0:0:0:
276,100,35360,1,4,0:0:0:0:
276,100,35953,1,8,0:0:0:0:
276,100,36347,1,4,0:0:0:0:
263,88,36742,1,8,0:0:0:0:
260,114,37532,1,8,0:0:0:0:
260,114,37926,1,0,0:0:0:0:
260,114,38321,1,0,0:0:0:0:
260,114,38518,1,12,0:0:0:0:
260,114,39110,1,8,0:0:0:0:
221,44,39505,1,0,0:0:0:0:
254,62,39900,1,12,0:0:0:0:
236,27,40492,1,0,0:0:0:0:
254,62,40689,1,8,0:0:0:0:
233,23,41084,1,0,0:0:0:0:
231,19,41479,1,8,0:0:0:0:
231,19,41676,1,4,0:0:0:0:
231,19,42268,1,8,0:0:0:0:
263,42,42663,1,0,0:0:0:0:
263,42,42860,1,0,0:0:0:0:
262,85,43058,1,12,0:0:0:0:
262,85,43453,1,0,0:0:0:0:
260,60,43650,1,0,0:0:0:0:
231,19,43847,1,12,0:0:0:0:
231,19,44242,1,0,0:0:0:0:
166,91,44637,1,0,0:0:0:0:
231,19,44834,1,12,0:0:0:0:
229,32,45426,1,0,0:0:0:0:
229,32,45624,1,0,0:0:0:0:
229,32,45821,1,12,0:0:0:0:
229,32,46610,1,12,0:0:0:0:
229,32,47400,1,12,0:0:0:0:
229,32,47992,1,0,0:0:0:0:
229,32,48189,1,0,0:0:0:0:
229,32,48584,1,12,0:0:0:0:
229,32,48979,1,4,0:0:0:0:
229,32,49768,1,4,0:0:0:0:
229,32,50558,1,4,0:0:0:0:
229,128,51347,1,4,0:0:0:0:
229,63,51742,1,12,0:0:0:0:
253,66,52137,1,4,0:0:0:0:
253,66,52926,1,4,0:0:0:0:
253,66,53716,1,4,0:0:0:0:
253,66,54505,1,4,0:0:0:0:
235,39,55295,5,12,0:0:0:0:
235,39,56084,1,12,0:0:0:0:
235,39,56874,1,12,0:0:0:0:
235,39,57663,1,12,0:0:0:0:
235,39,58058,1,4,0:0:0:0:
235,39,58453,1,12,0:0:0:0:
235,39,59242,1,12,0:0:0:0:
235,39,60032,1,0,0:0:0:0:
183,12,60328,1,8,0:0:0:0:
235,39,60821,1,8,0:0:0:0:
235,39,61117,1,8,0:0:0:0:
235,39,61413,1,8,0:0:0:0:
235,39,61610,1,4,0:0:0:0:
235,39,63189,1,8,0:0:0:0:
235,39,64768,1,0,0:0:0:0:
235,39,67137,1,8,0:0:0:0:
235,39,67926,1,8,0:0:0:0:
235,39,69505,1,0,0:0:0:0:
235,39,70295,1,8,0:0:0:0:
235,39,71084,1,0,0:0:0:0:
235,39,73453,1,12,0:0:0:0:
235,39,74242,1,4,0:0:0:0:
235,39,74637,1,8,0:0:0:0:
235,39,75032,1,0,0:0:0:0:
235,39,75426,1,12,0:0:0:0:
235,39,75821,1,4,0:0:0:0:
235,39,76216,1,8,0:0:0:0:
235,39,76610,1,0,0:0:0:0:
235,39,77005,1,8,0:0:0:0:
235,39,77203,1,8,0:0:0:0:
235,39,77400,1,4,0:0:0:0:
235,39,77795,1,8,0:0:0:0:
235,39,78189,1,0,0:0:0:0:
235,39,78584,1,12,0:0:0:0:
258,44,78979,1,4,0:0:0:0:
258,44,79374,1,8,0:0:0:0:
258,44,79768,1,0,0:0:0:0:
261,44,80558,1,0,0:0:0:0:
258,55,80755,1,0,0:0:0:0:
258,55,80953,1,0,0:0:0:0:
264,100,81347,1,0,0:0:0:0:
264,100,81742,1,8,0:0:0:0:
264,100,82137,1,0,0:0:0:0:
264,100,82334,1,0,0:0:0:0:
264,100,82532,1,0,0:0:0:0:
258,55,82926,1,0,0:0:0:0:
258,55,83124,1,8,0:0:0:0:
258,55,83321,1,8,0:0:0:0:
258,55,83716,1,0,0:0:0:0:
258,55,84110,1,8,0:0:0:0:
103,48,84308,1,8,0:0:0:0:
258,55,84505,1,8,0:0:0:0:
258,55,84900,1,8,0:0:0:0:
258,55,85097,1,8,0:0:0:0:
258,55,85295,1,0,0:0:0:0:
475,378,86874,1,8,0:0:0:0:
429,310,87268,1,8,0:0:0:0:
361,208,87663,1,0,0:0:0:0:
298,106,88058,1,8,0:0:0:0:
298,106,88453,1,4,0:0:0:0:
252,61,88847,1,0,0:0:0:0:
298,106,89143,1,8,0:0:0:0:
269,63,90032,1,0,0:0:0:0:
251,51,90426,1,8,0:0:0:0:
251,51,90722,1,0,0:0:0:0:
251,51,91610,1,0,0:0:0:0:
251,51,92005,1,0,0:0:0:0:
251,51,92301,1,0,0:0:0:0:
166,131,93189,1,0,0:0:0:0:
166,131,93387,1,0,0:0:0:0:
269,63,93584,1,8,0:0:0:0:
274,39,93979,1,0,0:0:0:0:
298,106,94768,1,4,0:0:0:0:
298,106,95163,1,0,0:0:0:0:
298,106,95459,1,8,0:0:0:0:
269,63,96347,1,0,0:0:0:0:
251,51,96643,1,8,0:0:0:0:
160,128,97334,1,0,0:0:0:0:
251,51,97532,1,8,0:0:0:0:
251,51,97926,1,8,0:0:0:0:
149,109,98124,1,0,0:0:0:0:
149,109,98321,1,8,0:0:0:0:
274,39,99110,1,8,0:0:0:0:
269,63,99505,1,0,0:0:0:0:
274,39,99703,1,8,0:0:0:0:
174,129,99900,1,0,0:0:0:0:
274,39,100295,1,8,0:0:0:0:
298,106,101084,1,4,0:0:0:0:
298,106,101479,1,8,0:0:0:0:
298,106,101874,1,0,0:0:0:0:
251,51,102071,1,8,0:0:0:0:
251,51,102268,1,8,0:0:0:0:
269,63,102663,1,0,0:0:0:0:
284,59,103058,1,8,0:0:0:0:
251,51,103847,1,8,0:0:0:0:
249,51,104242,1,0,0:0:0:0:
149,107,104439,1,8,0:0:0:0:
151,33,104637,1,0,0:0:0:0:
269,62,105426,1,8,0:0:0:0:
249,51,105821,1,0,0:0:0:0:
312,67,106216,1,0,0:0:0:0:
312,67,106413,1,0,0:0:0:0:
312,67,106610,1,12,0:0:0:0:
33,65,107005,1,0,0:0:0:0:
298,106,107400,1,4,0:0:0:0:
298,106,107795,1,8,0:0:0:0:
298,106,108189,1,0,0:0:0:0:
251,51,108387,1,8,0:0:0:0:
251,51,108584,1,8,0:0:0:0:
269,63,108979,1,0,0:0:0:0:
284,59,109374,1,8,0:0:0:0:
251,51,110163,1,8,0:0:0:0:
249,51,110558,1,0,0:0:0:0:
251,51,110755,1,8,0:0:0:0:
287,73,110953,1,0,0:0:0:0:
362,121,111347,1,0,0:0:0:0:
269,62,111742,1,8,0:0:0:0:
177,3,111939,1,8,0:0:0:0:
249,51,112137,1,0,0:0:0:0:
186,54,112532,1,0,0:0:0:0:
128,160,112729,1,0,0:0:0:0:
257,106,112926,1,8,0:0:0:0:
312,67,113716,1,4,0:0:0:0:
300,164,114110,1,8,0:0:0:0:
245,142,114900,1,8,0:0:0:0:
272,119,115295,1,0,0:0:0:0:
272,119,115887,1,4,0:0:0:0:
272,119,116479,1,8,0:0:0:0:
272,119,116874,1,4,0:0:0:0:
259,107,117268,1,8,0:0:0:0:
256,133,117860,1,0,0:0:0:0:
256,133,118058,1,8,0:0:0:0:
256,133,118453,1,0,0:0:0:0:
256,133,118847,1,0,0:0:0:0:
256,133,119045,1,12,0:0:0:0:
217,63,120032,1,4,0:0:0:0:
250,81,120426,1,8,0:0:0:0:
232,46,121018,1,0,0:0:0:0:
250,81,121216,1,8,0:0:0:0:
227,38,121610,1,0,0:0:0:0:
227,38,122203,1,4,0:0:0:0:
227,38,122795,1,8,0:0:0:0:
227,38,123189,1,0,0:0:0:0:
258,104,123584,1,8,0:0:0:0:
258,104,123979,1,0,0:0:0:0:
258,104,124176,1,0,0:0:0:0:
227,38,124374,1,8,0:0:0:0:
227,38,124768,1,0,0:0:0:0:
227,38,125360,1,12,0:0:0:0:
227,38,125953,1,12,0:0:0:0:
227,38,126347,1,0,0:0:0:0:
