osu file format v14

[General]
AudioFilename: audio.mp3
AudioLeadIn: 0
PreviewTime: 189089
Countdown: 0
SampleSet: Soft
StackLeniency: 0.7
Mode: 2
LetterboxInBreaks: 0
WidescreenStoryboard: 0

[Editor]
Bookmarks: 54397,67548,162890,176041
DistanceSpacing: 0.8
BeatDivisor: 8
GridSize: 16
TimelineZoom: 2.999999

[Metadata]
Title:Purple Hyacinth feat. Norico
TitleUnicode:Purple Hyacinth feat. Norico
Artist:siqlo
ArtistUnicode:siqlo
Creator:Rocma
Version:Platter
Source:osu!
Tags:saikuro japanese electro pop emotional future bass vocal complextro tezuka encore spectator ft. featured artist fa Electronic
BeatmapID:2589589
BeatmapSetID:1245826

[Difficulty]
HPDrainRate:5
CircleSize:3.8
OverallDifficulty:8.3
ApproachRate:8.3
SliderMultiplier:2.56
SliderTickRate:0.5

[Events]
//Background and Video events
0,0,"hyacinth-1403653_1920.jpg",0,0
//Break Periods
//Storyboard Layer 0 (Background)
//Storyboard Layer 1 (Fail)
//Storyboard Layer 2 (Pass)
//Storyboard Layer 3 (Foreground)
//Storyboard Layer 4 (Overlay)
//Storyboard Sound Samples

[TimingPoints]
1178,410.958904109589,4,2,31,50,1,0
1795,410.958904109589,4,2,30,60,1,0
1897,-133.333333333333,4,2,31,60,0,0
13301,-133.333333333333,4,2,1,60,0,0
14123,-133.333333333333,4,2,1,60,0,0
14945,-133.333333333333,4,2,3,70,0,0
28096,-133.333333333333,4,2,3,70,0,0
43507,-133.333333333333,4,2,31,55,0,0
44534,-133.333333333333,4,2,3,70,0,0
50288,-133.333333333333,4,2,3,60,0,0
51110,-133.333333333333,4,2,3,70,0,0
51726,-133.333333333333,4,2,4,65,0,0
52137,-133.333333333333,4,2,4,65,0,0
54397,-100,4,2,1,70,0,0
58712,-100,4,2,1,75,0,0
58918,-100,4,2,1,70,0,0
60973,-100,4,2,70,70,0,0
61384,-100,4,2,1,70,0,0
61794,-100,4,2,70,70,0,0
61897,-100,4,2,1,70,0,0
63644,-100,4,2,70,70,0,0
63695,-100,4,2,1,70,0,0
64055,-100,4,2,70,70,0,0
64106,-100,4,2,1,70,0,0
65904,-100,4,2,1,70,0,0
67137,-100,4,2,32,70,0,0
67342,-100,4,2,1,70,0,0
69192,-100,4,2,70,70,0,0
70014,-100,4,2,1,70,0,0
71863,-100,4,2,70,70,0,0
72068,-100,4,2,1,70,0,0
72479,-100,4,2,70,70,0,0
72685,-100,4,2,1,70,0,0
74329,-100,4,2,71,70,0,0
74431,-100,4,2,1,70,0,0
78027,-100,4,2,71,70,0,0
78233,-100,4,2,1,70,0,0
78849,-100,4,2,30,70,0,0
79055,-100,4,2,72,70,0,0
80082,-100,4,2,3,60,0,0
80699,-133.333333333333,4,2,3,55,0,0
93849,-133.333333333333,4,2,5,60,0,0
100784,-133.333333333333,4,2,5,15,0,0
100836,-133.333333333333,4,2,5,60,0,0
101195,-133.333333333333,4,2,5,15,0,0
101247,-133.333333333333,4,2,5,60,0,0
101606,-133.333333333333,4,2,5,15,0,0
101658,-133.333333333333,4,2,5,60,0,0
102017,-133.333333333333,4,2,5,15,0,0
102068,-133.333333333333,4,2,5,60,0,0
102428,-133.333333333333,4,2,5,15,0,0
102479,-133.333333333333,4,2,5,60,0,0
102839,-133.333333333333,4,2,5,15,0,0
102890,-133.333333333333,4,2,5,60,0,0
103250,-133.333333333333,4,2,5,15,0,0
103301,-133.333333333333,4,2,5,60,0,0
104534,-133.333333333333,4,2,5,45,0,0
105356,-133.333333333333,4,2,3,60,0,0
107000,-133.333333333333,4,2,1,60,0,0
107205,-133.333333333333,4,2,1,55,0,0
120151,-133.333333333333,4,2,6,55,0,0
126521,-133.333333333333,4,2,6,63,0,0
128370,-133.333333333333,4,2,6,57,0,0
131247,-133.333333333333,4,2,6,60,0,0
133301,-133.333333333333,4,2,4,55,0,0
134945,-133.333333333333,4,2,4,58,0,0
136589,-133.333333333333,4,2,30,60,0,0
136692,-133.333333333333,4,2,7,60,0,0
156315,-133.333333333333,4,2,7,63,0,0
157959,-133.333333333333,4,2,7,64,0,0
159808,-133.333333333333,4,2,4,60,0,0
160836,-133.333333333333,4,2,4,65,0,0
161247,-133.333333333333,4,2,4,50,0,0
161658,-133.333333333333,4,2,4,60,0,0
162890,-100,4,2,1,70,0,0
169466,-100,4,2,70,70,0,0
169877,-100,4,2,1,70,0,0
172137,-100,4,2,70,70,0,0
172188,-100,4,2,1,70,0,0
172548,-100,4,2,70,70,0,0
172599,-100,4,2,1,70,0,0
175630,-100,4,2,32,70,0,0
175836,-100,4,2,1,70,0,0
176041,-76.9230769230769,4,2,1,70,0,0
176349,-100,4,2,1,70,0,0
177685,-100,4,2,70,70,0,0
178404,-100,4,2,1,70,0,0
180356,-100,4,2,1,70,0,0
180562,-100,4,2,1,70,0,0
182822,-100,4,2,71,70,0,0
183027,-100,4,2,1,70,0,0
186521,-100,4,2,71,70,0,0
186726,-100,4,2,1,70,0,0
187342,-100,4,2,30,70,0,0
187548,-100,4,2,72,70,0,0
188575,-100,4,2,3,70,0,0
189192,-100,4,2,3,70,0,0
195048,-100,4,2,75,70,0,0
195767,-100,4,2,3,70,0,0
197205,-100,4,2,1,70,0,0
197308,-100,4,2,3,70,0,0
198027,-100,4,2,1,70,0,0
198130,-100,4,2,3,70,0,0
198747,-100,4,2,1,70,0,0
199209,-100,4,2,3,70,0,0
199877,-100,4,2,75,70,0,0
202342,-100,4,2,3,70,0,0
208096,-100,4,2,76,70,0,0
208918,-100,4,2,3,70,0,0
221349,-100,4,2,76,70,0,0
221966,-100,4,2,3,70,0,0
223918,-100,4,2,4,70,0,0
224329,-100,4,2,1,70,0,0
224534,-100,4,2,4,70,0,0
225356,-100,4,2,76,70,0,0
225562,-100,4,2,76,70,0,0
225767,-100,4,2,76,70,0,0
226589,-100,4,2,75,70,0,0
228644,-100,4,2,3,70,0,0
234397,-100,4,2,75,70,0,0
235116,-100,4,2,3,70,0,0
239534,-100,4,2,1,70,0,0
239740,-100,4,2,3,70,0,0
239945,-100,4,2,1,70,0,0
240048,-100,4,2,4,70,0,0
241795,-100,4,2,99,70,0,0

[Colours]
Combo1 : 117,0,234
Combo2 : 193,132,255

[HitObjects]
352,256,1178,6,0,L|464:160,2,128,8|8|8,0:1|0:1|0:1,0:0:0:0:
176,304,1795,5,10,0:0:0:0:
85,283,2000,1,2,0:0:0:0:
46,199,2205,1,6,0:0:0:0:
89,116,2411,1,8,0:1:0:0:
176,304,2616,1,0,0:0:0:0:
267,283,2821,1,0,0:0:0:0:
306,199,3026,1,0,0:0:0:0:
263,116,3233,1,0,0:0:0:0:
176,112,3438,5,0,0:0:0:0:
272,128,3644,2,0,L|288:224,2,96.0000036621095,2|2|2,0:0|0:2|0:0,0:0:0:0:
432,192,4260,2,0,L|448:288,2,96.0000036621095,8|8|2,0:1|0:1|0:1,0:0:0:0:
256,208,4877,2,0,L|448:208,1,192.000007324219,8|2,0:1|0:0,0:0:0:0:
352,176,5493,1,4,0:0:0:0:
320,64,5699,1,2,0:0:0:0:
238,105,5904,5,0,0:0:0:0:
205,182,6109,1,0,0:0:0:0:
238,261,6314,1,0,0:0:0:0:
321,300,6520,1,0,0:0:0:0:
238,105,6726,5,0,0:0:0:0:
205,182,6931,1,0,0:0:0:0:
238,261,7136,1,0,0:0:0:0:
368,288,7342,1,8,0:1:0:0:
240,320,7548,2,0,L|208:192,3,96.0000036621095,8|8|8|8,0:1|0:1|0:1|0:1,0:0:0:0:
120,194,8370,6,0,L|120:98,1,96.0000036621095,4|0,0:1|0:0,0:0:0:0:
32,96,8781,1,0,0:1:0:0:
224,112,8986,2,0,L|448:112,1,192.000007324219,8|0,0:1|0:0,0:0:0:0:
336,176,9603,1,4,0:0:0:0:
208,208,9877,2,0,P|160:272|304:352,1,256.000009765625,8|4,0:1|0:0,0:0:0:0:
352,336,10630,2,0,L|144:336,1,192.000007324219,8|4,0:1|0:2,0:0:0:0:
464,320,11452,6,0,P|448:240|176:96,2,384.000014648438,4|0|0,0:3|0:0|0:0,0:0:0:0:
304,336,13301,6,0,L|96:336,2,192.000007324219,2|2|8,0:2|0:0|0:3,0:0:0:0:
416,304,14329,2,0,L|432:208,1,96.0000036621095,4|4,0:3|0:3,0:0:0:0:
320,192,14740,1,0,0:0:0:0:
32,240,14945,6,0,L|16:128,1,96.0000036621095,4|0,1:2|0:0,0:0:0:0:
96,112,15356,1,0,0:0:0:0:
240,96,15562,2,0,P|240:176|144:240,1,192.000007324219
64,256,16178,2,0,L|160:256,1,96.0000036621095
336,256,16795,6,0,L|224:256,2,96.0000036621095,0|0|4,0:0|0:0|0:0,0:0:0:0:
432,240,17411,2,0,L|448:128,1,96.0000036621095,8|4,0:0|0:0,0:0:0:0:
352,112,17822,1,0,0:0:0:0:
160,176,18027,6,0,L|352:176,1,192.000007324219
256,176,18644,1,0,0:0:0:0:
80,192,18849,2,0,P|32:224|112:304,1,192.000007324219
192,288,19466,1,0,0:0:0:0:
368,224,19671,6,0,L|160:224,1,192.000007324219,4|4,0:0|0:0,0:0:0:0:
480,160,20493,1,0,0:0:0:0:
368,160,20699,2,0,L|352:64,1,96.0000036621095,8|4,0:0|0:0,0:0:0:0:
448,32,21110,2,0,L|224:32,1,192.000007324219,0|4,0:0|0:0,0:0:0:0:
160,64,21726,6,0,L|144:160,1,96.0000036621095
240,176,22137,1,0,0:0:0:0:
80,208,22342,1,8,0:0:0:0:
64,240,22753,1,0,0:0:0:0:
160,256,22959,6,0,P|224:208|176:112,1,192.000007324219
80,96,23575,1,0,0:0:0:0:
256,96,23781,2,0,L|464:96,1,192.000007324219,4|4,0:0|0:0,0:0:0:0:
416,64,24603,6,0,P|281:124|435:335,1,480.000018310548,0|8,0:0|0:0,0:0:0:0:
224,320,26452,6,0,L|16:320,1,192.000007324219,4|4,0:0|0:0,0:0:0:0:
224,272,27274,1,8,0:0:0:0:
48,256,27479,2,0,L|32:64,1,192.000007324219,4|4,0:0|0:0,0:0:0:0:
304,64,28096,6,0,L|512:64,2,192.000007324219,4|4|8,0:0|0:0|0:0,0:0:0:0:
128,96,29123,2,0,L|112:288,1,192.000007324219,4|4,0:0|0:0,0:0:0:0:
288,304,29740,6,0,L|496:304,2,192.000007324219,4|0|2,0:0|0:0|0:0,0:0:0:0:
384,272,30767,1,2,0:0:0:0:
464,240,30973,1,2,0:0:0:0:
496,144,31178,1,2,0:0:0:0:
208,64,31384,6,0,L|0:64,2,192.000007324219,4|4|8,0:0|0:0|0:0,0:0:0:0:
384,96,32411,1,4,0:0:0:0:
399,287,32821,1,4,0:0:0:0:
224,304,33028,6,0,L|16:304,3,192.000007324219
144,256,34671,6,0,L|160:192,1,48.0000018310548,2|0,0:0|0:0,0:0:0:0:
224,208,34877,2,0,L|240:144,1,48.0000018310548,2|0,0:0|0:0,0:0:0:0:
304,160,35082,2,0,L|320:96,1,48.0000018310548,2|0,0:0|0:0,0:0:0:0:
384,112,35288,2,0,L|400:48,1,48.0000018310548,2|0,0:0|0:0,0:0:0:0:
256,48,35493,6,0,L|144:48,1,96.0000036621095,8|4,0:0|0:0,0:0:0:0:
320,112,36110,1,4,0:0:0:0:
144,128,36315,6,0,L|128:336,1,192.000007324219,2|2,0:0|0:0,0:0:0:0:
208,320,36931,1,0,0:0:0:0:
384,288,37137,1,2,0:0:0:0:
416,256,37342,1,2,0:0:0:0:
384,224,37548,1,2,0:0:0:0:
304,208,37753,1,2,0:0:0:0:
112,192,37959,6,0,L|272:192,1,144.000005493164,4|0,0:0|0:0,0:0:0:0:
256,144,38370,2,0,L|144:144,1,96.0000036621095,4|0,0:0|0:0,0:0:0:0:
352,128,38781,2,0,L|480:128,1,96.0000036621095,8|4,0:0|0:0,0:0:0:0:
480,208,39192,1,0,0:0:0:0:
448,288,39397,1,4,0:0:0:0:
272,304,39603,6,0,L|64:304,1,192.000007324219,2|0,0:0|0:0,0:0:0:0:
352,288,40425,2,0,L|336:176,1,96.0000036621095,8|0,0:0|0:0,0:0:0:0:
192,160,40836,2,0,L|208:48,1,96.0000036621095
496,176,41247,6,0,L|272:176,1,192.000007324219,4|4,0:0|0:0,0:0:0:0:
176,192,42068,1,8,0:0:0:0:
368,208,42274,2,0,L|400:16,1,192.000007324219,4|4,0:0|0:0,0:0:0:0:
224,48,43096,6,0,L|16:48,1,192.000007324219,0|2,0:0|0:0,0:0:0:0:
112,32,43610,1,0,0:1:0:0:
112,32,43712,1,8,0:1:0:0:
32,96,43918,1,2,0:1:0:0:
128,144,44123,1,8,0:1:0:0:
80,144,44225,1,0,0:1:0:0:
32,144,44328,1,2,0:0:0:0:
304,208,44534,6,0,L|496:208,1,192.000007324219,4|4,0:0|0:0,0:0:0:0:
400,208,45151,1,0,0:0:0:0:
224,272,45356,1,8,0:0:0:0:
320,240,45562,2,0,L|128:240,1,192.000007324219,4|4,0:0|0:0,0:0:0:0:
432,272,46178,6,0,P|464:192|416:80,1,192.000007324219,2|0,0:0|0:0,0:0:0:0:
256,80,46794,1,2,0:0:0:0:
80,272,47000,2,0,P|48:192|96:80,1,192.000007324219,0|2,0:0|0:0,0:0:0:0:
448,112,47822,5,4,0:0:0:0:
320,112,48233,1,4,0:0:0:0:
192,112,48644,1,4,0:0:0:0:
64,112,49055,1,4,0:0:0:0:
448,112,49466,5,4,0:0:0:0:
384,112,49671,1,4,0:0:0:0:
320,112,49877,1,4,0:0:0:0:
256,112,50082,1,4,0:0:0:0:
192,112,50288,1,4,0:0:0:0:
160,112,50390,1,4,0:0:0:0:
128,112,50493,1,4,0:0:0:0:
96,112,50596,1,4,0:0:0:0:
64,112,50699,1,4,0:0:0:0:
96,112,50801,1,4,0:0:0:0:
128,112,50904,1,0,0:0:0:0:
400,112,51110,5,8,0:0:0:0:
480,112,51315,2,0,P|480:176|368:240,1,192.000007324219,4|2,0:0|0:2,0:0:0:0:
32,112,52137,1,2,0:0:0:0:
46,203,52342,1,8,0:0:0:0:
130,241,52547,1,0,0:0:0:0:
304,256,52753,6,0,L|304:144,1,96.0000036621095,8|4,0:0|0:0,0:0:0:0:
416,208,53164,2,0,L|416:96,1,96.0000036621095,4|8,0:0|0:3,0:0:0:0:
240,160,53575,2,0,L|240:96,1,48.0000018310548,6|0,0:0|0:0,0:0:0:0:
304,128,53781,2,0,L|304:64,1,48.0000018310548,2|0,0:0|0:0,0:0:0:0:
208,80,53986,2,0,L|112:80,1,96.0000036621095,4|8,0:0|0:0,0:0:0:0:
400,176,54397,6,0,L|432:176,6,32,0|0|0|0|0|0|0,3:0|3:0|3:0|3:0|3:0|3:0|3:0,3:0:0:0:
272,176,54808,2,0,L|208:176,2,64,8|0|0,0:0|0:0|0:0,0:0:0:0:
384,144,55219,6,0,L|384:80,1,64,0|0,1:1|3:0,0:0:0:0:
304,64,55425,2,0,L|240:64,1,64,0|0,3:0|3:0,3:0:0:0:
320,112,55630,1,8,0:0:0:0:
368,112,55732,1,0,0:0:0:0:
384,112,55835,1,0,0:0:0:0:
112,176,56041,5,2,1:3:0:0:
48,192,56143,1,2,3:0:0:0:
16,224,56195,1,0,3:0:0:0:
48,256,56247,1,2,3:0:0:0:
224,304,56452,1,10,3:3:0:0:
160,304,56554,1,0,3:0:0:0:
128,304,56606,1,2,3:0:0:0:
96,304,56657,1,0,3:0:0:0:
304,304,56863,6,0,L|448:304,1,128,0|0,1:0|3:0,0:0:0:0:
304,240,57274,2,0,L|304:176,1,64,8|0,0:0|3:0,0:0:0:0:
368,160,57479,1,2,2:2:0:0:
64,144,57685,6,0,L|48:288,1,128,0|0,1:0|0:0,0:0:0:0:
256,288,58096,1,8,0:0:0:0:
144,288,58301,2,0,L|128:144,1,128,0|0,3:0|1:0,0:0:0:0:
224,144,58711,1,4,0:3:0:0:
224,144,58764,1,4,0:3:0:0:
224,144,58815,1,4,0:3:0:0:
352,128,58918,2,0,P|404:134|432:224,1,128,8|0,0:0|2:0,0:0:0:0:
160,192,59329,6,0,P|124:253|176:288,1,128,0|0,1:0|3:0,0:0:0:0:
256,272,59740,1,2,0:1:0:0:
304,272,59842,1,2,0:1:0:0:
256,272,59945,1,2,0:1:0:0:
304,272,60047,1,2,0:1:0:0:
416,240,60151,5,4,0:1:0:0:
416,240,60253,1,4,0:1:0:0:
384,240,60305,1,4,0:1:0:0:
352,240,60356,1,0,1:0:0:0:
80,224,60562,2,0,P|16:272|96:336,1,192,8|0,0:0|0:0,0:0:0:0:
144,336,60973,6,4,L|144:304,4,32,4|4|4|4|4,0:1|0:1|0:1|0:1|0:1,0:1:0:0:
432,336,61384,6,0,L|448:192,1,128,8|0,2:0|0:0,0:0:0:0:
320,176,61794,2,0,L|464:176,1,128,2|0,1:1|3:0,0:0:0:0:
384,176,62103,1,0,3:0:0:0:
256,176,62205,1,8,3:2:0:0:
128,176,62411,6,0,L|112:304,1,128,0|0,3:0|1:0,0:0:0:0:
240,320,62822,1,0,3:0:0:0:
432,320,63027,2,0,L|432:240,1,64,8|0,0:0|3:0,0:0:0:0:
368,272,63233,2,0,L|368:192,1,64,0|0,3:0|3:0,0:0:0:0:
304,224,63438,6,0,L|304:96,1,128,0|8,1:0|3:1,0:0:0:0:
368,80,63695,1,0,3:0:0:0:
304,64,63849,1,8,0:0:0:0:
160,80,64055,2,0,L|160:112,1,32,8|0,0:1|0:0,0:0:0:0:
416,160,64260,6,0,L|416:304,1,128,0|0,1:0|1:0,1:0:0:0:
208,288,64671,2,0,L|208:160,1,128,8|0,0:0|0:0,0:0:0:0:
336,144,65082,2,0,L|208:144,1,128,0|0,1:0|3:0,0:0:0:0:
416,80,65493,2,0,L|416:224,1,128,8|0,0:0|3:3,0:0:0:0:
144,336,65904,6,0,P|82:284|160:224,1,192,4|0,0:0|0:0,0:0:0:0:
288,224,66315,2,0,P|350:172|272:112,1,192,4|0,0:0|0:0,0:0:0:0:
144,128,66726,2,0,L|16:128,3,128,4|0|8|0,0:0|0:0|0:0|0:0,0:0:0:0:
336,144,67548,6,0,B|464:144|464:144|400:144,1,192,0|0,1:0|0:0,0:0:0:0:
256,144,67959,2,0,L|192:144,1,64,8|0,0:0|0:0,0:0:0:0:
192,144,68164,1,0,0:0:0:0:
96,176,68370,1,0,1:0:0:0:
96,240,68472,1,0,3:0:0:0:
96,304,68575,1,0,3:0:0:0:
224,304,68781,2,0,L|272:304,2,32,8|0|0,0:0|3:0|3:0,0:0:0:0:
160,304,68986,2,0,L|160:272,1,32,0|0,3:0|3:0,3:0:0:0:
400,272,69192,5,2,1:3:0:0:
457,247,69294,1,0,3:0:0:0:
474,220,69346,1,0,3:0:0:0:
481,189,69397,1,0,3:0:0:0:
288,176,69603,5,10,3:3:0:0:
230,151,69705,1,0,3:0:0:0:
213,124,69757,1,0,3:0:0:0:
206,93,69808,1,0,3:0:0:0:
320,80,70014,6,0,L|448:80,3,128,0|0|8|0,1:0|0:0|0:0|0:0,0:0:0:0:
144,144,70836,6,0,B|144:272|144:272|288:272,1,256,0|8,1:0|0:0,0:0:0:0:
64,320,71452,2,0,L|64:176,1,128,0|0,3:0|3:0,0:0:0:0:
192,192,71863,2,4,L|192:144,2,32,4|4|4,3:0|3:0|3:0,3:0:0:0:
64,192,72068,2,0,L|64:64,1,128,8|0,0:0|3:0,0:0:0:0:
265,50,72479,6,0,L|137:50,1,128,2|0,1:2|2:0,0:0:0:0:
265,130,72890,2,0,L|329:130,1,64,8|0,0:0|0:0,0:0:0:0:
393,130,73096,2,0,L|313:130,1,64,0|0,3:0|3:0,0:0:0:0:
249,130,73301,5,4,1:1:0:0:
249,194,73403,1,4,3:1:0:0:
249,226,73455,1,0,3:1:0:0:
249,258,73506,1,4,3:1:0:0:
377,178,73712,5,10,3:0:0:0:
377,242,73815,1,0,3:0:0:0:
377,274,73866,1,0,3:0:0:0:
377,306,73918,1,0,3:0:0:0:
345,306,73969,1,0,3:0:0:0:
313,306,74021,1,0,3:0:0:0:
185,290,74123,6,0,L|46:288,1,128,2|2,0:0|0:0,0:0:0:0:
368,192,74534,1,8,0:0:0:0:
432,176,74637,1,0,0:0:0:0:
447,113,74739,1,2,0:0:0:0:
432,176,74842,1,0,0:0:0:0:
368,192,74945,2,0,L|480:128,1,128,0|0,1:0|3:0,0:0:0:0:
272,144,75356,2,0,L|400:144,1,128,8|0,0:0|3:0,0:0:0:0:
80,320,75767,6,0,L|64:128,1,192,0|0,1:0|0:0,0:0:0:0:
192,176,76178,2,0,L|208:32,1,128,8|0,0:0|0:1,0:0:0:0:
336,48,76589,2,0,L|400:48,2,64,2|2|2,0:3|0:3|0:3,0:3:0:0:
144,120,77000,2,0,L|288:120,1,128,8|2,0:0|0:1,0:0:0:0:
75,160,77411,6,0,P|64:208|160:320,1,192,0|0,1:0|0:0,0:0:0:0:
272,288,77822,2,0,L|128:288,1,128,8|4,0:0|2:2,0:0:0:0:
272,256,78233,2,0,P|320:224|288:112,1,192,0|0,1:0|0:0,0:0:0:0:
159,111,78644,2,0,L|303:111,1,128,8|8,0:0|0:0,0:0:0:0:
16,128,79055,6,0,L|16:336,1,192,8|0,1:2|0:0,0:0:0:0:
144,144,79466,2,0,L|144:352,1,192,8|0,1:2|0:0,0:0:0:0:
272,80,79877,2,0,B|272:224,1,128,8|8,1:2|0:0,0:0:0:0:
160,224,80288,1,8,0:0:0:0:
48,240,80493,1,8,0:0:0:0:
416,320,80699,5,4,0:0:0:0:
256,272,81110,1,8,0:0:0:0:
416,256,81521,1,4,0:0:0:0:
256,192,81726,1,8,0:0:0:0:
416,192,82137,1,8,0:0:0:0:
416,128,82342,1,4,0:0:0:0:
256,96,82548,1,8,0:0:0:0:
416,64,82959,1,8,0:0:0:0:
256,48,83164,1,4,0:0:0:0:
256,96,83575,1,8,0:0:0:0:
256,144,83781,1,0,0:0:0:0:
96,320,83986,5,4,0:0:0:0:
256,272,84397,1,8,0:0:0:0:
96,256,84808,1,4,0:0:0:0:
256,192,85013,1,8,0:0:0:0:
96,192,85424,1,8,0:0:0:0:
96,128,85629,1,4,0:0:0:0:
256,96,85835,1,8,0:0:0:0:
96,64,86246,1,8,0:0:0:0:
256,48,86451,1,4,0:0:0:0:
176,64,86658,1,0,0:0:0:0:
176,144,86862,1,8,0:0:0:0:
96,64,87068,1,4,0:0:0:0:
256,320,87274,5,4,0:0:0:0:
416,272,87685,1,8,0:0:0:0:
256,256,88096,1,4,0:0:0:0:
416,192,88301,1,8,0:0:0:0:
256,192,88712,1,8,0:0:0:0:
256,128,88918,1,4,0:0:0:0:
416,96,89123,1,8,0:0:0:0:
256,64,89534,1,4,0:0:0:0:
416,48,89739,1,8,0:0:0:0:
416,96,90150,1,8,0:0:0:0:
256,320,90562,5,4,0:0:0:0:
96,272,90973,1,8,0:0:0:0:
256,256,91384,1,4,0:0:0:0:
96,192,91589,1,8,0:0:0:0:
256,192,92000,1,4,0:0:0:0:
256,128,92205,1,4,0:0:0:0:
96,96,92411,1,8,0:0:0:0:
256,64,92822,1,4,0:0:0:0:
96,48,93027,1,8,0:0:0:0:
176,112,93233,1,8,0:0:0:0:
176,112,93438,1,8,0:0:0:0:
96,48,93644,1,8,0:0:0:0:
384,320,93849,6,0,L|384:192,1,96.0000036621095,4|4,0:1|0:0,0:0:0:0:
208,192,94260,2,0,L|336:192,1,96.0000036621095,8|4,0:0|0:0,0:0:0:0:
208,192,94671,2,0,L|208:80,1,96.0000036621095,0|4,1:0|0:0,0:0:0:0:
32,96,95082,2,0,L|144:96,1,96.0000036621095,8|4,0:0|0:0,0:0:0:0:
208,144,95493,6,0,L|112:144,3,96.0000036621095,0|4|8|4,1:0|0:0|0:0|0:0,0:0:0:0:
304,144,96315,2,0,L|400:144,3,96.0000036621095,0|4|8|4,1:0|0:0|0:0|0:0,0:0:0:0:
128,320,97137,6,0,L|128:192,1,96.0000036621095,0|4,1:0|0:0,0:0:0:0:
304,192,97548,2,0,L|176:192,1,96.0000036621095,8|4,0:0|0:0,0:0:0:0:
304,192,97959,2,0,L|304:80,1,96.0000036621095,0|4,1:0|0:0,0:0:0:0:
480,96,98370,2,0,L|368:96,1,96.0000036621095,8|4,0:0|0:0,0:0:0:0:
288,144,98781,6,0,L|384:144,2,96.0000036621095,0|4|8,1:0|0:0|0:0,0:0:0:0:
176,352,99397,1,4,0:0:0:0:
92,308,99602,1,0,1:0:0:0:
60,220,99808,1,4,0:0:0:0:
96,134,100013,1,8,0:0:0:0:
182,94,100218,1,4,0:0:0:0:
464,224,100425,6,0,L|288:224,1,168.000006408692,8|0,0:0|0:0,0:0:0:0:
288,160,100836,2,0,L|464:160,1,168.000006408692,8|0,0:0|0:0,0:0:0:0:
432,112,101247,2,0,L|256:112,1,168.000006408692,8|0,0:0|0:0,0:0:0:0:
240,48,101658,2,0,L|416:48,1,168.000006408692,8|0,0:0|0:0,0:0:0:0:
368,64,102068,6,0,L|192:64,1,168.000006408692,8|0,0:0|0:0,0:0:0:0:
160,112,102479,2,0,L|336:112,1,168.000006408692,8|0,0:0|0:0,0:0:0:0:
272,160,102890,2,0,L|96:160,1,168.000006408692,8|0,0:0|0:0,0:0:0:0:
48,208,103301,2,0,L|176:208,1,120.000004577637,8|0,0:0|0:0,0:0:0:0:
448,288,103712,6,8,L|448:192,1,96.0000036621095
288,240,104123,2,8,L|288:144,1,96.0000036621095
448,144,104535,2,8,L|448:208,1,48.0000018310548
368,176,104740,2,8,L|368:224,1,48.0000018310548
224,224,104945,2,8,L|224:288,1,48.0000018310548
304,256,105150,2,8,L|304:304,1,48.0000018310548
224,320,105356,6,0,L|128:320,1,96.0000036621095,0|0,1:0|1:0,1:0:0:0:
288,320,105767,2,0,L|384:320,1,96.0000036621095,8|0,0:0|0:0,0:0:0:0:
176,272,106178,1,0,1:0:0:0:
384,320,106384,2,0,L|496:320,2,96.0000036621095,0|8|8,1:0|0:0|3:2,0:0:0:0:
113,253,107000,6,0,L|1:253,1,96.0000036621095,4|0,0:0|0:0,0:0:0:0:
176,336,107616,2,0,P|64:304|192:72,1,480.000018310548,2|0,0:0|0:0,0:0:0:0:
272,128,108849,1,0,0:0:0:0:
176,160,109055,1,0,0:0:0:0:
272,176,109260,1,2,0:0:0:0:
160,224,109466,1,2,0:0:0:0:
288,224,109671,1,2,0:0:0:0:
160,224,109877,1,2,0:0:0:0:
368,288,110082,5,2,0:0:0:0:
256,256,110493,2,2,L|256:144,1,96.0000036621095
112,128,110904,2,0,L|416:128,1,288.000010986329,2|2,0:0|0:0,0:0:0:0:
256,128,111726,1,2,0:0:0:0:
432,128,112548,5,2,0:0:0:0:
256,128,112753,1,2,0:0:0:0:
272,240,112959,1,2,0:0:0:0:
352,336,113164,1,2,0:0:0:0:
464,368,113370,1,2,0:0:0:0:
352,336,113575,1,2,0:0:0:0:
256,128,114192,1,2,0:0:0:0:
240,240,114398,1,2,0:0:0:0:
160,336,114603,1,2,0:0:0:0:
48,368,114809,1,2,0:0:0:0:
160,336,115014,1,2,0:0:0:0:
240,240,115219,6,0,P|224:160|128:112,1,192.000007324219,2|0,0:0|0:0,0:0:0:0:
272,240,115836,2,0,P|288:160|384:112,1,192.000007324219,2|0,0:0|0:0,0:0:0:0:
16,304,116658,6,0,L|512:304,1,480.000018310548,2|0,0:0|0:0,0:0:0:0:
288,288,118096,2,0,L|80:288,1,192.000007324219,2|2,0:0|0:0,0:0:0:0:
288,256,118918,2,0,P|368:224|320:144,1,192.000007324219,2|2,0:0|0:0,0:0:0:0:
192,112,119586,2,0,L|407:39,1,216.000008239746,2|0,0:0|0:0,0:0:0:0:
272,160,120151,6,0,L|272:256,1,96.0000036621095,6|0,0:0|0:0,0:0:0:0:
384,240,120562,2,0,L|384:352,1,96.0000036621095,4|0,0:0|0:0,0:0:0:0:
272,160,120973,2,0,L|368:160,3,96.0000036621095,4|2|6|2,0:0|0:0|0:0|0:0,0:0:0:0:
320,160,121692,1,0,0:0:0:0:
192,160,121794,6,0,L|96:160,2,96.0000036621095,4|0|4,0:0|0:0|0:0,0:0:0:0:
320,160,122411,2,0,B|416:160|416:160|304:160,1,192.000007324219,2|2,0:0|0:0,0:0:0:0:
192,160,123027,1,4,0:0:0:0:
384,224,123233,6,0,P|432:176|387:70,1,192.000007324219,2|2,0:0|0:0,0:0:0:0:
224,80,123849,1,6,0:0:0:0:
128,224,124055,2,0,P|80:176|125:70,1,192.000007324219,2|0,0:0|0:0,0:0:0:0:
336,96,124877,1,2,0:0:0:0:
144,96,125082,6,0,P|80:112|48:224,1,192.000007324219,6|0,0:0|0:0,0:0:0:0:
240,256,125904,2,0,L|48:256,1,192.000007324219,6|2,0:0|0:0,0:0:0:0:
352,288,126521,6,0,P|400:256|352:144,1,192.000007324219,2|0,0:0|0:0,0:0:0:0:
96,144,127137,1,6,0:0:0:0:
208,144,127342,2,0,P|256:176|190:272,1,192.000007324219,2|0,0:0|0:0,0:0:0:0:
96,256,127959,2,0,L|96:48,1,192.000007324219,6|4,0:0|0:0,0:0:0:0:
256,80,128781,5,6,0:0:0:0:
160,80,128986,2,0,P|176:160|288:192,1,192.000007324219,2|0,0:0|0:0,0:0:0:0:
384,192,129603,2,0,L|272:192,1,96.0000036621095,6|2,0:0|0:0,0:0:0:0:
400,192,130014,6,0,P|480:128|384:0,1,288.000010986329,6|0,0:0|0:0,0:0:0:0:
240,80,131247,2,0,L|240:192,1,96.0000036621095,6|2,0:0|0:0,0:0:0:0:
64,176,131658,6,0,P|80:256|192:288,1,192.000007324219,6|4,0:0|0:0,0:0:0:0:
336,292,132274,2,0,P|424:264|448:176,1,192.000007324219,2|0,0:0|0:0,0:0:0:0:
352,144,132890,2,0,L|464:144,1,96.0000036621095,6|2,0:0|0:0,0:0:0:0:
144,304,133301,6,0,L|48:304,2,96.0000036621095,8|0|8,0:0|0:0|0:0,0:0:0:0:
320,304,133918,2,0,L|320:112,1,192.000007324219,4|4,0:0|0:0,0:0:0:0:
224,112,134534,2,0,L|320:112,1,96.0000036621095,8|0,0:0|0:0,0:0:0:0:
272,112,134842,1,0,0:0:0:0:
144,112,134945,6,0,L|128:208,1,96.0000036621095,8|2,0:0|0:0,0:0:0:0:
256,176,135356,2,0,L|240:272,1,96.0000036621095,8|2,0:0|0:0,0:0:0:0:
32,320,135767,6,4,L|32:256,3,48.0000018310548
112,288,136178,2,0,L|224:288,1,96.0000036621095,8|2,0:0|0:0,0:0:0:0:
496,304,136589,6,0,L|304:304,1,192.000007324219,2|4,0:0|0:0,0:0:0:0:
400,272,137205,2,0,L|400:208,1,48.0000018310548
480,192,137411,2,0,L|384:192,1,96.0000036621095,4|0,0:0|0:0,0:0:0:0:
192,176,137822,2,0,L|304:176,1,96.0000036621095,4|0,0:0|0:0,0:0:0:0:
304,112,138130,1,0,0:0:0:0:
176,112,138233,6,0,P|96:144|64:256,1,192.000007324219,4|4,0:0|0:0,0:0:0:0:
256,192,138849,2,0,P|336:224|368:336,2,192.000007324219
80,160,139877,6,0,P|80:224|192:272,1,192.000007324219,4|4,0:0|0:0,0:0:0:0:
288,256,140493,2,0,L|288:192,1,48.0000018310548
368,208,140699,2,0,L|368:112,1,96.0000036621095,4|0,0:0|0:0,0:0:0:0:
256,96,141110,2,0,L|368:96,1,96.0000036621095,4|0,0:0|0:0,0:0:0:0:
160,128,141521,6,0,P|80:144|48:240,3,192.000007324219,4|4|4|4,0:0|0:0|0:0|0:0,0:0:0:0:
208,272,143164,6,0,L|400:272,1,192.000007324219,4|4,0:0|0:0,0:0:0:0:
288,224,143781,2,0,L|336:224,1,48.0000018310548
400,208,143986,2,0,L|288:208,1,96.0000036621095,4|0,0:0|0:0,0:0:0:0:
416,176,144397,2,0,P|464:144|448:80,1,96.0000036621095,4|0,0:0|0:0,0:0:0:0:
336,96,144808,6,0,L|336:288,1,192.000007324219,4|4,0:0|0:0,0:0:0:0:
16,96,145425,2,0,L|16:288,1,192.000007324219
112,288,146041,2,0,L|224:288,1,96.0000036621095,4|0,0:0|0:0,0:0:0:0:
368,288,146452,6,0,L|368:80,1,192.000007324219,4|4,0:0|0:0,0:0:0:0:
256,96,147068,1,0,0:0:0:0:
304,96,147171,2,0,L|304:240,1,144.000005493164
208,256,147685,1,4,0:0:0:0:
496,256,147890,6,0,L|272:256,1,192.000007324219
400,224,148507,2,0,L|416:112,1,96.0000036621095,4|0,0:0|0:0,0:0:0:0:
304,80,148918,2,0,L|416:80,1,96.0000036621095,4|0,0:0|0:0,0:0:0:0:
208,112,149329,2,0,P|144:144|192:224,1,144.000005493164,4|0,0:0|0:0,0:0:0:0:
272,256,149740,6,0,L|272:48,1,192.000007324219,8|8,0:0|0:0,0:0:0:0:
368,160,150356,2,0,L|368:96,1,48.0000018310548
432,112,150562,2,0,L|432:240,1,96.0000036621095,8|0,0:0|0:0,0:0:0:0:
256,224,150973,2,0,L|160:224,1,96.0000036621095,8|0,0:0|0:0,0:0:0:0:
336,256,151384,6,0,L|432:256,2,96.0000036621095,8|0|8,0:0|0:0|0:0,0:0:0:0:
144,256,152000,2,0,P|80:208|160:144,1,192.000007324219
256,112,152616,2,0,L|160:112,1,96.0000036621095,8|0,0:0|0:0,0:0:0:0:
208,112,152925,1,8,0:0:0:0:
304,112,153027,6,0,L|432:112,2,96.0000036621095,8|0|8,0:0|0:0|0:0,0:0:0:0:
192,128,153644,2,0,L|192:192,1,48.0000018310548
272,192,153849,2,0,L|144:192,1,96.0000036621095,8|0,0:0|0:0,0:0:0:0:
288,240,154260,2,0,L|416:240,1,96.0000036621095,8|0,0:0|0:0,0:0:0:0:
96,320,154671,6,0,P|48:272|128:176,1,192.000007324219,8|8,0:0|0:0,0:0:0:0:
288,176,155493,1,8,0:0:0:0:
176,160,155699,2,0,L|160:48,1,96.0000036621095,0|8,0:0|0:0,0:0:0:0:
186,63,155955,1,0,0:0:0:0:
208,64,156007,1,0,0:0:0:0:
272,48,156110,1,8,0:0:0:0:
80,64,156315,6,0,L|48:192,3,96.0000036621095,8|8|8|8,0:0|0:0|0:0|0:0,0:0:0:0:
96,176,157034,1,0,0:0:0:0:
224,176,157137,2,0,L|256:304,3,96.0000036621095,8|8|8|8,0:0|0:0|0:0|0:0,0:0:0:0:
336,240,157959,6,0,L|304:368,2,96.0000036621095,8|8|8,0:0|0:0|0:0,0:0:0:0:
160,192,158575,2,0,L|128:320,2,96.0000036621095,8|8|8,0:0|0:0|0:0,0:0:0:0:
336,240,159192,2,0,L|304:368,1,96.0000036621095,8|8,0:0|0:0,0:0:0:0:
144,320,159603,6,0,L|48:320,2,96.0000036621095,8|4|8,0:0|0:0|0:0,0:0:0:0:
272,288,160219,2,0,L|192:288,1,48.0000018310548
272,288,160425,2,0,L|400:288,2,96.0000036621095,4|4|8,0:0|0:0|0:0,0:0:0:0:
144,272,161041,1,4,0:0:0:0:
80,224,161247,6,0,L|80:112,2,96.0000036621095,2|2|8,0:0|0:0|0:0,0:0:0:0:
144,272,161863,1,8,0:3:0:0:
80,224,162068,6,0,L|80:112,1,96.0000036621095,2|2,0:0|0:0,0:0:0:0:
352,192,162479,2,0,L|448:192,1,96.0000036621095,4|4,0:0|0:0,0:0:0:0:
112,176,162890,6,0,L|80:176,6,32,0|0|0|0|0|0|0,3:0|3:0|3:0|3:0|3:0|3:0|3:0,3:0:0:0:
240,176,163301,2,0,L|304:176,2,64,8|0|0,2:2|2:0|2:0,0:0:0:0:
128,144,163712,6,0,L|192:144,1,64,0|0,1:0|0:0,0:0:0:0:
272,128,163918,2,0,L|272:64,1,64
192,112,164123,1,8,0:2:0:0:
144,112,164225,1,0,0:0:0:0:
128,112,164328,1,0,0:0:0:0:
400,176,164534,5,2,1:3:0:0:
464,176,164638,1,0,3:0:0:0:
496,208,164688,1,0,3:0:0:0:
464,240,164740,1,0,3:0:0:0:
288,304,164945,1,10,1:3:0:0:
352,304,165047,1,0,3:0:0:0:
384,304,165099,1,0,3:0:0:0:
416,304,165150,1,0,1:0:0:0:
208,304,165356,6,0,L|64:304,1,128,0|0,1:0|3:0,0:0:0:0:
208,240,165767,2,0,L|144:240,1,64,8|0,0:0|0:0,0:0:0:0:
144,160,165972,1,2,0:0:0:0:
448,144,166178,6,0,L|464:288,1,128,0|0,1:0|0:0,0:0:0:0:
256,288,166589,1,8,0:0:0:0:
368,288,166795,2,0,L|384:144,1,128,0|0,3:0|1:0,0:0:0:0:
288,144,167204,1,4,0:3:0:0:
288,144,167257,1,4,0:3:0:0:
288,144,167308,1,4,0:3:0:0:
160,128,167411,2,0,L|48:208,1,128,8|0,0:0|3:0,0:0:0:0:
352,192,167822,6,0,P|388:253|336:288,1,128,0|0,1:0|0:0,0:0:0:0:
256,272,168233,1,2,1:1:0:0:
208,272,168335,1,2,0:1:0:0:
256,272,168438,1,2,0:1:0:0:
208,272,168540,1,2,0:1:0:0:
96,240,168644,6,4,L|80:192,2,32,4|4|4,3:1|3:1|3:1,3:1:0:0:
160,240,168849,1,0,1:0:0:0:
432,224,169055,2,0,P|496:272|416:336,1,192,8|0,0:0|0:0,0:0:0:0:
368,336,169466,6,4,L|368:304,4,32,4|4|4|4|4,3:1|3:1|3:1|3:1|3:1,3:1:0:0:
80,336,169877,6,0,L|64:192,1,128,8|0,2:0|0:0,0:0:0:0:
192,176,170287,2,0,L|336:176,1,128,0|0,1:0|3:0,0:0:0:0:
256,176,170596,1,0,3:0:0:0:
144,176,170698,1,8,0:0:0:0:
32,272,170904,6,0,L|160:272,1,128,0|0,3:0|1:0,0:0:0:0:
272,320,171315,1,0,0:0:0:0:
80,320,171520,2,0,L|80:240,1,64,8|0,0:0|0:0,0:0:0:0:
144,272,171726,2,0,L|144:192,1,64
208,224,171931,6,0,L|208:96,1,128,0|8,1:0|0:1,0:0:0:0:
144,80,172188,1,0,3:0:0:0:
144,80,172240,1,0,0:0:0:0:
208,64,172342,1,8,0:0:0:0:
336,80,172548,2,0,L|336:112,1,32,8|0,0:1|0:0,0:0:0:0:
96,160,172753,6,0,L|96:304,1,128,0|0,1:0|1:0,1:0:0:0:
304,288,173164,2,0,L|304:160,1,128,8|0,0:0|0:0,0:0:0:0:
176,144,173575,2,0,L|304:144,1,128,0|0,1:0|3:0,0:0:0:0:
96,80,173986,2,0,L|96:224,1,128,8|0,0:0|3:0,0:0:0:0:
368,336,174397,6,0,P|430:284|352:224,1,192,4|0,0:0|0:0,0:0:0:0:
224,224,174808,2,0,P|162:172|240:112,1,192,4|0,0:0|0:0,0:0:0:0:
368,128,175219,2,0,L|496:128,3,128,4|0|8|0,0:0|0:0|0:0|0:0,0:0:0:0:
176,144,176041,6,0,B|143:185|143:185|61:185|61:185|48:144|48:144|112:112,1,249.599988574219,0|0,1:0|0:0,0:0:0:0:
256,144,176452,2,0,L|320:144,1,64,8|0,0:0|0:0,0:0:0:0:
320,144,176657,1,0,0:0:0:0:
416,176,176863,1,0,1:0:0:0:
416,240,176965,1,0,0:0:0:0:
416,304,177068,1,0,0:0:0:0:
288,304,177274,2,0,L|240:304,2,32,8|0|0,0:0|0:0|0:0,0:0:0:0:
352,304,177479,2,0,L|352:272,1,32,0|0,3:0|3:0,3:0:0:0:
112,272,177685,5,2,1:3:0:0:
55,247,177787,1,0,3:0:0:0:
38,220,177839,1,0,3:0:0:0:
31,189,177890,1,0,3:0:0:0:
224,176,178096,5,10,3:0:0:0:
282,151,178198,1,0,3:0:0:0:
299,124,178250,1,0,3:0:0:0:
306,93,178301,1,0,3:0:0:0:
192,80,178507,6,0,L|64:80,3,128,0|0|8|0,1:0|0:0|0:0|0:0,0:0:0:0:
368,144,179329,6,0,B|368:272|368:272|224:272,1,256,0|8,1:0|0:0,0:0:0:0:
448,320,179945,2,0,L|448:176,1,128,0|0,0:0|1:0,0:0:0:0:
320,192,180356,2,4,L|320:144,2,32,4|4|4,0:3|0:3|0:3,0:3:0:0:
448,192,180562,2,0,P|444:116|402:73,1,128,8|0,0:0|3:0,0:0:0:0:
216,92,180972,6,0,L|344:92,1,128,0|0,1:0|0:0,0:0:0:0:
235,53,181383,2,0,L|171:53,1,64,8|0,0:0|0:0,0:0:0:0:
235,53,181589,2,0,L|315:53,1,64
367,130,181794,5,0,1:0:0:0:
367,194,181897,1,4,3:1:0:0:
367,226,181948,1,0,3:0:0:0:
336,256,181999,1,4,3:1:0:0:
208,176,182205,5,8,3:2:0:0:
208,240,182308,1,0,3:0:0:0:
208,272,182359,1,0,3:0:0:0:
208,304,182410,1,0,3:0:0:0:
240,304,182462,1,0,3:0:0:0:
272,304,182514,1,0,3:0:0:0:
400,288,182616,6,0,L|416:144,1,128,0|2,1:0|0:0,0:0:0:0:
144,192,183027,1,8,0:0:0:0:
86,214,183130,1,0,0:0:0:0:
64,113,183233,1,2,0:0:0:0:
114,86,183336,1,0,0:0:0:0:
176,80,183438,2,0,L|48:48,1,128,0|0,1:0|3:0,0:0:0:0:
272,144,183849,2,0,L|144:144,1,128,8|0,0:0|3:0,0:0:0:0:
432,320,184260,6,0,L|448:128,1,192,0|0,1:0|0:0,0:0:0:0:
320,176,184671,2,0,L|304:32,1,128,8|0,0:0|0:0,0:0:0:0:
176,48,185082,2,0,L|112:48,2,64,0|0|2,1:0|0:0|0:3,0:0:0:0:
304,112,185493,2,0,L|160:112,1,128,8|2,0:0|1:0,0:0:0:0:
384,160,185904,6,0,P|432:192|360:279,1,192,0|0,1:0|0:0,0:0:0:0:
240,288,186315,2,0,L|384:288,1,128,8|4,0:0|3:2,0:0:0:0:
240,256,186726,2,0,P|192:224|224:112,1,192,0|0,1:0|0:0,0:0:0:0:
353,111,187137,2,0,L|209:111,1,128,8|8,0:0|2:0,0:0:0:0:
496,128,187548,6,0,L|496:336,1,192,8|0,0:0|0:0,0:0:0:0:
368,144,187959,2,0,L|368:352,1,192,8|0,0:0|0:0,0:0:0:0:
240,128,188370,2,0,B|112:128,1,128,8|8,0:0|0:0,0:0:0:0:
176,128,188678,1,8,0:0:0:0:
288,128,188781,1,8,0:0:0:0:
480,320,189192,5,4,0:0:0:0:
144,272,189603,1,8,0:0:0:0:
480,256,190014,2,0,P|413:203|486:71,1,256,4|8,0:0|0:0,0:0:0:0:
160,336,190836,5,4,0:0:0:0:
496,288,191247,1,8,0:0:0:0:
160,272,191658,2,0,L|416:192,1,256,4|8,0:0|0:0,0:0:0:0:
80,320,192479,6,0,P|32:272|102:103,1,256,4|8,0:0|0:0,0:0:0:0:
288,288,193096,2,0,P|224:192|48:176,1,256
432,320,193918,6,0,P|480:272|415:99,1,256,2|0,0:0|0:0,0:0:0:0:
304,320,194534,2,0,L|448:320,1,128,10|0,0:0|0:0,0:0:0:0:
304,256,194945,1,4,0:0:0:0:
304,192,195048,2,0,L|272:192,2,32,2|0|0,0:3|0:0|0:0,0:0:0:0:
368,192,195253,1,0,0:0:0:0:
496,192,195356,2,0,L|496:128,1,64,8|0,2:2|3:0,0:0:0:0:
432,128,195562,1,4,3:3:0:0:
112,160,195767,6,0,P|49:212|128:352,1,256,4|8,0:0|0:0,0:0:0:0:
432,336,196589,2,0,L|160:336,1,256,4|8,0:0|0:0,0:0:0:0:
448,272,197205,6,0,P|432:176|256:288,1,384,4|8,0:2|0:0,0:0:0:0:
448,272,198027,2,0,P|432:176|272:170,1,256,4|0,0:2|0:0,0:0:0:0:
192,176,198644,1,8,0:0:0:0:
256,176,198746,1,0,3:0:0:0:
320,176,198849,1,0,3:0:0:0:
384,176,198952,1,0,3:0:0:0:
256,240,199055,6,0,L|16:144,1,256,4|8,0:0|0:0,0:0:0:0:
144,128,199671,1,0,0:0:0:0:
352,128,199877,2,0,L|112:32,1,256,0|2,0:1|0:1,0:0:0:0:
224,32,200493,1,0,0:0:0:0:
496,144,200699,6,0,L|496:272,1,128,4|0,0:0|0:0,0:0:0:0:
464,304,200955,2,0,L|512:304,3,32,2|0|0|0,0:1|0:0|0:0|0:0,0:0:0:0:
464,256,201315,2,0,L|496:256,2,32,2|0|0,0:1|0:0|0:0,0:0:0:0:
336,256,201521,6,0,L|208:256,1,128,4|0,0:1|0:0,0:0:0:0:
336,208,201931,2,0,L|336:176,2,32,8|0|0,0:1|0:0|0:0,0:0:0:0:
400,208,202137,1,0,3:0:0:0:
16,272,202342,6,0,B|16:144|16:144|144:144,1,256,4|8,0:0|0:0,0:0:0:0:
432,240,203164,2,0,B|176:128,1,256,4|8,0:0|0:0,0:0:0:0:
496,272,203986,6,0,B|496:144|496:144|368:144,1,256,4|8,0:0|0:0,0:0:0:0:
72,239,204808,2,0,B|328:127,1,256,4|8,0:0|0:0,0:0:0:0:
16,288,205630,6,0,L|256:160,2,256,4|8|4,0:0|0:0|0:0,0:0:0:0:
208,288,206658,2,0,L|336:288,1,128,0|8,0:0|0:0,0:0:0:0:
144,240,207068,6,0,L|128:96,1,128,0|4,0:0|0:0,0:0:0:0:
320,80,207479,1,0,0:0:0:0:
128,96,207685,2,0,L|112:224,1,128,8|0,0:0|0:0,0:0:0:0:
224,208,208096,6,0,P|282:136|384:96,1,192,2|0,1:0|0:0,0:0:0:0:
302,11,208507,2,0,P|318:75|398:91,1,128,10|0,3:1|0:0,0:0:0:0:
96,352,208918,6,0,P|16:320|112:240,3,256,4|8|4|8,0:0|0:0|0:0|0:0,0:0:0:0:
224,240,210356,1,0,0:0:0:0:
416,352,210562,6,0,P|496:320|400:240,1,256,4|8,0:0|0:0,0:0:0:0:
503,287,211178,1,0,0:0:0:0:
416,348,211384,1,4,0:0:0:0:
224,336,211589,2,0,P|144:304|232:194,1,256,2|0,0:0|0:0,0:0:0:0:
496,192,212205,6,0,L|272:336,1,256,4|8,0:0|0:0,0:0:0:0:
90,192,212822,2,0,L|314:336,1,256,4|8,0:0|0:0,0:0:0:0:
496,64,213438,2,0,L|336:64,1,128,8|0,0:0|0:0,0:0:0:0:
160,80,213849,6,0,L|288:80,3,128,8|4|0|8,0:0|0:0|0:0|0:0,0:0:0:0:
480,112,214671,6,0,L|480:256,1,128,0|0,1:0|0:0,0:0:0:0:
352,240,214979,1,0,1:0:0:0:
288,240,215082,1,0,0:0:0:0:
352,240,215184,1,0,0:0:0:0:
416,240,215287,1,0,1:0:0:0:
112,304,215493,6,0,P|56:247|136:114,1,256,0|8,1:0|0:0,0:0:0:0:
256,112,216110,2,0,L|336:112,1,64
240,176,216315,2,0,L|96:176,1,128,0|0,1:0|0:0,0:0:0:0:
400,288,216726,2,0,P|464:224|384:176,1,192,8|0,0:0|0:0,0:0:0:0:
272,160,217137,6,0,L|432:160,2,128,0|0|8,1:0|0:0|0:0,0:0:0:0:
128,176,217753,2,0,P|48:224|160:304,1,256
272,288,218370,2,0,L|112:288,1,128,8|0,0:0|0:0,0:0:0:0:
352,256,218781,6,0,P|428:182|322:87,1,256,0|8,1:0|0:0,0:0:0:0:
224,80,219397,2,0,L|224:160,1,64
144,160,219603,2,0,L|144:320,1,128,0|0,1:0|0:0,0:0:0:0:
32,320,220014,1,8,0:0:0:0:
224,304,220219,2,0,P|256:240|128:144,1,256
256,112,220836,1,8,0:0:0:0:
368,144,221041,2,0,L|368:208,1,64
448,224,221247,5,0,1:0:0:0:
448,288,221349,2,0,L|480:288,2,32,2|0|0,0:3|0:0|0:0,0:0:0:0:
368,288,221555,2,0,L|368:224,1,64,2|8,0:3|0:1,0:0:0:0:
448,320,221760,2,0,L|448:256,1,64,2|2,0:3|0:3,0:0:0:0:
176,288,222068,6,0,P|101:239|190:136,1,256,0|8,1:0|0:0,0:0:0:0:
320,144,222685,2,0,L|240:144,1,64
320,144,222890,2,0,L|448:144,2,128,0|0|8,1:0|0:0|0:0,0:0:0:0:
48,208,223507,6,0,L|272:64,1,256,4|2,0:2|2:0,0:0:0:0:
256,256,224123,1,8,0:0:0:0:
464,208,224329,2,0,L|240:64,1,256,4|8,0:2|0:0,0:0:0:0:
320,192,224945,2,0,L|384:192,2,64,4|0|2,0:0|0:0|0:0,0:0:0:0:
48,256,225356,6,0,L|48:128,1,128,0|2,1:0|3:3,0:0:0:0:
48,96,225613,1,2,3:0:0:0:
48,96,225664,1,2,3:0:0:0:
48,96,225716,1,0,0:0:0:0:
48,96,225767,1,0,0:0:0:0:
144,96,225973,1,0,2:0:0:0:
144,112,226075,1,0,0:0:0:0:
272,112,226178,6,0,L|272:240,1,128,8|0,0:1|0:0,0:0:0:0:
192,112,226589,1,2,0:1:0:0:
224,112,226640,1,0,0:0:0:0:
256,112,226692,1,0,0:0:0:0:
368,112,226795,1,0,0:0:0:0:
256,48,227000,5,0,1:0:0:0:
144,48,227205,2,0,L|144:256,1,192,2|0,0:3|0:0,0:0:0:0:
144,352,227616,2,0,L|224:352,1,64,2|0,0:3|0:0,0:0:0:0:
336,304,227822,6,0,L|480:304,3,128,4|0|2|0,1:3|0:0|0:0|1:0,0:0:0:0:
160,320,228644,6,0,L|32:320,1,128,0|0,1:0|0:0,0:0:0:0:
224,272,229055,2,0,L|352:272,1,128,8|0,0:0|0:0,0:0:0:0:
288,272,229363,1,0,0:0:0:0:
224,272,229466,2,0,L|224:128,1,128,0|0,1:0|0:0,0:0:0:0:
496,128,229877,2,0,L|368:128,1,128,8|0,0:0|0:0,0:0:0:0:
176,176,230288,6,0,L|48:176,2,128,0|0|8,1:0|0:0|0:0,0:0:0:0:
496,256,230904,2,0,L|256:112,1,256
400,240,231521,2,0,L|432:112,1,128,8|0,0:0|0:0,0:0:0:0:
160,112,231931,6,0,L|32:112,1,128,0|0,1:0|0:0,0:0:0:0:
240,112,232342,1,8,0:0:0:0:
352,208,232548,2,0,L|352:288,1,64
480,304,232753,2,0,L|480:160,1,128,0|0,1:0|0:0,0:0:0:0:
352,144,233164,2,0,L|496:144,1,128,8|0,0:0|0:0,0:0:0:0:
176,144,233575,6,0,P|64:176|32:304,1,256,0|8,1:0|0:0,0:0:0:0:
208,304,234397,1,8,0:1:0:0:
208,304,234500,2,0,L|240:304,1,32
272,304,234603,2,0,L|304:304,2,32,8|0|0,1:3|0:0|0:0,0:0:0:0:
144,304,234808,1,8,0:1:0:0:
80,304,234911,2,0,L|48:304,1,32
80,304,235014,1,8,1:3:0:0:
352,304,235219,6,0,L|352:176,1,128,0|0,1:0|0:0,0:0:0:0:
160,160,235630,2,0,L|288:160,1,128,8|0,0:0|0:0,0:0:0:0:
224,160,235938,1,0,0:0:0:0:
96,160,236041,2,0,L|96:32,1,128,0|0,1:0|0:0,0:0:0:0:
304,208,236452,2,0,P|368:176|416:272,1,192,8|0,0:0|0:0,0:0:0:0:
288,96,236863,6,0,L|144:96,2,128,0|0|8,1:0|0:0|2:0,0:0:0:0:
16,192,237479,2,0,P|16:272|160:352,1,256,0|0,2:0|0:0,0:0:0:0:
288,320,238096,2,0,L|144:320,1,128,8|0,0:0|0:0,0:0:0:0:
496,304,238507,6,0,L|496:176,1,128,0|0,1:0|0:0,0:0:0:0:
368,160,238918,1,8,0:0:0:0:
176,160,239123,2,0,L|176:80,1,64
240,96,239329,1,0,1:0:0:0:
448,112,239534,1,4,0:2:0:0:
320,112,239740,1,8,0:0:0:0:
16,160,239945,6,0,L|32:224,1,64,4|0,0:2|0:0,0:0:0:0:
112,208,240151,2,0,L|128:272,1,64,4|0,0:0|0:0,0:0:0:0:
208,256,240356,2,0,L|224:320,1,64,4|4,0:0|0:0,0:0:0:0:
304,208,240562,2,0,L|336:80,1,128,8|4,0:0|0:0,0:0:0:0:
160,64,240973,2,0,L|16:64,1,128,2|0,0:0|0:0,0:0:0:0:
368,64,241384,2,0,L|512:64,1,128,2|2,0:0|0:0,0:0:0:0:
160,64,241795,5,4,0:0:0:0:
