osu file format v14

[General]
AudioFilename: audio.mp3
AudioLeadIn: 0
PreviewTime: 64164
Countdown: 0
SampleSet: Normal
StackLeniency: 0.7
Mode: 1
LetterboxInBreaks: 0
WidescreenStoryboard: 0

[Editor]
DistanceSpacing: 0.8
BeatDivisor: 4
GridSize: 32
TimelineZoom: 2.1

[Metadata]
Title:One Way Street
TitleUnicode:One Way Street
Artist:siqlo
ArtistUnicode:siqlo
Creator:Faputa
Version:Inner Oni
Source:BOFU2017 - LEGENDA EST A MYTH -
Tags:osu! featured artist FA Mappersā€˜ Guild MG MPG Muse Dash The BMS OF FIGHTERS ULTIMATE -legenda est a myth- karekitsune team white canvas emotional dubstep wobble bass frenz2017 electronic video game english
BeatmapID:2644953
BeatmapSetID:1272851

[Difficulty]
HPDrainRate:6
CircleSize:2
OverallDifficulty:6
ApproachRate:10
SliderMultiplier:1.4
SliderTickRate:1

[Events]
//Background and Video events
0,0,"BG.jpg",0,0
//Break Periods
//Storyboard Layer 0 (Background)
//Storyboard Layer 1 (Fail)
//Storyboard Layer 2 (Pass)
//Storyboard Layer 3 (Foreground)
//Storyboard Layer 4 (Overlay)
//Storyboard Sound Samples

[TimingPoints]
165,399.999999999999,4,1,0,80,1,0
165,-100,4,1,0,80,0,0
8331,-99.009900990099,4,1,0,80,0,0
8531,-98.0392156862745,4,1,0,80,0,0
8731,-97.0873786407767,4,1,0,80,0,0
8931,-96.1538461538461,4,1,0,80,0,0
9131,-95.2380952380952,4,1,0,80,0,0
9331,-93.4579439252336,4,1,0,80,0,0
9531,-91.743119266055,4,1,0,80,0,0
9731,-90.9090909090909,4,1,0,80,0,0
9931,-91.743119266055,4,1,0,80,0,0
10131,-92.5925925925926,4,1,0,80,0,0
10331,-93.4579439252336,4,1,0,80,0,0
10531,-94.3396226415094,4,1,0,80,0,0
10931,-96.1538461538461,4,1,0,80,0,0
11131,-97.0873786407767,4,1,0,80,0,0
11331,-98.0392156862745,4,1,0,80,0,0
11531,-99.009900990099,4,1,0,80,0,0
12131,-98.0392156862745,4,1,0,80,0,0
12331,-96.1538461538461,4,1,0,80,0,0
12531,-94.3396226415094,4,1,0,80,0,0
12731,-92.5925925925926,4,1,0,80,0,0
12931,-90.9090909090909,4,1,0,90,0,0
24131,-90.9090909090909,4,1,0,90,0,0
24331,-91.4258965680547,4,1,0,90,0,0
24431,-91.6864250912738,4,1,0,90,0,0
24531,-91.9485272144654,4,1,0,90,0,0
24731,-92.477252907716,4,1,0,90,0,0
24831,-92.7439025521267,4,1,0,90,0,0
24931,-93.0120078502135,4,1,0,90,0,0
25031,-93.2817547417448,4,1,0,90,0,0
25131,-93.5530707859955,4,1,0,90,0,0
25331,-94.100465420902,4,1,0,90,0,0
25398,-94.2842973274173,4,1,0,90,0,0
25465,-94.4689381407946,4,1,0,90,0,0
25531,-94.6542139582783,4,1,0,90,0,0
25631,-94.9335844643088,4,1,0,90,0,0
25731,-95.2146089678832,4,1,0,85,0,0
32131,-100,4,1,0,85,0,0
33331,-101.010101010101,4,1,0,85,0,0
33431,-102.040816326531,4,1,0,85,0,0
33531,-103.092783505155,4,1,0,85,0,0
33631,-104.166666666667,4,1,0,85,0,0
33731,-105.263157894737,4,1,0,85,0,0
34531,-106.382978723404,4,1,0,85,0,0
34631,-107.52688172043,4,1,0,85,0,0
34731,-108.695652173913,4,1,0,85,0,0
34831,-109.89010989011,4,1,0,85,0,0
34931,-111.111111111111,4,1,0,85,0,0
35331,-117.647058823529,4,1,0,85,0,0
35431,-116.504899613553,4,1,0,85,0,0
35531,-115.384571005934,4,1,0,85,0,0
35631,-114.285714285714,4,1,0,85,0,0
35731,-113.207589889657,4,1,0,85,0,0
35831,-112.149490785237,4,1,0,85,0,0
35931,-111.111111111111,4,1,0,85,0,0
36031,-110.091783519921,4,1,0,85,0,0
36131,-109.090869421502,4,1,0,85,0,0
36231,-108.108108108108,4,1,0,85,0,0
36331,-107.142895408177,4,1,0,85,0,0
36431,-106.194652674459,4,1,0,85,0,0
36531,-105.263157894737,4,1,0,85,0,0
36731,-103.448240190262,4,1,0,85,0,0
36931,-101.010101010101,4,1,0,85,0,0
37131,-100,4,1,0,85,0,0
37331,-98.3606234883202,4,1,0,85,0,0
37531,-96.774224765879,4,1,0,85,0,0
37731,-95.2380952380952,4,1,0,85,0,0
39331,-74.0740740740741,4,1,0,90,0,0
40161,-80,4,1,0,90,0,0
40261,-80.4828973843058,4,1,0,90,0,0
40461,-81.4663951120163,4,1,0,90,0,0
40561,-81.9672131147541,4,1,0,90,0,0
40761,-82.9875518672199,4,1,0,90,0,0
40961,-84.0336134453782,4,1,0,90,0,0
41061,-84.5665961945032,4,1,0,90,0,0
41261,-85.6531049250535,4,1,0,90,0,0
41361,-86.2068965517241,4,1,0,90,0,0
41561,-87.3362445414847,4,1,0,90,0,0
41761,-88.4955752212389,4,1,0,90,0,0
41961,-89.6860986547085,4,1,0,90,0,0
42061,-90.293453724605,4,1,0,90,0,0
42161,-90.9090909090909,4,1,0,90,0,0
42331,-88.4955752212389,4,1,0,90,0,0
42398,-85.4700854700855,4,1,0,90,0,0
42465,-81.9672131147541,4,1,0,90,0,0
42531,-78.125,4,1,0,90,0,0
42764,-76.9230769230769,4,1,0,90,0,0
42831,-77.2833958942423,4,1,0,90,0,0
42898,-77.6470460346042,4,1,0,90,0,0
42964,-78.0141954630065,4,1,0,90,0,0
43064,-78.5714454081669,4,1,0,90,0,0
43164,-79.136713420637,4,1,0,90,0,0
43264,-79.710173808034,4,1,0,90,0,0
43364,-80.2919414992914,4,1,0,90,0,0
43564,-81.4814633744896,4,1,0,90,0,0
43764,-82.7067606987398,4,1,0,90,0,0
43831,-83.1234466305911,4,1,0,90,0,0
43898,-83.544282647017,4,1,0,90,0,0
43964,-83.9694720587383,4,1,0,90,0,0
44064,-84.6153976331381,4,1,0,90,0,0
44164,-85.271337660001,4,1,0,90,0,0
44364,-86.6142073284281,4,1,0,90,0,0
44464,-87.301552658114,4,1,0,90,0,0
44564,-87.999971840009,4,1,0,90,0,0
44764,-89.4308797673366,4,1,0,90,0,0
44931,-90.9090909090909,4,1,0,90,0,0
44998,-91.3705954804449,4,1,0,90,0,0
45065,-91.8367253227831,4,1,0,90,0,0
45131,-92.3077207100679,4,1,0,90,0,0
45198,-92.7834860240235,4,1,0,90,0,0
45265,-93.2642680340452,4,1,0,90,0,0
45331,-93.7499707031342,4,1,0,90,0,0
45431,-94.4882187364469,4,1,0,90,0,0
45531,-95.2380952380952,4,1,0,90,0,0
45731,-74.0740740740741,4,1,0,90,0,0
45961,-80,4,1,0,90,0,0
46061,-80.4828973843058,4,1,0,90,0,0
46161,-80.9716599190283,4,1,0,90,0,0
46361,-81.9672131147541,4,1,0,90,0,0
46461,-82.4742268041237,4,1,0,90,0,0
46561,-82.9875518672199,4,1,0,90,0,0
46661,-83.5073068893528,4,1,0,90,0,0
46761,-84.0336134453782,4,1,0,90,0,0
46861,-84.5665961945032,4,1,0,90,0,0
46961,-85.1063829787234,4,1,0,90,0,0
47061,-85.6531049250535,4,1,0,90,0,0
47161,-86.2068965517241,4,1,0,90,0,0
47261,-86.7678958785249,4,1,0,90,0,0
47361,-87.3362445414847,4,1,0,90,0,0
47461,-87.9120879120879,4,1,0,90,0,0
47661,-89.086859688196,4,1,0,90,0,0
47861,-90.293453724605,4,1,0,90,0,0
47961,-90.9090909090909,4,1,0,90,0,0
48131,-90.9090909090909,4,1,0,90,0,0
48231,-91.6030254647251,4,1,0,90,0,0
48331,-92.3077207100679,4,1,0,90,0,0
48431,-93.0232558139535,4,1,0,90,0,0
48531,-93.7499707031342,4,1,0,90,0,0
48731,-95.2380952380952,4,1,0,90,0,0
48931,-74.0740740740741,4,1,0,90,0,0
49731,-90.9090909090909,4,1,0,90,0,0
50131,-92.5925925925926,4,1,0,90,0,0
50531,-86.9565217391304,4,1,0,90,0,0
50731,-83.3333333333333,4,1,0,90,0,0
50931,-80,4,1,0,90,0,0
51131,-76.9230769230769,4,1,0,90,0,0
51331,-74.0740740740741,4,1,0,90,0,0
51731,-90.9090909090909,4,1,0,90,0,0
51798,-89.7755521420896,4,1,0,90,0,0
51865,-88.6699332670082,4,1,0,90,0,0
51931,-87.591215301835,4,1,0,90,0,0
51998,-86.5384282544507,4,1,0,90,0,0
52065,-85.5107213342409,4,1,0,90,0,0
52131,-84.5070660583285,4,1,0,90,0,0
52531,-78.9473476454348,4,1,0,90,0,0
52598,-78.0910791874779,4,1,0,90,0,0
52665,-77.2532454088396,4,1,0,90,0,0
52731,-76.4331404925199,4,1,0,90,0,0
52798,-75.6302648118092,4,1,0,90,0,0
52865,-74.8440810681148,4,1,0,90,0,0
52931,-74.0740740740741,4,1,0,90,0,0
53131,-76.4331404925199,4,1,0,90,0,0
53331,-78.9473476454348,4,1,0,90,0,0
53531,-81.6326530612245,4,1,0,90,0,0
53731,-74.0740740740741,4,1,0,90,0,0
53931,-87.591215301835,4,1,0,90,0,0
54031,-88.4955752212389,4,1,0,90,0,0
54131,-89.2857142857143,4,1,0,90,0,0
54531,-74.0740740740741,4,1,0,90,0,0
54931,-90.9090909090909,4,1,0,90,0,0
54998,-89.7755521420896,4,1,0,90,0,0
55065,-88.6699332670082,4,1,0,90,0,0
55131,-87.591215301835,4,1,0,90,0,0
55198,-86.5384282544507,4,1,0,90,0,0
55265,-85.5107213342409,4,1,0,90,0,0
55331,-84.5070660583285,4,1,0,90,0,0
55731,-78.9473476454348,4,1,0,90,0,0
55798,-78.0910791874779,4,1,0,90,0,0
55865,-77.2532454088396,4,1,0,90,0,0
55931,-76.4331404925199,4,1,0,90,0,0
55998,-75.6302648118092,4,1,0,90,0,0
56065,-74.8440810681148,4,1,0,90,0,0
56131,-74.0740740740741,4,1,0,90,0,0
56331,-76.4331404925199,4,1,0,90,0,0
56431,-77.6699029126214,4,1,0,90,0,0
56531,-78.9473476454348,4,1,0,90,0,0
56731,-81.6326530612245,4,1,0,90,0,0
57131,-87.591215301835,4,1,0,90,0,0
57331,-90.9090909090909,4,1,0,90,0,0
57731,-100,4,1,0,80,0,0
59531,-99.009900990099,4,1,0,80,0,0
59731,-98.0392156862745,4,1,0,80,0,0
59931,-97.0873786407767,4,1,0,80,0,0
60331,-95.2380952380952,4,1,0,80,0,0
60531,-93.4579439252336,4,1,0,80,0,0
60631,-90.9090909090909,4,1,0,80,0,0
60731,-88.4955752212389,4,1,0,80,0,0
60831,-86.2068965517241,4,1,0,80,0,0
60931,-83.3333333333333,4,1,0,80,0,0
61331,-94.4882187364469,4,1,0,80,0,0
61531,-91.9540229885058,4,1,0,80,0,0
61731,-89.5522120739665,4,1,0,80,0,0
61931,-87.2727526611644,4,1,0,80,0,0
62131,-85.1063829787234,4,1,0,80,0,0
62331,-83.0449597107378,4,1,0,80,0,0
62531,-81.0811029948927,4,1,0,80,0,0
62731,-79.2079207920792,4,1,0,80,0,0
62831,-78.3034462129713,4,1,0,80,0,0
62931,-77.4193348595265,4,1,0,80,0,0
63031,-76.555023923445,4,1,0,80,0,0
63131,-75.7097982863844,4,1,0,80,0,0
63331,-74.0740740740741,4,1,0,80,0,0
64331,-111.111111111111,4,1,0,70,0,0
76931,-105.263157894737,4,1,0,75,0,0
83331,-105.263157894737,4,1,0,80,0,0
83531,-104.57866302454,4,1,0,80,0,0
83631,-104.239851729235,4,1,0,80,0,0
83731,-103.903120730231,4,1,0,80,0,0
83931,-103.236143386744,4,1,0,80,0,0
84131,-102.577779601383,4,1,0,80,0,0
84231,-102.25168434087,4,1,0,80,0,0
84331,-101.927655827,4,1,0,80,0,0
84531,-101.285720941633,4,1,0,80,0,0
84731,-100.651922502046,4,1,0,80,0,0
84931,-100,4,1,0,80,0,0
85131,-97.864786096937,4,1,0,80,0,0
85231,-96.8310114870629,4,1,0,80,0,0
85331,-95.8188487173689,4,1,0,80,0,0
85531,-93.8566152488843,4,1,0,80,0,0
85631,-92.9053740184547,4,1,0,80,0,0
85731,-91.9732210769512,4,1,0,80,0,0
85831,-91.059587572916,4,1,0,80,0,0
85931,-90.1639270357437,4,1,0,80,0,0
86131,-88.4244444071097,4,1,0,80,0,0
86331,-86.7508091681725,4,1,0,80,0,0
86531,-85.1393518341145,4,1,0,80,0,0
86731,-83.586600733556,4,1,0,80,0,0
86831,-82.8313065893133,4,1,0,80,0,0
86931,-82.0895399866358,4,1,0,80,0,0
87031,-81.3609407277411,4,1,0,80,0,0
87131,-80.6451612903226,4,1,0,80,0,0
87231,-79.9418662748449,4,1,0,80,0,0
87331,-79.2507318805089,4,1,0,80,0,0
87431,-78.5714454081669,4,1,0,80,0,0
87531,-77.9037047885849,4,1,0,80,0,0
87631,-77.2472181345569,4,1,0,80,0,0
87731,-76.6016446373104,4,1,0,80,0,0
87931,-75.3424502720993,4,1,0,80,0,0
88131,-74.1239842234512,4,1,0,80,0,0
89731,-66.6666666666667,4,1,0,90,0,0
92531,-66.6666666666667,4,1,0,90,0,0
92598,-67.773176732113,4,1,0,90,0,0
92665,-68.9170376700528,4,1,0,90,0,0
92731,-70.1001240071194,4,1,0,90,0,0
92798,-71.3245903650464,4,1,0,90,0,0
92865,-72.5925936680384,4,1,0,90,0,0
92964,-74.0740740740741,4,1,0,90,0,1
95364,-74.0740740740741,4,1,0,90,0,1
95431,-74.6803122533216,4,1,0,90,0,1
95498,-75.2965554837728,4,1,0,90,0,1
95564,-75.923053503735,4,1,0,90,0,1
95764,-77.8666409187641,4,1,0,90,0,1
95964,-78.7401574803149,4,1,0,90,0,1
96164,-74.0740740740741,4,1,0,90,0,1
96964,-74.0740740740741,4,1,0,90,0,1
97031,-72.7542579429461,4,1,0,90,0,1
97098,-71.4806501879941,4,1,0,90,0,1
97164,-70.2509151937977,4,1,0,90,0,1
97231,-69.4444444444444,4,1,0,90,0,1
97298,-68.4931506849315,4,1,0,90,0,1
97364,-68.0272108843537,4,1,0,90,0,1
97431,-68.9655172413793,4,1,0,90,0,1
97498,-69.9300699300699,4,1,0,90,0,1
97564,-70.9219858156028,4,1,0,90,0,1
97631,-71.9424460431655,4,1,0,90,0,1
97698,-72.992700729927,4,1,0,90,0,1
97764,-73.9064979332048,4,1,0,90,0,1
99364,-74.0740740740741,4,1,0,90,0,1
99464,-74.9871397055405,4,1,0,90,0,1
99564,-75.923053503735,4,1,0,90,0,1
99764,-77.8666409187641,4,1,0,90,0,1
99964,-78.7401574803149,4,1,0,90,0,1
100164,-74.0740740740741,4,1,0,90,0,0
100964,-90.9090909090909,4,1,0,90,0,0
101031,-89.5591896684519,4,1,0,90,0,0
101098,-88.248713113141,4,1,0,90,0,0
101164,-86.9761102717917,4,1,0,90,0,0
101231,-85.7396891593309,4,1,0,90,0,0
101298,-84.5378568976974,4,1,0,90,0,0
101364,-83.3693210902706,4,1,0,90,0,0
101431,-82.2326493221563,4,1,0,90,0,0
101498,-81.1265558045239,4,1,0,90,0,0
101564,-80.049758930151,4,1,0,90,0,0
101631,-79.0012347892998,4,1,0,90,0,0
101698,-77.9798235004675,4,1,0,90,0,0
101764,-76.9844275899871,4,1,0,90,0,0
101831,-76.0141812056457,4,1,0,90,0,0
101898,-75.0680867546865,4,1,0,90,0,0
101964,-74.1451985423054,4,1,0,90,0,0
102031,-73.2447803938372,4,1,0,90,0,0
102098,-72.3659691793337,4,1,0,90,0,0
102164,-71.5079452477965,4,1,0,90,0,0
102231,-70.6700795603756,4,1,0,90,0,0
102298,-69.8516211862761,4,1,0,90,0,0
102364,-69.0518558722044,4,1,0,90,0,0
102431,-68.2702436633267,4,1,0,90,0,0
102498,-67.5061278687573,4,1,0,90,0,0
102564,-66.6666666666667,4,1,0,90,0,1
102664,-71.4285714285714,4,1,0,90,0,1
114164,-71.4285714285714,4,1,0,90,0,1
114264,-70.5996309051296,4,1,0,90,0,1
114364,-69.7896609408903,4,1,0,90,0,1
114464,-68.9981129016121,4,1,0,90,0,1
114564,-68.2243188313447,4,1,0,90,0,1
114664,-67.4676425186481,4,1,0,90,0,1
114764,-66.727611218246,4,1,0,90,0,0
115364,-66.727611218246,4,1,0,90,0,1
115464,-71.4285714285714,4,1,0,90,0,1
126964,-71.4285714285714,4,1,0,90,0,1
127064,-70.5996309051296,4,1,0,90,0,1
127164,-69.7896609408903,4,1,0,90,0,1
127264,-68.9981129016121,4,1,0,90,0,1
127364,-68.2243188313447,4,1,0,90,0,1
127464,-67.4676425186481,4,1,0,90,0,1
127564,-66.727611218246,4,1,0,90,0,1
128164,-74.0740740740741,4,1,0,80,0,0
128364,-74.3753769901921,4,1,0,80,0,0
128564,-74.6791410703911,4,1,0,80,0,0
128964,-75.2941176470588,4,1,0,80,0,0
129164,-75.6054484310357,4,1,0,80,0,0
129364,-75.9193068870958,4,1,0,80,0,0
129564,-76.235840145641,4,1,0,80,0,0
129764,-76.555023923445,4,1,0,80,0,0
129964,-76.8768916520152,4,1,0,80,0,0
130164,-77.2014773274701,4,1,0,80,0,0
130364,-77.5287554153836,4,1,0,80,0,0
130564,-77.8588807785888,4,1,0,80,0,0
130764,-78.1918295793436,4,1,0,80,0,0
130964,-78.5275765290497,4,1,0,80,0,0
131364,-79.2079207920792,4,1,0,80,0,0
131564,-79.5525329128717,4,1,0,80,0,0
131764,-79.9000929238081,4,1,0,80,0,0
132164,-80.6045340050378,4,1,0,80,0,0
132364,-80.9614332116753,4,1,0,80,0,0
132564,-81.3214408858182,4,1,0,80,0,0
132764,-81.6847312449815,4,1,0,80,0,0
132964,-82.0512820512821,4,1,0,80,0,0
133164,-82.4211373952118,4,1,0,80,0,0
133364,-82.7942736168596,4,1,0,80,0,0
133564,-83.1708728949452,4,1,0,80,0,0
133764,-83.5509138381201,4,1,0,80,0,0
133964,-83.9344438419817,4,1,0,80,0,0
134164,-84.3214400752822,4,1,0,80,0,0
134364,-84.7120932442953,4,1,0,80,0,0
134564,-85.1063829787234,4,1,0,80,0,0
134764,-85.5043602948532,4,1,0,80,0,0
134964,-85.906077167711,4,1,0,80,0,0
135364,-86.7208672086721,4,1,0,80,0,0
135564,-87.1341238141046,4,1,0,80,0,0
135764,-87.5512612634698,4,1,0,80,0,0
135964,-87.9724892431639,4,1,0,80,0,0
136164,-88.3977900552486,4,1,0,80,0,0
136364,-88.8272230567046,4,1,0,80,0,0
136564,-89.2608487635587,4,1,0,80,0,0
136764,-89.6986484207656,4,1,0,80,0,0
136964,-90.1408450704225,4,1,0,80,0,0
137164,-90.587423204512,4,1,0,80,0,0
137364,-91.0383653879418,4,1,0,80,0,0
137764,-91.9540229885058,4,1,0,80,0,0
137964,-92.4187939162556,4,1,0,80,0,0
138164,-92.8882869727893,4,1,0,80,0,0
138564,-93.841642228739,4,1,0,80,0,0
138764,-94.325740740042,4,1,0,80,0,0
138964,-94.8147698655906,4,1,0,80,0,0
139164,-95.3089869703084,4,1,0,80,0,0
139364,-95.8083832335329,4,1,0,80,0,0
139564,-96.3130404967441,4,1,0,80,0,0
139764,-96.8229485879825,4,1,0,80,0,0
140164,-97.8593272171254,4,1,0,80,0,0
140364,-98.3858812324996,4,1,0,80,0,0
140564,-98.918034538221,4,1,0,80,0,0
140764,-99.4560747273163,4,1,0,80,0,0
140964,-100,4,1,0,80,0,0
141064,-100,4,1,0,20,0,0

[HitObjects]
256,192,165,5,0,0:0:0:0:
256,192,364,1,0,0:0:0:0:
256,192,564,1,8,0:0:0:0:
256,192,764,1,8,0:0:0:0:
256,192,964,1,8,0:0:0:0:
256,192,1164,1,0,0:0:0:0:
256,192,1364,1,0,0:0:0:0:
256,192,1564,1,8,0:0:0:0:
256,192,1964,1,0,0:0:0:0:
256,192,2164,1,0,0:0:0:0:
256,192,2364,1,8,0:0:0:0:
256,192,2564,1,8,0:0:0:0:
256,192,2764,1,0,0:0:0:0:
256,192,2964,1,8,0:0:0:0:
256,192,3364,1,0,0:0:0:0:
256,192,3564,1,0,0:0:0:0:
256,192,3764,1,8,0:0:0:0:
256,192,3964,1,8,0:0:0:0:
256,192,4164,1,0,0:0:0:0:
256,192,4364,1,0,0:0:0:0:
256,192,4564,1,8,0:0:0:0:
256,192,4764,1,0,0:0:0:0:
256,192,5164,1,8,0:0:0:0:
256,192,5364,1,8,0:0:0:0:
256,192,5564,1,0,0:0:0:0:
256,192,5964,1,0,0:0:0:0:
256,192,6164,1,8,0:0:0:0:
256,192,6364,1,8,0:0:0:0:
256,192,6464,1,8,0:0:0:0:
256,192,6564,1,0,0:0:0:0:
256,192,6764,1,0,0:0:0:0:
256,192,6964,1,8,0:0:0:0:
256,192,7164,1,0,0:0:0:0:
256,192,7564,1,0,0:0:0:0:
256,192,7664,1,0,0:0:0:0:
256,192,7764,1,8,0:0:0:0:
256,192,7964,1,0,0:0:0:0:
256,192,8164,1,8,0:0:0:0:
256,192,8364,1,8,0:0:0:0:
256,192,8564,1,0,0:0:0:0:
256,192,8764,1,8,0:0:0:0:
256,192,8964,1,0,0:0:0:0:
256,192,9164,1,0,0:0:0:0:
256,192,9364,1,8,0:0:0:0:
256,192,9564,1,8,0:0:0:0:
256,192,9764,1,0,0:0:0:0:
256,192,9964,1,0,0:0:0:0:
256,192,10164,1,8,0:0:0:0:
256,192,10364,1,8,0:0:0:0:
256,192,10564,1,0,0:0:0:0:
256,192,10964,1,0,0:0:0:0:
256,192,11164,1,8,0:0:0:0:
256,192,11364,1,0,0:0:0:0:
256,192,11564,1,8,0:0:0:0:
256,192,11964,1,0,0:0:0:0:
256,192,12164,1,8,0:0:0:0:
256,192,12364,1,0,0:0:0:0:
256,192,12564,1,8,0:0:0:0:
256,192,12764,1,8,0:0:0:0:
256,192,12964,1,12,0:0:0:0:
256,192,13164,1,0,0:0:0:0:
256,192,13264,1,0,0:0:0:0:
256,192,13364,1,8,0:0:0:0:
256,192,13564,1,0,0:0:0:0:
256,192,13764,1,8,0:0:0:0:
256,192,13964,1,0,0:0:0:0:
256,192,14164,1,8,0:0:0:0:
256,192,14364,1,8,0:0:0:0:
256,192,14564,1,4,0:0:0:0:
256,192,14964,1,8,0:0:0:0:
256,192,15164,1,0,0:0:0:0:
256,192,15364,1,8,0:0:0:0:
256,192,15564,1,0,0:0:0:0:
256,192,15764,1,8,0:0:0:0:
256,192,15964,1,8,0:0:0:0:
256,192,16164,1,0,0:0:0:0:
256,192,16564,1,8,0:0:0:0:
256,192,16764,1,0,0:0:0:0:
256,192,16964,1,8,0:0:0:0:
256,192,17164,1,0,0:0:0:0:
256,192,17364,1,0,0:0:0:0:
256,192,17564,1,8,0:0:0:0:
256,192,17764,1,4,0:0:0:0:
256,192,17964,1,8,0:0:0:0:
256,192,18064,1,8,0:0:0:0:
256,192,18164,1,8,0:0:0:0:
256,192,18264,1,0,0:0:0:0:
256,192,18364,1,0,0:0:0:0:
256,192,18564,1,8,0:0:0:0:
256,192,18764,1,8,0:0:0:0:
256,192,18964,1,0,0:0:0:0:
256,192,19164,1,8,0:0:0:0:
256,192,19364,1,0,0:0:0:0:
256,192,19764,1,8,0:0:0:0:
256,192,19864,1,0,0:0:0:0:
256,192,19964,1,8,0:0:0:0:
256,192,20164,1,0,0:0:0:0:
256,192,20364,1,0,0:0:0:0:
256,192,20564,1,8,0:0:0:0:
256,192,20764,1,8,0:0:0:0:
256,192,20964,1,4,0:0:0:0:
256,192,21164,1,8,0:0:0:0:
256,192,21264,1,8,0:0:0:0:
256,192,21364,1,0,0:0:0:0:
256,192,21464,1,8,0:0:0:0:
256,192,21564,1,0,0:0:0:0:
256,192,21764,1,8,0:0:0:0:
256,192,21964,1,8,0:0:0:0:
256,192,22164,1,0,0:0:0:0:
256,192,22364,1,0,0:0:0:0:
256,192,22564,1,8,0:0:0:0:
256,192,22964,1,0,0:0:0:0:
256,192,23164,1,0,0:0:0:0:
256,192,23364,1,8,0:0:0:0:
256,192,23564,1,0,0:0:0:0:
256,192,23764,1,8,0:0:0:0:
256,192,23964,1,8,0:0:0:0:
256,192,24164,1,4,0:0:0:0:
256,192,24364,1,8,0:0:0:0:
256,192,24464,1,8,0:0:0:0:
256,192,24564,1,0,0:0:0:0:
256,192,24764,1,0,0:0:0:0:
256,192,24864,1,0,0:0:0:0:
256,192,24964,1,8,0:0:0:0:
256,192,25064,1,8,0:0:0:0:
256,192,25164,1,0,0:0:0:0:
256,192,25364,1,8,0:0:0:0:
256,192,25431,1,8,0:0:0:0:
256,192,25498,1,8,0:0:0:0:
256,192,25564,1,0,0:0:0:0:
256,192,25664,1,0,0:0:0:0:
256,192,25764,1,8,0:0:0:0:
256,192,26164,1,8,0:0:0:0:
256,192,26564,1,8,0:0:0:0:
256,192,26764,1,0,0:0:0:0:
256,192,26864,1,8,0:0:0:0:
256,192,26964,1,0,0:0:0:0:
256,192,27164,1,8,0:0:0:0:
256,192,27364,1,0,0:0:0:0:
256,192,27764,1,0,0:0:0:0:
256,192,28164,1,0,0:0:0:0:
256,192,28364,1,8,0:0:0:0:
256,192,28464,1,8,0:0:0:0:
256,192,28564,1,0,0:0:0:0:
256,192,28764,1,0,0:0:0:0:
256,192,28964,1,8,0:0:0:0:
256,192,29364,1,8,0:0:0:0:
256,192,29764,1,8,0:0:0:0:
256,192,29964,1,0,0:0:0:0:
256,192,30064,1,8,0:0:0:0:
256,192,30164,1,0,0:0:0:0:
256,192,30364,1,8,0:0:0:0:
256,192,30564,1,0,0:0:0:0:
256,192,30964,1,0,0:0:0:0:
256,192,31164,1,8,0:0:0:0:
256,192,31364,1,0,0:0:0:0:
256,192,31464,1,8,0:0:0:0:
256,192,31664,1,8,0:0:0:0:
256,192,31764,1,4,0:0:0:0:
256,192,32164,1,8,0:0:0:0:
256,192,32364,1,8,0:0:0:0:
256,192,32564,1,8,0:0:0:0:
256,192,32764,1,8,0:0:0:0:
256,192,32964,1,8,0:0:0:0:
256,192,33164,1,4,0:0:0:0:
256,192,33364,1,0,0:0:0:0:
256,192,33464,1,0,0:0:0:0:
256,192,33564,1,0,0:0:0:0:
256,192,33664,1,0,0:0:0:0:
256,192,33764,1,8,0:0:0:0:
256,192,33964,1,8,0:0:0:0:
256,192,34164,1,8,0:0:0:0:
256,192,34364,1,0,0:0:0:0:
256,192,34564,1,8,0:0:0:0:
256,192,34664,1,8,0:0:0:0:
256,192,34764,1,0,0:0:0:0:
256,192,34864,1,0,0:0:0:0:
256,192,34964,1,12,0:0:0:0:
256,192,35364,1,8,0:0:0:0:
256,192,35464,1,8,0:0:0:0:
256,192,35564,1,0,0:0:0:0:
256,192,35664,1,0,0:0:0:0:
256,192,35764,1,8,0:0:0:0:
256,192,35864,1,8,0:0:0:0:
256,192,35964,1,0,0:0:0:0:
256,192,36064,1,0,0:0:0:0:
256,192,36164,1,8,0:0:0:0:
256,192,36264,1,8,0:0:0:0:
256,192,36364,1,8,0:0:0:0:
256,192,36464,1,8,0:0:0:0:
256,192,36564,1,4,0:0:0:0:
256,192,36764,1,0,0:0:0:0:
256,192,37164,1,0,0:0:0:0:
256,192,37364,1,0,0:0:0:0:
256,192,37564,1,0,0:0:0:0:
256,192,37764,2,0,L|300:192,8,36.749998878479
256,192,38964,1,8,0:0:0:0:
256,192,39164,1,0,0:0:0:0:
256,192,39364,1,12,0:0:0:0:
256,192,40164,1,0,0:0:0:0:
256,192,40264,1,8,0:0:0:0:
256,192,40464,1,0,0:0:0:0:
256,192,40564,1,8,0:0:0:0:
256,192,40764,1,0,0:0:0:0:
256,192,40964,1,8,0:0:0:0:
256,192,41064,1,0,0:0:0:0:
256,192,41264,1,0,0:0:0:0:
256,192,41364,1,8,0:0:0:0:
256,192,41564,1,8,0:0:0:0:
256,192,41764,1,0,0:0:0:0:
256,192,41964,1,8,0:0:0:0:
256,192,42064,1,8,0:0:0:0:
256,192,42164,1,0,0:0:0:0:
256,192,42364,1,0,0:0:0:0:
256,192,42431,1,8,0:0:0:0:
256,192,42498,1,8,0:0:0:0:
256,192,42564,1,8,0:0:0:0:
256,192,42764,1,8,0:0:0:0:
256,192,42831,1,8,0:0:0:0:
256,192,42898,1,8,0:0:0:0:
256,192,42964,1,0,0:0:0:0:
256,192,43064,1,0,0:0:0:0:
256,192,43164,1,8,0:0:0:0:
256,192,43264,1,0,0:0:0:0:
256,192,43364,1,8,0:0:0:0:
256,192,43564,1,8,0:0:0:0:
256,192,43764,1,0,0:0:0:0:
256,192,43831,1,0,0:0:0:0:
256,192,43898,1,0,0:0:0:0:
256,192,43964,1,8,0:0:0:0:
256,192,44064,1,8,0:0:0:0:
256,192,44164,1,0,0:0:0:0:
256,192,44364,1,0,0:0:0:0:
256,192,44464,1,8,0:0:0:0:
256,192,44564,1,8,0:0:0:0:
256,192,44764,1,8,0:0:0:0:
256,192,44964,1,0,0:0:0:0:
256,192,45031,1,0,0:0:0:0:
256,192,45098,1,0,0:0:0:0:
256,192,45164,1,0,0:0:0:0:
256,192,45231,1,0,0:0:0:0:
256,192,45298,1,0,0:0:0:0:
256,192,45364,1,8,0:0:0:0:
256,192,45464,1,0,0:0:0:0:
256,192,45564,1,8,0:0:0:0:
256,192,45764,1,12,0:0:0:0:
256,192,45964,1,0,0:0:0:0:
256,192,46064,1,8,0:0:0:0:
256,192,46164,1,8,0:0:0:0:
256,192,46364,1,0,0:0:0:0:
256,192,46464,1,0,0:0:0:0:
256,192,46564,1,8,0:0:0:0:
256,192,46664,1,8,0:0:0:0:
256,192,46764,1,0,0:0:0:0:
256,192,46864,1,8,0:0:0:0:
256,192,46964,1,0,0:0:0:0:
256,192,47064,1,0,0:0:0:0:
256,192,47164,1,8,0:0:0:0:
256,192,47264,1,0,0:0:0:0:
256,192,47364,1,8,0:0:0:0:
256,192,47464,1,0,0:0:0:0:
256,192,47664,1,8,0:0:0:0:
256,192,47864,1,0,0:0:0:0:
256,192,47964,1,8,0:0:0:0:
256,192,48164,1,0,0:0:0:0:
256,192,48264,1,0,0:0:0:0:
256,192,48364,1,8,0:0:0:0:
256,192,48464,1,8,0:0:0:0:
256,192,48564,1,0,0:0:0:0:
256,192,48764,1,0,0:0:0:0:
256,192,48964,1,8,0:0:0:0:
256,192,49764,1,8,0:0:0:0:
256,192,50164,1,0,0:0:0:0:
256,192,50564,1,4,0:0:0:0:
256,192,50764,1,8,0:0:0:0:
256,192,50964,1,8,0:0:0:0:
256,192,51164,1,8,0:0:0:0:
256,192,51364,1,12,0:0:0:0:
256,192,51764,1,8,0:0:0:0:
256,192,51831,1,0,0:0:0:0:
256,192,51898,1,0,0:0:0:0:
256,192,51964,1,8,0:0:0:0:
256,192,52031,1,0,0:0:0:0:
256,192,52098,1,0,0:0:0:0:
256,192,52164,1,8,0:0:0:0:
256,192,52564,1,0,0:0:0:0:
256,192,52631,1,0,0:0:0:0:
256,192,52698,1,8,0:0:0:0:
256,192,52764,1,8,0:0:0:0:
256,192,52831,1,0,0:0:0:0:
256,192,52898,1,0,0:0:0:0:
256,192,52964,1,8,0:0:0:0:
256,192,53164,1,8,0:0:0:0:
256,192,53364,1,0,0:0:0:0:
256,192,53564,1,8,0:0:0:0:
256,192,53764,1,12,0:0:0:0:
256,192,53964,1,0,0:0:0:0:
256,192,54064,1,0,0:0:0:0:
256,192,54164,1,8,0:0:0:0:
256,192,54564,1,4,0:0:0:0:
256,192,54964,1,8,0:0:0:0:
256,192,55031,1,8,0:0:0:0:
256,192,55098,1,0,0:0:0:0:
256,192,55164,1,8,0:0:0:0:
256,192,55231,1,8,0:0:0:0:
256,192,55298,1,0,0:0:0:0:
256,192,55364,1,8,0:0:0:0:
256,192,55764,1,0,0:0:0:0:
256,192,55831,1,0,0:0:0:0:
256,192,55898,1,8,0:0:0:0:
256,192,55964,1,8,0:0:0:0:
256,192,56031,1,8,0:0:0:0:
256,192,56098,1,8,0:0:0:0:
256,192,56164,1,0,0:0:0:0:
256,192,56364,1,0,0:0:0:0:
256,192,56464,1,0,0:0:0:0:
256,192,56564,1,8,0:0:0:0:
256,192,56764,1,0,0:0:0:0:
256,192,57164,1,8,0:0:0:0:
256,192,57364,1,0,0:0:0:0:
256,192,57764,1,4,0:0:0:0:
256,192,57964,1,0,0:0:0:0:
256,192,58164,1,8,0:0:0:0:
256,192,58364,1,8,0:0:0:0:
256,192,58564,1,0,0:0:0:0:
256,192,58964,1,0,0:0:0:0:
256,192,59164,1,0,0:0:0:0:
256,192,59364,1,8,0:0:0:0:
256,192,59564,1,0,0:0:0:0:
256,192,59764,1,0,0:0:0:0:
256,192,59964,1,8,0:0:0:0:
256,192,60364,1,8,0:0:0:0:
256,192,60564,1,8,0:0:0:0:
256,192,60664,1,8,0:0:0:0:
256,192,60764,1,8,0:0:0:0:
256,192,60864,1,8,0:0:0:0:
256,192,60964,1,0,0:0:0:0:
256,192,61364,1,0,0:0:0:0:
256,192,61564,1,0,0:0:0:0:
256,192,61764,1,8,0:0:0:0:
256,192,61964,1,8,0:0:0:0:
256,192,62164,1,0,0:0:0:0:
256,192,62364,1,8,0:0:0:0:
256,192,62564,1,0,0:0:0:0:
256,192,62764,1,0,0:0:0:0:
256,192,62864,1,0,0:0:0:0:
256,192,62964,1,0,0:0:0:0:
256,192,63064,1,0,0:0:0:0:
256,192,63164,1,8,0:0:0:0:
256,192,63364,1,4,0:0:0:0:
256,192,63564,1,8,0:0:0:0:
256,192,64164,1,12,0:0:0:0:
256,192,64964,1,8,0:0:0:0:
256,192,65164,1,8,0:0:0:0:
256,192,65364,1,0,0:0:0:0:
256,192,65564,1,8,0:0:0:0:
256,192,65764,1,0,0:0:0:0:
256,192,65964,1,0,0:0:0:0:
256,192,66364,1,8,0:0:0:0:
256,192,66764,1,8,0:0:0:0:
256,192,67164,1,0,0:0:0:0:
256,192,67264,1,0,0:0:0:0:
256,192,67364,1,0,0:0:0:0:
256,192,67564,1,0,0:0:0:0:
256,192,67764,1,0,0:0:0:0:
256,192,67964,1,8,0:0:0:0:
256,192,68164,1,8,0:0:0:0:
256,192,68364,1,0,0:0:0:0:
256,192,68564,1,0,0:0:0:0:
256,192,68764,1,8,0:0:0:0:
256,192,68964,1,0,0:0:0:0:
256,192,69364,1,0,0:0:0:0:
256,192,69564,1,8,0:0:0:0:
256,192,69964,1,0,0:0:0:0:
256,192,70164,1,8,0:0:0:0:
256,192,70564,1,0,0:0:0:0:
256,192,71164,1,8,0:0:0:0:
256,192,71264,1,8,0:0:0:0:
256,192,71364,1,0,0:0:0:0:
256,192,71564,1,8,0:0:0:0:
256,192,71964,1,0,0:0:0:0:
256,192,72064,1,0,0:0:0:0:
256,192,72164,1,8,0:0:0:0:
256,192,72364,1,0,0:0:0:0:
256,192,72764,1,8,0:0:0:0:
256,192,72864,1,8,0:0:0:0:
256,192,72964,1,0,0:0:0:0:
256,192,73164,1,0,0:0:0:0:
256,192,73364,1,8,0:0:0:0:
256,192,73764,1,0,0:0:0:0:
256,192,73964,1,8,0:0:0:0:
256,192,74364,1,8,0:0:0:0:
256,192,74764,1,0,0:0:0:0:
256,192,74964,1,0,0:0:0:0:
256,192,75364,1,8,0:0:0:0:
256,192,75564,1,0,0:0:0:0:
256,192,75764,1,8,0:0:0:0:
256,192,75964,1,8,0:0:0:0:
256,192,76164,1,0,0:0:0:0:
256,192,76564,1,8,0:0:0:0:
256,192,76964,1,0,0:0:0:0:
256,192,77164,1,0,0:0:0:0:
256,192,77264,1,0,0:0:0:0:
256,192,77364,1,8,0:0:0:0:
256,192,77564,1,0,0:0:0:0:
256,192,77764,1,8,0:0:0:0:
256,192,77964,1,0,0:0:0:0:
256,192,78064,1,0,0:0:0:0:
256,192,78164,1,8,0:0:0:0:
256,192,78364,1,0,0:0:0:0:
256,192,78564,1,8,0:0:0:0:
256,192,78964,1,8,0:0:0:0:
256,192,79164,1,0,0:0:0:0:
256,192,79264,1,0,0:0:0:0:
256,192,79364,1,8,0:0:0:0:
256,192,79564,1,0,0:0:0:0:
256,192,79764,1,8,0:0:0:0:
256,192,79964,1,8,0:0:0:0:
256,192,80164,1,0,0:0:0:0:
256,192,80364,1,8,0:0:0:0:
256,192,80464,1,8,0:0:0:0:
256,192,80564,1,0,0:0:0:0:
256,192,80764,1,0,0:0:0:0:
256,192,80964,1,8,0:0:0:0:
256,192,81064,1,8,0:0:0:0:
256,192,81164,1,0,0:0:0:0:
256,192,81364,1,8,0:0:0:0:
256,192,81564,1,0,0:0:0:0:
256,192,81764,1,8,0:0:0:0:
256,192,82164,1,8,0:0:0:0:
256,192,82364,1,0,0:0:0:0:
256,192,82564,1,8,0:0:0:0:
256,192,82664,1,8,0:0:0:0:
256,192,82764,1,0,0:0:0:0:
256,192,82964,1,8,0:0:0:0:
256,192,83364,1,8,0:0:0:0:
256,192,83564,1,0,0:0:0:0:
256,192,83664,1,0,0:0:0:0:
256,192,83764,1,8,0:0:0:0:
256,192,83964,1,0,0:0:0:0:
256,192,84164,1,8,0:0:0:0:
256,192,84264,1,8,0:0:0:0:
256,192,84364,1,0,0:0:0:0:
256,192,84564,1,8,0:0:0:0:
256,192,84764,1,0,0:0:0:0:
256,192,84964,1,8,0:0:0:0:
256,192,85164,1,0,0:0:0:0:
256,192,85264,1,0,0:0:0:0:
256,192,85364,1,8,0:0:0:0:
256,192,85564,1,0,0:0:0:0:
256,192,85664,1,0,0:0:0:0:
256,192,85764,1,8,0:0:0:0:
256,192,85864,1,8,0:0:0:0:
256,192,85964,1,0,0:0:0:0:
256,192,86164,1,8,0:0:0:0:
256,192,86364,1,8,0:0:0:0:
256,192,86564,1,0,0:0:0:0:
256,192,86764,1,0,0:0:0:0:
256,192,86864,1,0,0:0:0:0:
256,192,86964,1,8,0:0:0:0:
256,192,87064,1,8,0:0:0:0:
256,192,87164,1,8,0:0:0:0:
256,192,87264,1,8,0:0:0:0:
256,192,87364,1,0,0:0:0:0:
256,192,87464,1,0,0:0:0:0:
256,192,87564,1,0,0:0:0:0:
256,192,87664,1,0,0:0:0:0:
256,192,87764,1,8,0:0:0:0:
256,192,87964,1,8,0:0:0:0:
256,192,88164,1,4,0:0:0:0:
256,192,89364,1,0,0:0:0:0:
256,192,89564,1,8,0:0:0:0:
256,192,89764,1,4,0:0:0:0:
256,192,90064,1,4,0:0:0:0:
256,192,90364,1,4,0:0:0:0:
256,192,90964,1,12,0:0:0:0:
256,192,91264,1,12,0:0:0:0:
256,192,91564,1,12,0:0:0:0:
256,192,91764,1,8,0:0:0:0:
256,192,91864,1,8,0:0:0:0:
256,192,91964,1,0,0:0:0:0:
256,192,92164,1,8,0:0:0:0:
256,192,92364,1,0,0:0:0:0:
256,192,92464,1,0,0:0:0:0:
256,192,92564,1,8,0:0:0:0:
256,192,92631,1,8,0:0:0:0:
256,192,92698,1,8,0:0:0:0:
256,192,92764,1,8,0:0:0:0:
256,192,92831,1,8,0:0:0:0:
256,192,92898,1,8,0:0:0:0:
256,192,92964,1,4,0:0:0:0:
256,192,93164,1,0,0:0:0:0:
256,192,93364,1,8,0:0:0:0:
256,192,93564,1,8,0:0:0:0:
256,192,93664,1,0,0:0:0:0:
256,192,93764,1,8,0:0:0:0:
256,192,93864,1,8,0:0:0:0:
256,192,93964,1,0,0:0:0:0:
256,192,94064,1,0,0:0:0:0:
256,192,94164,1,0,0:0:0:0:
256,192,94264,1,0,0:0:0:0:
256,192,94364,1,0,0:0:0:0:
256,192,94464,1,0,0:0:0:0:
256,192,94564,1,8,0:0:0:0:
256,192,94764,1,0,0:0:0:0:
256,192,94964,1,8,0:0:0:0:
256,192,95064,1,8,0:0:0:0:
256,192,95164,1,0,0:0:0:0:
256,192,95264,1,0,0:0:0:0:
256,192,95364,1,8,0:0:0:0:
256,192,95431,1,0,0:0:0:0:
256,192,95498,1,0,0:0:0:0:
256,192,95564,1,8,0:0:0:0:
256,192,95764,1,0,0:0:0:0:
256,192,95964,1,8,0:0:0:0:
256,192,96164,1,0,0:0:0:0:
256,192,96364,1,8,0:0:0:0:
256,192,96564,1,0,0:0:0:0:
256,192,96764,1,0,0:0:0:0:
256,192,96864,1,0,0:0:0:0:
256,192,96964,1,8,0:0:0:0:
256,192,97031,1,8,0:0:0:0:
256,192,97098,1,8,0:0:0:0:
256,192,97164,1,8,0:0:0:0:
256,192,97231,1,0,0:0:0:0:
256,192,97298,1,0,0:0:0:0:
256,192,97364,1,8,0:0:0:0:
256,192,97431,1,8,0:0:0:0:
256,192,97498,1,0,0:0:0:0:
256,192,97564,1,0,0:0:0:0:
256,192,97631,1,0,0:0:0:0:
256,192,97698,1,0,0:0:0:0:
256,192,97764,1,8,0:0:0:0:
256,192,97964,1,0,0:0:0:0:
256,192,98164,1,8,0:0:0:0:
256,192,98364,1,0,0:0:0:0:
256,192,98431,1,0,0:0:0:0:
256,192,98498,1,0,0:0:0:0:
256,192,98564,1,8,0:0:0:0:
256,192,98664,1,8,0:0:0:0:
256,192,98764,1,8,0:0:0:0:
256,192,98864,1,8,0:0:0:0:
256,192,98964,1,0,0:0:0:0:
256,192,99164,1,8,0:0:0:0:
256,192,99364,1,0,0:0:0:0:
256,192,99464,1,0,0:0:0:0:
256,192,99564,1,8,0:0:0:0:
256,192,99764,1,0,0:0:0:0:
256,192,99964,1,0,0:0:0:0:
256,192,100164,1,8,0:0:0:0:
256,192,100964,1,0,0:0:0:0:
256,192,101031,1,0,0:0:0:0:
256,192,101098,1,8,0:0:0:0:
256,192,101164,1,8,0:0:0:0:
256,192,101231,1,0,0:0:0:0:
256,192,101298,1,0,0:0:0:0:
256,192,101364,1,0,0:0:0:0:
256,192,101431,1,0,0:0:0:0:
256,192,101498,1,8,0:0:0:0:
256,192,101564,1,8,0:0:0:0:
256,192,101631,1,0,0:0:0:0:
256,192,101698,1,0,0:0:0:0:
256,192,101764,1,8,0:0:0:0:
256,192,101831,1,8,0:0:0:0:
256,192,101898,1,8,0:0:0:0:
256,192,101964,1,8,0:0:0:0:
256,192,102031,1,0,0:0:0:0:
256,192,102098,1,0,0:0:0:0:
256,192,102164,1,8,0:0:0:0:
256,192,102231,1,8,0:0:0:0:
256,192,102298,1,0,0:0:0:0:
256,192,102364,1,0,0:0:0:0:
256,192,102431,1,0,0:0:0:0:
256,192,102498,1,0,0:0:0:0:
256,192,102564,1,12,0:0:0:0:
256,192,102764,1,8,0:0:0:0:
256,192,102864,1,8,0:0:0:0:
256,192,102964,1,0,0:0:0:0:
256,192,103031,1,0,0:0:0:0:
256,192,103098,1,0,0:0:0:0:
256,192,103164,1,8,0:0:0:0:
256,192,103264,1,0,0:0:0:0:
256,192,103364,1,8,0:0:0:0:
256,192,103464,1,8,0:0:0:0:
256,192,103664,1,8,0:0:0:0:
256,192,103764,1,0,0:0:0:0:
256,192,103864,1,0,0:0:0:0:
256,192,103964,1,0,0:0:0:0:
256,192,104064,1,0,0:0:0:0:
256,192,104164,1,8,0:0:0:0:
256,192,104364,1,8,0:0:0:0:
256,192,104464,1,0,0:0:0:0:
256,192,104564,1,8,0:0:0:0:
256,192,104664,1,8,0:0:0:0:
256,192,104764,1,0,0:0:0:0:
256,192,104864,1,0,0:0:0:0:
256,192,104964,1,8,0:0:0:0:
256,192,105031,1,8,0:0:0:0:
256,192,105164,1,0,0:0:0:0:
256,192,105264,1,8,0:0:0:0:
256,192,105364,1,0,0:0:0:0:
256,192,105431,1,0,0:0:0:0:
256,192,105498,1,0,0:0:0:0:
256,192,105564,1,8,0:0:0:0:
256,192,105764,1,0,0:0:0:0:
256,192,105964,1,8,0:0:0:0:
256,192,106064,1,8,0:0:0:0:
256,192,106164,1,0,0:0:0:0:
256,192,106231,1,0,0:0:0:0:
256,192,106298,1,0,0:0:0:0:
256,192,106364,1,8,0:0:0:0:
256,192,106464,1,0,0:0:0:0:
256,192,106564,1,8,0:0:0:0:
256,192,106764,1,8,0:0:0:0:
256,192,106964,1,8,0:0:0:0:
256,192,107031,1,0,0:0:0:0:
256,192,107098,1,0,0:0:0:0:
256,192,107164,1,8,0:0:0:0:
256,192,107364,1,0,0:0:0:0:
256,192,107564,1,8,0:0:0:0:
256,192,107664,1,8,0:0:0:0:
256,192,107764,1,0,0:0:0:0:
256,192,107864,1,8,0:0:0:0:
256,192,108064,1,8,0:0:0:0:
256,192,108164,1,0,0:0:0:0:
256,192,108264,1,8,0:0:0:0:
256,192,108364,1,0,0:0:0:0:
256,192,108464,1,0,0:0:0:0:
256,192,108564,1,8,0:0:0:0:
256,192,108764,1,8,0:0:0:0:
256,192,108964,1,0,0:0:0:0:
256,192,109164,1,8,0:0:0:0:
256,192,109264,1,8,0:0:0:0:
256,192,109364,1,0,0:0:0:0:
256,192,109431,1,0,0:0:0:0:
256,192,109498,1,0,0:0:0:0:
256,192,109564,1,8,0:0:0:0:
256,192,109664,1,0,0:0:0:0:
256,192,109764,1,8,0:0:0:0:
256,192,109964,1,0,0:0:0:0:
256,192,110164,1,8,0:0:0:0:
256,192,110231,1,0,0:0:0:0:
256,192,110298,1,8,0:0:0:0:
256,192,110364,1,8,0:0:0:0:
256,192,110564,1,0,0:0:0:0:
256,192,110764,1,8,0:0:0:0:
256,192,110864,1,8,0:0:0:0:
256,192,110964,1,0,0:0:0:0:
256,192,111164,1,8,0:0:0:0:
256,192,111231,1,8,0:0:0:0:
256,192,111298,1,8,0:0:0:0:
256,192,111364,1,0,0:0:0:0:
256,192,111464,1,0,0:0:0:0:
256,192,111564,1,0,0:0:0:0:
256,192,111664,1,8,0:0:0:0:
256,192,111864,1,0,0:0:0:0:
256,192,111964,1,8,0:0:0:0:
256,192,112064,1,8,0:0:0:0:
256,192,112164,1,0,0:0:0:0:
256,192,112364,1,8,0:0:0:0:
256,192,112431,1,8,0:0:0:0:
256,192,112498,1,8,0:0:0:0:
256,192,112564,1,0,0:0:0:0:
256,192,112664,1,0,0:0:0:0:
256,192,112764,1,8,0:0:0:0:
256,192,112864,1,8,0:0:0:0:
256,192,112964,1,0,0:0:0:0:
256,192,113064,1,8,0:0:0:0:
256,192,113164,1,0,0:0:0:0:
256,192,113231,1,0,0:0:0:0:
256,192,113298,1,0,0:0:0:0:
256,192,113364,1,8,0:0:0:0:
256,192,113464,1,8,0:0:0:0:
256,192,113564,1,0,0:0:0:0:
256,192,113631,1,0,0:0:0:0:
256,192,113698,1,0,0:0:0:0:
256,192,113764,1,0,0:0:0:0:
256,192,113964,1,8,0:0:0:0:
256,192,114064,1,8,0:0:0:0:
256,192,114164,1,0,0:0:0:0:
256,192,114264,1,8,0:0:0:0:
256,192,114364,1,8,0:0:0:0:
256,192,114464,1,8,0:0:0:0:
256,192,114564,1,0,0:0:0:0:
256,192,114664,1,0,0:0:0:0:
256,192,114764,1,12,0:0:0:0:
256,192,115364,1,4,0:0:0:0:
256,192,115564,1,8,0:0:0:0:
256,192,115664,1,8,0:0:0:0:
256,192,115764,1,0,0:0:0:0:
256,192,115831,1,0,0:0:0:0:
256,192,115964,1,8,0:0:0:0:
256,192,116064,1,0,0:0:0:0:
256,192,116164,1,0,0:0:0:0:
256,192,116264,1,8,0:0:0:0:
256,192,116464,1,0,0:0:0:0:
256,192,116564,1,8,0:0:0:0:
256,192,116664,1,8,0:0:0:0:
256,192,116764,1,8,0:0:0:0:
256,192,116864,1,8,0:0:0:0:
256,192,116964,1,0,0:0:0:0:
256,192,117164,1,8,0:0:0:0:
256,192,117264,1,8,0:0:0:0:
256,192,117364,1,0,0:0:0:0:
256,192,117464,1,8,0:0:0:0:
256,192,117564,1,0,0:0:0:0:
256,192,117664,1,0,0:0:0:0:
256,192,117764,1,8,0:0:0:0:
256,192,117831,1,8,0:0:0:0:
256,192,117964,1,0,0:0:0:0:
256,192,118031,1,0,0:0:0:0:
256,192,118098,1,0,0:0:0:0:
263,189,118164,1,8,0:0:0:0:
256,192,118364,1,8,0:0:0:0:
256,192,118564,1,0,0:0:0:0:
256,192,118764,1,8,0:0:0:0:
256,192,118864,1,8,0:0:0:0:
256,192,118964,1,0,0:0:0:0:
256,192,119031,1,0,0:0:0:0:
256,192,119098,1,0,0:0:0:0:
256,192,119164,1,8,0:0:0:0:
256,192,119264,1,0,0:0:0:0:
256,192,119364,1,8,0:0:0:0:
256,192,119564,1,8,0:0:0:0:
256,192,119764,1,0,0:0:0:0:
256,192,119831,1,0,0:0:0:0:
256,192,119898,1,0,0:0:0:0:
256,192,119964,1,8,0:0:0:0:
256,192,120031,1,8,0:0:0:0:
256,192,120098,1,8,0:0:0:0:
256,192,120164,1,0,0:0:0:0:
256,192,120364,1,8,0:0:0:0:
256,192,120464,1,8,0:0:0:0:
256,192,120564,1,0,0:0:0:0:
256,192,120664,1,8,0:0:0:0:
256,192,120864,1,8,0:0:0:0:
256,192,120964,1,0,0:0:0:0:
256,192,121064,1,8,0:0:0:0:
256,192,121131,1,8,0:0:0:0:
256,192,121264,1,0,0:0:0:0:
256,192,121364,1,8,0:0:0:0:
256,192,121564,1,0,0:0:0:0:
256,192,121764,1,0,0:0:0:0:
256,192,121964,1,8,0:0:0:0:
256,192,122064,1,8,0:0:0:0:
256,192,122164,1,0,0:0:0:0:
256,192,122231,1,0,0:0:0:0:
256,192,122298,1,0,0:0:0:0:
256,192,122364,1,8,0:0:0:0:
256,192,122464,1,0,0:0:0:0:
256,192,122564,1,8,0:0:0:0:
256,192,122764,1,0,0:0:0:0:
256,192,122964,1,0,0:0:0:0:
256,192,123031,1,0,0:0:0:0:
256,192,123098,1,0,0:0:0:0:
256,192,123164,1,8,0:0:0:0:
256,192,123264,1,8,0:0:0:0:
256,192,123364,1,0,0:0:0:0:
256,192,123564,1,8,0:0:0:0:
256,192,123664,1,8,0:0:0:0:
256,192,123764,1,0,0:0:0:0:
256,192,123964,1,8,0:0:0:0:
256,192,124031,1,8,0:0:0:0:
256,192,124098,1,8,0:0:0:0:
256,192,124164,1,0,0:0:0:0:
256,192,124264,1,8,0:0:0:0:
256,192,124364,1,0,0:0:0:0:
256,192,124464,1,8,0:0:0:0:
256,192,124564,1,0,0:0:0:0:
256,192,124664,1,0,0:0:0:0:
256,192,124764,1,8,0:0:0:0:
256,192,124864,1,8,0:0:0:0:
256,192,124964,1,0,0:0:0:0:
256,192,125164,1,8,0:0:0:0:
256,192,125231,1,8,0:0:0:0:
256,192,125298,1,8,0:0:0:0:
256,192,125364,1,0,0:0:0:0:
256,192,125464,1,0,0:0:0:0:
256,192,125564,1,8,0:0:0:0:
256,192,125664,1,8,0:0:0:0:
256,192,125764,1,0,0:0:0:0:
256,192,125864,1,8,0:0:0:0:
256,192,125964,1,0,0:0:0:0:
256,192,126031,1,0,0:0:0:0:
256,192,126098,1,0,0:0:0:0:
256,192,126164,1,8,0:0:0:0:
256,192,126264,1,8,0:0:0:0:
256,192,126364,1,0,0:0:0:0:
256,192,126431,1,0,0:0:0:0:
256,192,126498,1,0,0:0:0:0:
256,192,126564,1,0,0:0:0:0:
256,192,126764,1,8,0:0:0:0:
256,192,126864,1,8,0:0:0:0:
256,192,126964,1,0,0:0:0:0:
256,192,127064,1,8,0:0:0:0:
256,192,127164,1,8,0:0:0:0:
256,192,127264,1,8,0:0:0:0:
256,192,127364,1,0,0:0:0:0:
256,192,127464,1,0,0:0:0:0:
256,192,127564,1,12,0:0:0:0:
256,192,128164,1,4,0:0:0:0:
256,192,128364,1,8,0:0:0:0:
256,192,128564,1,0,0:0:0:0:
256,192,128964,1,8,0:0:0:0:
256,192,129164,1,0,0:0:0:0:
256,192,129364,1,8,0:0:0:0:
256,192,129564,1,8,0:0:0:0:
256,192,129764,1,0,0:0:0:0:
256,192,129964,1,8,0:0:0:0:
256,192,130164,1,0,0:0:0:0:
256,192,130364,1,0,0:0:0:0:
256,192,130564,1,8,0:0:0:0:
256,192,130764,1,0,0:0:0:0:
256,192,130964,1,8,0:0:0:0:
256,192,131364,1,0,0:0:0:0:
256,192,131564,1,8,0:0:0:0:
256,192,131764,1,0,0:0:0:0:
256,192,132164,1,8,0:0:0:0:
256,192,132364,1,0,0:0:0:0:
256,192,132564,1,8,0:0:0:0:
256,192,132764,1,8,0:0:0:0:
256,192,132964,1,8,0:0:0:0:
256,192,133164,1,0,0:0:0:0:
256,192,133364,1,8,0:0:0:0:
256,192,133564,1,0,0:0:0:0:
256,192,133764,1,0,0:0:0:0:
256,192,133964,1,0,0:0:0:0:
256,192,134164,1,8,0:0:0:0:
256,192,134364,1,0,0:0:0:0:
256,192,134564,1,8,0:0:0:0:
256,192,134764,1,8,0:0:0:0:
256,192,134964,1,0,0:0:0:0:
256,192,135364,1,8,0:0:0:0:
256,192,135564,1,8,0:0:0:0:
256,192,135764,1,0,0:0:0:0:
256,192,135964,1,0,0:0:0:0:
256,192,136164,1,8,0:0:0:0:
256,192,136364,1,8,0:0:0:0:
256,192,136564,1,0,0:0:0:0:
256,192,136764,1,0,0:0:0:0:
256,192,136964,1,8,0:0:0:0:
256,192,137164,1,0,0:0:0:0:
256,192,137364,1,8,0:0:0:0:
256,192,137764,1,0,0:0:0:0:
256,192,137964,1,0,0:0:0:0:
256,192,138164,1,8,0:0:0:0:
256,192,138564,1,0,0:0:0:0:
256,192,138764,1,0,0:0:0:0:
256,192,138964,1,8,0:0:0:0:
256,192,139164,1,8,0:0:0:0:
256,192,139364,1,0,0:0:0:0:
256,192,139564,1,8,0:0:0:0:
256,192,139764,1,0,0:0:0:0:
256,192,140164,1,8,0:0:0:0:
256,192,140364,1,0,0:0:0:0:
256,192,140564,1,8,0:0:0:0:
256,192,140764,1,8,0:0:0:0:
256,192,140964,1,0,0:0:0:0:
256,192,141164,8,0,142564,0:0:0:0:
