osu file format v14

[General]
AudioFilename: audio.mp3
AudioLeadIn: 0
PreviewTime: 64164
Countdown: 0
SampleSet: Normal
StackLeniency: 0.7
Mode: 1
LetterboxInBreaks: 0
WidescreenStoryboard: 0

[Editor]
DistanceSpacing: 0.8
BeatDivisor: 4
GridSize: 32
TimelineZoom: 1.2

[Metadata]
Title:One Way Street
TitleUnicode:One Way Street
Artist:siqlo
ArtistUnicode:siqlo
Creator:Faputa
Version:Futsuu
Source:BOFU2017 - LEGENDA EST A MYTH -
Tags:osu! featured artist FA Mappersā€˜ Guild MG MPG Muse Dash The BMS OF FIGHTERS ULTIMATE -legenda est a myth- karekitsune team white canvas emotional dubstep wobble bass frenz2017 electronic video game english
BeatmapID:2898150
BeatmapSetID:1272851

[Difficulty]
HPDrainRate:7
CircleSize:2
OverallDifficulty:4
ApproachRate:10
SliderMultiplier:1.4
SliderTickRate:1

[Events]
//Background and Video events
0,0,"BG.jpg",0,0
//Break Periods
//Storyboard Layer 0 (Background)
//Storyboard Layer 1 (Fail)
//Storyboard Layer 2 (Pass)
//Storyboard Layer 3 (Foreground)
//Storyboard Layer 4 (Overlay)
//Storyboard Sound Samples

[TimingPoints]
165,399.999999999999,4,1,0,80,1,0
12931,-100,4,1,0,90,0,0
25731,-100,4,1,0,85,0,0
39331,-100,4,1,0,90,0,0
57731,-100,4,1,0,80,0,0
64331,-100,4,1,0,70,0,0
76931,-100,4,1,0,75,0,0
83331,-100,4,1,0,80,0,0
89731,-100,4,1,0,90,0,0
92964,-100,4,1,0,90,0,1
100164,-100,4,1,0,90,0,0
102564,-100,4,1,0,90,0,1
114764,-100,4,1,0,90,0,0
115364,-100,4,1,0,90,0,1
128164,-100,4,1,0,80,0,0
141064,-100,4,1,0,20,0,0

[HitObjects]
256,192,165,5,0,0:0:0:0:
256,192,564,1,8,0:0:0:0:
256,192,964,1,8,0:0:0:0:
256,192,1364,1,0,0:0:0:0:
256,192,1564,1,8,0:0:0:0:
256,192,2164,1,0,0:0:0:0:
256,192,2964,1,8,0:0:0:0:
256,192,3364,1,0,0:0:0:0:
256,192,3764,1,8,0:0:0:0:
256,192,4164,1,0,0:0:0:0:
256,192,4564,1,8,0:0:0:0:
256,192,4764,1,0,0:0:0:0:
256,192,5164,1,8,0:0:0:0:
256,192,5564,1,0,0:0:0:0:
256,192,6564,1,8,0:0:0:0:
256,192,6964,1,8,0:0:0:0:
256,192,7164,1,0,0:0:0:0:
256,192,7564,1,0,0:0:0:0:
256,192,7764,1,8,0:0:0:0:
256,192,8164,1,8,0:0:0:0:
256,192,8564,1,0,0:0:0:0:
256,192,8964,1,8,0:0:0:0:
256,192,9364,1,8,0:0:0:0:
256,192,9564,1,8,0:0:0:0:
256,192,9764,1,0,0:0:0:0:
256,192,10164,1,8,0:0:0:0:
256,192,10564,1,0,0:0:0:0:
256,192,10964,1,0,0:0:0:0:
256,192,11164,1,8,0:0:0:0:
256,192,11564,1,8,0:0:0:0:
256,192,11964,1,8,0:0:0:0:
256,192,12164,1,0,0:0:0:0:
256,192,12564,1,8,0:0:0:0:
256,192,12964,1,12,0:0:0:0:
256,192,13764,1,8,0:0:0:0:
256,192,14164,1,8,0:0:0:0:
256,192,14564,1,4,0:0:0:0:
256,192,14964,1,0,0:0:0:0:
256,192,15364,1,8,0:0:0:0:
256,192,15764,1,8,0:0:0:0:
256,192,16164,1,0,0:0:0:0:
256,192,16564,1,8,0:0:0:0:
256,192,16964,1,0,0:0:0:0:
256,192,17764,1,4,0:0:0:0:
256,192,18164,1,8,0:0:0:0:
256,192,18564,1,8,0:0:0:0:
256,192,18764,1,8,0:0:0:0:
256,192,19364,1,0,0:0:0:0:
256,192,19764,1,8,0:0:0:0:
256,192,19964,1,8,0:0:0:0:
256,192,20164,1,0,0:0:0:0:
256,192,20564,1,8,0:0:0:0:
256,192,20964,1,4,0:0:0:0:
256,192,21364,1,0,0:0:0:0:
256,192,21564,1,8,0:0:0:0:
256,192,21764,1,8,0:0:0:0:
256,192,22164,1,0,0:0:0:0:
256,192,22564,1,8,0:0:0:0:
256,192,23364,1,8,0:0:0:0:
256,192,23764,1,8,0:0:0:0:
256,192,24164,1,4,0:0:0:0:
256,192,24564,1,8,0:0:0:0:
256,192,24964,1,0,0:0:0:0:
256,192,25164,1,0,0:0:0:0:
256,192,25364,1,8,0:0:0:0:
256,192,25764,1,8,0:0:0:0:
256,192,26564,1,8,0:0:0:0:
256,192,26964,1,8,0:0:0:0:
256,192,27364,1,0,0:0:0:0:
256,192,28164,1,0,0:0:0:0:
256,192,28564,1,0,0:0:0:0:
256,192,28964,1,8,0:0:0:0:
256,192,29764,1,0,0:0:0:0:
256,192,30164,1,8,0:0:0:0:
256,192,30564,1,0,0:0:0:0:
256,192,30964,1,0,0:0:0:0:
256,192,31164,1,8,0:0:0:0:
256,192,31764,1,4,0:0:0:0:
256,192,32164,1,8,0:0:0:0:
256,192,32564,1,8,0:0:0:0:
256,192,33164,1,4,0:0:0:0:
256,192,33764,1,8,0:0:0:0:
256,192,34164,1,8,0:0:0:0:
256,192,34564,1,0,0:0:0:0:
256,192,34964,1,12,0:0:0:0:
256,192,35364,1,8,0:0:0:0:
256,192,35564,1,8,0:0:0:0:
256,192,35764,1,8,0:0:0:0:
256,192,35964,1,0,0:0:0:0:
256,192,36164,1,0,0:0:0:0:
256,192,36564,1,12,0:0:0:0:
256,192,37164,1,0,0:0:0:0:
256,192,37364,1,0,0:0:0:0:
256,192,37764,1,8,0:0:0:0:
256,192,37964,1,8,0:0:0:0:
256,192,38964,1,0,0:0:0:0:
256,192,39364,1,12,0:0:0:0:
256,192,40164,1,0,0:0:0:0:
256,192,40364,1,8,0:0:0:0:
256,192,40764,1,8,0:0:0:0:
256,192,40964,1,0,0:0:0:0:
256,192,41364,1,8,0:0:0:0:
256,192,41764,1,0,0:0:0:0:
256,192,42164,1,0,0:0:0:0:
256,192,42564,1,12,0:0:0:0:
256,192,43364,1,0,0:0:0:0:
256,192,43564,1,8,0:0:0:0:
256,192,43964,1,8,0:0:0:0:
256,192,44364,1,0,0:0:0:0:
256,192,44564,1,8,0:0:0:0:
256,192,44964,1,0,0:0:0:0:
256,192,45364,1,0,0:0:0:0:
256,192,45764,1,12,0:0:0:0:
256,192,46564,1,0,0:0:0:0:
256,192,46764,1,8,0:0:0:0:
256,192,47164,1,8,0:0:0:0:
256,192,47564,1,0,0:0:0:0:
256,192,47764,1,8,0:0:0:0:
256,192,47964,1,0,0:0:0:0:
256,192,48364,1,8,0:0:0:0:
256,192,48764,1,0,0:0:0:0:
256,192,48964,1,8,0:0:0:0:
256,192,49764,1,8,0:0:0:0:
256,192,50564,1,0,0:0:0:0:
256,192,50764,1,8,0:0:0:0:
256,192,51364,1,12,0:0:0:0:
256,192,51764,1,0,0:0:0:0:
256,192,51964,1,0,0:0:0:0:
256,192,52164,1,8,0:0:0:0:
256,192,52964,1,0,0:0:0:0:
256,192,53164,1,8,0:0:0:0:
256,192,53564,1,0,0:0:0:0:
256,192,53764,1,8,0:0:0:0:
256,192,54164,1,8,0:0:0:0:
256,192,54564,1,4,0:0:0:0:
256,192,54964,1,8,0:0:0:0:
256,192,55164,1,8,0:0:0:0:
256,192,55364,1,0,0:0:0:0:
256,192,56164,1,8,0:0:0:0:
256,192,56364,1,8,0:0:0:0:
256,192,56764,1,0,0:0:0:0:
256,192,57164,1,8,0:0:0:0:
256,192,57364,1,0,0:0:0:0:
256,192,57764,1,4,0:0:0:0:
256,192,58164,1,8,0:0:0:0:
256,192,58364,1,8,0:0:0:0:
256,192,58564,1,0,0:0:0:0:
256,192,59364,1,8,0:0:0:0:
256,192,59564,1,0,0:0:0:0:
256,192,59964,1,8,0:0:0:0:
256,192,60364,1,8,0:0:0:0:
256,192,60564,1,8,0:0:0:0:
256,192,60964,1,0,0:0:0:0:
256,192,61764,1,8,0:0:0:0:
256,192,62164,1,0,0:0:0:0:
256,192,62364,1,8,0:0:0:0:
256,192,62764,1,8,0:0:0:0:
256,192,62964,1,0,0:0:0:0:
256,192,63364,1,4,0:0:0:0:
256,192,64164,1,12,0:0:0:0:
256,192,64964,1,8,0:0:0:0:
256,192,65164,1,8,0:0:0:0:
256,192,65564,1,8,0:0:0:0:
256,192,65964,1,0,0:0:0:0:
256,192,66364,1,8,0:0:0:0:
256,192,66764,1,8,0:0:0:0:
256,192,67164,1,0,0:0:0:0:
256,192,68564,1,8,0:0:0:0:
256,192,68964,1,0,0:0:0:0:
256,192,69164,1,0,0:0:0:0:
256,192,69364,1,8,0:0:0:0:
256,192,69764,1,0,0:0:0:0:
256,192,69964,1,0,0:0:0:0:
256,192,70164,1,8,0:0:0:0:
256,192,70564,1,0,0:0:0:0:
256,192,71364,1,8,0:0:0:0:
256,192,71564,1,8,0:0:0:0:
256,192,71964,1,0,0:0:0:0:
256,192,72364,1,8,0:0:0:0:
256,192,72764,1,0,0:0:0:0:
256,192,73164,1,8,0:0:0:0:
256,192,73564,1,8,0:0:0:0:
256,192,74964,1,8,0:0:0:0:
256,192,75364,1,0,0:0:0:0:
256,192,75564,1,0,0:0:0:0:
256,192,75764,1,8,0:0:0:0:
256,192,76164,1,0,0:0:0:0:
256,192,76564,1,8,0:0:0:0:
256,192,76964,1,0,0:0:0:0:
256,192,77764,1,8,0:0:0:0:
256,192,78164,1,8,0:0:0:0:
256,192,78564,1,0,0:0:0:0:
256,192,79364,1,0,0:0:0:0:
256,192,79764,1,8,0:0:0:0:
256,192,80164,1,0,0:0:0:0:
256,192,80564,1,0,0:0:0:0:
256,192,80764,1,0,0:0:0:0:
256,192,80964,1,8,0:0:0:0:
256,192,81364,1,8,0:0:0:0:
256,192,81764,1,0,0:0:0:0:
256,192,82564,1,8,0:0:0:0:
256,192,82964,1,0,0:0:0:0:
256,192,83364,1,8,0:0:0:0:
256,192,84164,1,8,0:0:0:0:
256,192,84564,1,8,0:0:0:0:
256,192,84964,1,0,0:0:0:0:
256,192,85764,1,0,0:0:0:0:
256,192,86164,1,8,0:0:0:0:
256,192,86564,1,0,0:0:0:0:
256,192,86764,1,0,0:0:0:0:
256,192,86964,1,8,0:0:0:0:
256,192,87364,1,8,0:0:0:0:
256,192,87564,1,8,0:0:0:0:
256,192,87764,1,0,0:0:0:0:
256,192,88164,1,4,0:0:0:0:
256,192,89764,1,0,0:0:0:0:
256,192,90064,1,0,0:0:0:0:
256,192,90364,1,0,0:0:0:0:
256,192,90964,1,8,0:0:0:0:
256,192,91264,1,8,0:0:0:0:
256,192,91564,1,8,0:0:0:0:
256,192,92164,1,8,0:0:0:0:
256,192,92564,1,0,0:0:0:0:
256,192,92964,1,4,0:0:0:0:
256,192,93764,1,8,0:0:0:0:
256,192,93964,1,8,0:0:0:0:
256,192,94364,1,8,0:0:0:0:
256,192,94564,1,0,0:0:0:0:
256,192,94964,1,8,0:0:0:0:
256,192,95164,1,0,0:0:0:0:
256,192,95364,1,8,0:0:0:0:
256,192,95564,1,8,0:0:0:0:
256,192,95764,1,0,0:0:0:0:
256,192,96164,1,0,0:0:0:0:
256,192,96564,1,0,0:0:0:0:
256,192,96964,1,8,0:0:0:0:
256,192,97164,1,8,0:0:0:0:
256,192,97564,1,0,0:0:0:0:
256,192,97764,1,8,0:0:0:0:
256,192,97964,1,0,0:0:0:0:
256,192,98364,1,8,0:0:0:0:
256,192,98564,1,0,0:0:0:0:
256,192,98764,1,0,0:0:0:0:
256,192,98964,1,8,0:0:0:0:
256,192,99364,1,0,0:0:0:0:
256,192,99764,1,0,0:0:0:0:
256,192,100164,1,8,0:0:0:0:
256,192,100964,1,0,0:0:0:0:
256,192,101364,1,8,0:0:0:0:
256,192,101764,1,4,0:0:0:0:
256,192,102564,1,12,0:0:0:0:
256,192,102964,1,8,0:0:0:0:
256,192,103164,1,0,0:0:0:0:
256,192,103364,1,8,0:0:0:0:
256,192,104164,1,0,0:0:0:0:
256,192,104364,1,8,0:0:0:0:
256,192,104764,1,8,0:0:0:0:
256,192,105164,1,0,0:0:0:0:
256,192,105364,1,8,0:0:0:0:
256,192,105764,1,0,0:0:0:0:
256,192,106164,1,8,0:0:0:0:
256,192,106364,1,0,0:0:0:0:
256,192,106564,1,8,0:0:0:0:
256,192,106964,1,0,0:0:0:0:
256,192,107164,1,0,0:0:0:0:
256,192,107364,1,8,0:0:0:0:
256,192,107564,1,8,0:0:0:0:
256,192,107964,1,8,0:0:0:0:
256,192,108164,1,0,0:0:0:0:
256,192,108364,1,0,0:0:0:0:
256,192,108564,1,8,0:0:0:0:
256,192,108964,1,0,0:0:0:0:
256,192,109364,1,8,0:0:0:0:
256,192,109564,1,0,0:0:0:0:
256,192,109764,1,8,0:0:0:0:
256,192,110564,1,0,0:0:0:0:
256,192,110764,1,8,0:0:0:0:
256,192,111164,1,8,0:0:0:0:
256,192,111564,1,0,0:0:0:0:
256,192,111764,1,8,0:0:0:0:
256,192,111964,1,0,0:0:0:0:
256,192,112364,1,8,0:0:0:0:
256,192,112764,1,0,0:0:0:0:
256,192,113164,1,8,0:0:0:0:
256,192,113364,1,8,0:0:0:0:
256,192,113564,1,0,0:0:0:0:
256,192,113764,1,0,0:0:0:0:
256,192,114164,1,8,0:0:0:0:
256,192,114764,1,4,0:0:0:0:
256,192,115364,1,4,0:0:0:0:
256,192,115764,1,8,0:0:0:0:
256,192,115964,1,0,0:0:0:0:
256,192,116164,1,8,0:0:0:0:
256,192,116764,1,8,0:0:0:0:
256,192,116964,1,0,0:0:0:0:
256,192,117364,1,8,0:0:0:0:
256,192,117564,1,0,0:0:0:0:
256,192,117764,1,8,0:0:0:0:
263,189,118164,1,8,0:0:0:0:
256,192,118564,1,0,0:0:0:0:
256,192,119364,1,8,0:0:0:0:
256,192,119564,1,8,0:0:0:0:
256,192,119764,1,0,0:0:0:0:
256,192,119964,1,8,0:0:0:0:
256,192,120164,1,0,0:0:0:0:
256,192,120564,1,8,0:0:0:0:
256,192,120964,1,0,0:0:0:0:
256,192,121364,1,8,0:0:0:0:
256,192,121764,1,0,0:0:0:0:
256,192,121964,1,8,0:0:0:0:
256,192,122164,1,8,0:0:0:0:
256,192,122364,1,0,0:0:0:0:
256,192,122564,1,8,0:0:0:0:
256,192,123164,1,8,0:0:0:0:
256,192,123564,1,8,0:0:0:0:
256,192,123764,1,8,0:0:0:0:
256,192,123964,1,0,0:0:0:0:
256,192,124164,1,0,0:0:0:0:
256,192,124564,1,8,0:0:0:0:
256,192,124964,1,0,0:0:0:0:
256,192,125364,1,8,0:0:0:0:
256,192,125764,1,0,0:0:0:0:
256,192,125964,1,0,0:0:0:0:
256,192,126164,1,8,0:0:0:0:
256,192,126364,1,8,0:0:0:0:
256,192,126564,1,0,0:0:0:0:
256,192,126964,1,0,0:0:0:0:
256,192,127564,1,12,0:0:0:0:
256,192,128164,1,4,0:0:0:0:
256,192,128964,1,8,0:0:0:0:
256,192,129364,1,8,0:0:0:0:
256,192,129764,1,0,0:0:0:0:
256,192,129964,1,8,0:0:0:0:
256,192,130164,1,0,0:0:0:0:
256,192,130564,1,8,0:0:0:0:
256,192,130964,1,8,0:0:0:0:
256,192,131364,1,0,0:0:0:0:
256,192,132164,1,8,0:0:0:0:
256,192,132564,1,8,0:0:0:0:
256,192,132964,1,0,0:0:0:0:
256,192,133164,1,0,0:0:0:0:
256,192,133364,1,8,0:0:0:0:
256,192,133764,1,8,0:0:0:0:
256,192,134164,1,0,0:0:0:0:
256,192,134564,1,8,0:0:0:0:
256,192,135364,1,8,0:0:0:0:
256,192,135764,1,0,0:0:0:0:
256,192,136164,1,8,0:0:0:0:
256,192,136364,1,0,0:0:0:0:
256,192,136564,1,8,0:0:0:0:
256,192,136964,1,8,0:0:0:0:
256,192,137364,1,0,0:0:0:0:
256,192,137764,1,0,0:0:0:0:
256,192,138564,1,0,0:0:0:0:
256,192,138964,1,8,0:0:0:0:
256,192,139364,1,0,0:0:0:0:
256,192,139564,1,0,0:0:0:0:
256,192,139764,1,8,0:0:0:0:
256,192,140164,1,8,0:0:0:0:
256,192,140564,1,8,0:0:0:0:
256,192,140964,1,0,0:0:0:0:
256,192,141164,8,0,142564,0:0:0:0:
