osu file format v14

[General]
AudioFilename: audio.mp3
AudioLeadIn: 0
PreviewTime: 64195
Countdown: 0
SampleSet: Soft
StackLeniency: 0.7
Mode: 3
LetterboxInBreaks: 0
SpecialStyle: 0
WidescreenStoryboard: 0

[Editor]
DistanceSpacing: 0.8
BeatDivisor: 4
GridSize: 32
TimelineZoom: 1.7

[Metadata]
Title:One Way Street
TitleUnicode:One Way Street
Artist:siqlo
ArtistUnicode:siqlo
Creator:Dreamwalker
Version:Unilateral
Source:BMS
Tags:FAMoss BOFU2017 -LEGENDA EST A MYTH- Karekitsune Team White Canvas Emotional Dubstep Wobble Bass 150 Middle FRENZ2017 Video Game English
BeatmapID:1867902
BeatmapSetID:688453

[Difficulty]
HPDrainRate:9.1
CircleSize:4
OverallDifficulty:8.6
ApproachRate:5
SliderMultiplier:1.4
SliderTickRate:1

[Events]
//Background and Video events
0,0,"onewaystreetBG.jpg",0,0
//Break Periods
//Storyboard Layer 0 (Background)
//Storyboard Layer 1 (Fail)
//Storyboard Layer 2 (Pass)
//Storyboard Layer 3 (Foreground)
//Storyboard Sound Samples
Sample,24206,0,"Voice_00.wav",100
Sample,24606,0,"Voice_01.wav",100
Sample,24981,0,"Voice_02.wav",100
Sample,25181,0,"Voice_03.wav",100
Sample,25381,0,"Voice_04.wav",100
Sample,31631,0,"LR_Clap Reverb.wav",70
Sample,64231,0,"Piano_Chord_139.wav",100
Sample,64231,0,"Piano_Chord_058.wav",100
Sample,65831,0,"Piano_Chord_165.wav",100
Sample,67364,0,"Piano_Chord_145.wav",100
Sample,67431,0,"Piano_Chord_124.wav",100
Sample,67431,0,"Piano_Chord_026.wav",100
Sample,69031,0,"Piano_Chord_112.wav",100
Sample,70031,0,"Piano_Chord_126.wav",100
Sample,70631,0,"Piano_Chord_159.wav",100
Sample,72231,0,"Piano_Chord_126.wav",100
Sample,72931,0,"Piano_Chord_166.wav",100
Sample,73031,0,"Piano_Chord_028.wav",100
Sample,73031,0,"Piano_Chord_172.wav",100
Sample,73831,0,"Piano_Chord_138.wav",100
Sample,75481,0,"Piano_Chord_048.wav",100
Sample,75531,0,"Piano_Chord_083.wav",100
Sample,75564,0,"Piano_Chord_113.wav",100
Sample,76431,0,"Piano_Chord_087.wav",100
Sample,77031,0,"Piano_Chord_146.wav",100
Sample,77031,0,"Piano_Chord_081.wav",100
Sample,78631,0,"Piano_Chord_098.wav",100
Sample,78631,0,"Piano_Chord_044.wav",100
Sample,80231,0,"Piano_Chord_079.wav",100
Sample,80231,0,"Piano_Chord_055.wav",100
Sample,81831,0,"Piano_Chord_111.wav",100
Sample,81831,0,"Piano_Chord_047.wav",100
Sample,82831,0,"Piano_Chord_086.wav",100
Sample,83431,0,"Piano_Chord_057.wav",100
Sample,83431,0,"Piano_Chord_080.wav",100
Sample,85031,0,"Piano_Chord_004.wav",100
Sample,85831,0,"Piano_Chord_147.wav",100
Sample,85831,0,"Piano_Chord_027.wav",100
Sample,86631,0,"Piano_Chord_019.wav",100
Sample,141031,0,"Piano_Chord_091.wav",100

[TimingPoints]
231,400,4,2,2,50,1,0
232,-83.3333333333333,4,2,2,50,0,0
297,-166.666666666667,4,2,2,50,0,0
431,-83.3333333333333,4,2,2,50,0,0
497,-166.666666666667,4,2,2,50,0,0
631,-83.3333333333333,4,2,2,50,0,0
697,-166.666666666667,4,2,2,50,0,0
831,-83.3333333333333,4,2,2,50,0,0
897,-166.666666666667,4,2,2,50,0,0
1031,-83.3333333333333,4,2,2,50,0,0
1097,-166.666666666667,4,2,2,50,0,0
1231,-83.3333333333333,4,2,2,50,0,0
1297,-166.666666666667,4,2,2,50,0,0
1431,-83.3333333333333,4,2,2,50,0,0
1497,-166.666666666667,4,2,2,50,0,0
1631,-83.3333333333333,4,2,2,50,0,0
1697,-166.666666666667,4,2,2,50,0,0
1831,-83.3333333333333,4,2,2,50,0,0
1897,-166.666666666667,4,2,2,50,0,0
2031,-83.3333333333333,4,2,2,50,0,0
2097,-166.666666666667,4,2,2,50,0,0
2231,-83.3333333333333,4,2,2,50,0,0
2297,-166.666666666667,4,2,2,50,0,0
2431,-83.3333333333333,4,2,2,50,0,0
2497,-166.666666666667,4,2,2,50,0,0
2631,-83.3333333333333,4,2,2,50,0,0
2697,-166.666666666667,4,2,2,50,0,0
2831,-83.3333333333333,4,2,2,50,0,0
2897,-166.666666666667,4,2,2,50,0,0
3031,-83.3333333333333,4,2,2,50,0,0
3097,-166.666666666667,4,2,2,50,0,0
3231,-83.3333333333333,4,2,2,50,0,0
3297,-166.666666666667,4,2,2,50,0,0
3431,-83.3333333333333,4,2,2,50,0,0
3497,-166.666666666667,4,2,2,50,0,0
3631,-83.3333333333333,4,2,2,50,0,0
3697,-166.666666666667,4,2,2,50,0,0
3831,-83.3333333333333,4,2,2,50,0,0
3897,-166.666666666667,4,2,2,50,0,0
4031,-83.3333333333333,4,2,2,50,0,0
4097,-166.666666666667,4,2,2,50,0,0
4231,-83.3333333333333,4,2,2,50,0,0
4297,-166.666666666667,4,2,2,50,0,0
4431,-83.3333333333333,4,2,2,50,0,0
4497,-166.666666666667,4,2,2,50,0,0
4631,-83.3333333333333,4,2,2,50,0,0
4697,-166.666666666667,4,2,2,50,0,0
4831,-83.3333333333333,4,2,2,50,0,0
4897,-166.666666666667,4,2,2,50,0,0
5031,-83.3333333333333,4,2,2,50,0,0
5097,-166.666666666667,4,2,2,50,0,0
5231,-83.3333333333333,4,2,2,50,0,0
5297,-166.666666666667,4,2,2,50,0,0
5431,-83.3333333333333,4,2,2,50,0,0
5497,-166.666666666667,4,2,2,50,0,0
5631,-83.3333333333333,4,2,2,50,0,0
5697,-166.666666666667,4,2,2,50,0,0
5831,-83.3333333333333,4,2,2,50,0,0
5897,-166.666666666667,4,2,2,50,0,0
6031,-83.3333333333333,4,2,2,50,0,0
6097,-166.666666666667,4,2,2,50,0,0
6231,-37.037037037037,4,2,2,50,0,0
6242,-1000,4,2,2,50,0,0
6297,-32.258064516129,4,2,2,50,0,0
6308,-1000,4,2,2,50,0,0
6364,-27.027027027027,4,2,2,50,0,0
6375,-1000,4,2,2,50,0,0
6431,-22.2222222222222,4,2,2,50,0,0
6442,-1000,4,2,2,50,0,0
6497,-18.1818181818182,4,2,2,50,0,0
6508,-1000,4,2,2,50,0,0
6564,-14.9253731343284,4,2,2,50,0,0
6575,-1000,4,2,2,50,0,0
6631,-83.3333333333333,4,2,2,50,0,0
6697,-166.666666666667,4,2,2,50,0,0
6831,-83.3333333333333,4,2,2,50,0,0
6897,-166.666666666667,4,2,2,50,0,0
7031,-83.3333333333333,4,2,2,50,0,0
7097,-166.666666666667,4,2,2,50,0,0
7231,-83.3333333333333,4,2,2,50,0,0
7297,-166.666666666667,4,2,2,50,0,0
7431,-83.3333333333333,4,2,2,50,0,0
7497,-166.666666666667,4,2,2,50,0,0
7631,-83.3333333333333,4,2,2,50,0,0
7697,-166.666666666667,4,2,2,50,0,0
7831,-83.3333333333333,4,2,2,50,0,0
7897,-166.666666666667,4,2,2,50,0,0
8031,-83.3333333333333,4,2,2,50,0,0
8097,-166.666666666667,4,2,2,50,0,0
8231,-83.3333333333333,4,2,2,50,0,0
8297,-166.666666666667,4,2,2,50,0,0
8431,-83.3333333333333,4,2,2,50,0,0
8497,-166.666666666667,4,2,2,50,0,0
8631,-83.3333333333333,4,2,2,50,0,0
8697,-166.666666666667,4,2,2,50,0,0
8831,-83.3333333333333,4,2,2,50,0,0
8897,-166.666666666667,4,2,2,50,0,0
9031,-76.9230769230769,4,2,2,50,0,0
9097,-142.857142857143,4,2,2,50,0,0
9231,-76.9230769230769,4,2,2,50,0,0
9297,-142.857142857143,4,2,2,50,0,0
9431,-74.0740740740741,4,2,2,50,0,0
9497,-133.333333333333,4,2,2,50,0,0
9631,-71.4285714285714,4,2,2,50,0,0
9697,-125,4,2,2,50,0,0
9831,-57.1428571428571,4,2,2,50,0,0
9931,-142.857142857143,4,2,2,50,0,0
10031,-66.6666666666667,4,2,2,50,0,0
10131,-153.846153846154,4,2,2,50,0,0
10231,-74.0740740740741,4,2,2,50,0,0
10331,-166.666666666667,4,2,2,50,0,0
10431,-80,4,2,2,50,0,0
10497,-142.857142857143,4,2,2,50,0,0
10631,-83.3333333333333,4,2,2,50,0,0
10697,-153.846153846154,4,2,2,50,0,0
10831,-90.9090909090909,4,2,2,50,0,0
10881,-153.846153846154,4,2,2,50,0,0
11031,-90.9090909090909,4,2,2,50,0,0
11081,-166.666666666667,4,2,2,50,0,0
11231,-90.9090909090909,4,2,2,50,0,0
11264,-142.857142857143,4,2,2,50,0,0
11431,-100,4,2,2,50,0,0
11464,-133.333333333333,4,2,2,50,0,0
11631,-90.9090909090909,4,2,2,50,0,0
11664,-142.857142857143,4,2,2,50,0,0
11831,-83.3333333333333,4,2,2,50,0,0
11881,-166.666666666667,4,2,2,50,0,0
12031,-76.9230769230769,4,2,2,50,0,0
12081,-166.666666666667,4,2,2,50,0,0
12231,-76.9230769230769,4,2,2,50,0,0
12297,-166.666666666667,4,2,2,50,0,0
12431,-71.4285714285714,4,2,2,50,0,0
12497,-166.666666666667,4,2,2,50,0,0
12631,-66.6666666666667,4,2,2,50,0,0
12697,-166.666666666667,4,2,2,50,0,0
12831,-58.8235294117647,4,2,2,50,0,0
12897,-166.666666666667,4,2,2,50,0,0
13031,-52.6315789473684,4,2,1,50,0,0
13071,-1000,4,2,1,50,0,0
13111,-100,4,2,1,50,0,0
14631,-12.3456790123457,4,2,1,50,0,0
14636,-1000,4,2,1,50,0,0
14681,-13.8888888888889,4,2,1,50,0,0
14686,-500,4,2,1,50,0,0
14731,-22.2222222222222,4,2,1,50,0,0
14736,-200,4,2,1,50,0,0
14781,-44.4444444444445,4,2,1,50,0,0
14786,-133.333333333333,4,2,1,50,0,0
14831,-100,4,2,1,50,0,0
16231,-52.6315789473684,4,2,1,50,0,0
16271,-1000,4,2,1,50,0,0
16311,-100,4,2,1,50,0,0
17831,-12.3456790123457,4,2,1,50,0,0
17836,-1000,4,2,1,50,0,0
17881,-13.8888888888889,4,2,1,50,0,0
17886,-500,4,2,1,50,0,0
17931,-22.2222222222222,4,2,1,50,0,0
17936,-200,4,2,1,50,0,0
17981,-44.4444444444445,4,2,1,50,0,0
17986,-133.333333333333,4,2,1,50,0,0
18031,-100,4,2,1,50,0,0
19431,-52.6315789473684,4,2,1,50,0,0
19471,-1000,4,2,1,50,0,0
19511,-100,4,2,1,50,0,0
21031,-12.3456790123457,4,2,1,50,0,0
21036,-1000,4,2,1,50,0,0
21081,-13.8888888888889,4,2,1,50,0,0
21086,-500,4,2,1,50,0,0
21131,-22.2222222222222,4,2,1,50,0,0
21136,-200,4,2,1,50,0,0
21181,-44.4444444444445,4,2,1,50,0,0
21186,-133.333333333333,4,2,1,50,0,0
21231,-100,4,2,1,50,0,0
22631,-52.6315789473684,4,2,1,50,0,0
22671,-1000,4,2,1,50,0,0
22711,-100,4,2,1,50,0,0
24231,-12.3456790123457,4,2,1,50,0,0
24236,-1000,4,2,1,50,0,0
24281,-13.8888888888889,4,2,1,50,0,0
24286,-500,4,2,1,50,0,0
24331,-22.2222222222222,4,2,1,50,0,0
24336,-200,4,2,1,50,0,0
24381,-44.4444444444445,4,2,1,50,0,0
24386,-133.333333333333,4,2,1,50,0,0
24431,-100,4,2,1,50,0,0
24631,-52.6315789473684,4,2,1,50,0,0
24671,-1000,4,2,1,50,0,0
24711,-100,4,2,1,50,0,0
25031,-45.4545454545455,4,2,1,50,0,0
25056,-100,4,2,1,50,0,0
25081,-166.666666666667,4,2,1,50,0,0
25156,-125,4,2,1,50,0,0
25181,-90.9090909090909,4,2,1,50,0,0
25206,-62.5,4,2,1,50,0,0
25231,-45.4545454545455,4,2,1,50,0,0
25256,-100,4,2,1,50,0,0
25281,-166.666666666667,4,2,1,50,0,0
25356,-125,4,2,1,50,0,0
25381,-90.9090909090909,4,2,1,50,0,0
25406,-62.5,4,2,1,50,0,0
25431,-28.5714285714286,4,2,1,50,0,0
25443,-500,4,2,1,50,0,0
25481,-28.5714285714286,4,2,1,50,0,0
25493,-500,4,2,1,50,0,0
25531,-28.5714285714286,4,2,1,50,0,0
25543,-500,4,2,1,50,0,0
25581,-28.5714285714286,4,2,1,50,0,0
25593,-500,4,2,1,50,0,0
25631,-35.7142857142857,4,2,1,50,0,0
25656,-250,4,2,1,50,0,0
25731,-35.7142857142857,4,2,1,50,0,0
25756,-250,4,2,1,50,0,0
25831,-111.111111111111,4,2,1,50,0,0
31431,-45.4545454545455,4,2,1,50,0,0
31456,-166.666666666667,4,2,1,50,0,0
31531,-45.4545454545455,4,2,1,50,0,0
31556,-71.4285714285714,4,2,1,50,0,0
31581,-111.111111111111,4,2,1,50,0,0
31631,-166.666666666667,4,2,1,50,0,0
31731,-45.4545454545455,4,2,1,50,0,0
31756,-166.666666666667,4,2,1,50,0,0
31831,-10,4,2,1,50,0,0
31856,-50,4,2,1,50,0,0
31881,-14.2857142857143,4,2,1,50,0,0
31886,-1000,4,2,1,50,0,0
31931,-16.1290322580645,4,2,1,50,0,0
31936,-1000,4,2,1,50,0,0
31981,-17.5438596491228,4,2,1,50,0,0
31986,-1000,4,2,1,50,0,0
32031,-19.2307692307692,4,2,1,50,0,0
32036,-1000,4,2,1,50,0,0
32081,-20.4081632653061,4,2,1,50,0,0
32086,-1000,4,2,1,50,0,0
32131,-21.2765957446808,4,2,1,50,0,0
32136,-1000,4,2,1,50,0,0
32181,-21.7391304347826,4,2,1,50,0,0
32186,-1000,4,2,1,50,0,0
32231,-100,4,2,1,50,0,0
33231,-43.4782608695652,4,2,1,50,0,0
33256,-1000,4,2,1,50,0,0
33281,-111.111111111111,4,2,1,50,0,0
33306,-1000,4,2,1,50,0,0
33331,-43.4782608695652,4,2,1,50,0,0
33356,-1000,4,2,1,50,0,0
33381,-111.111111111111,4,2,1,50,0,0
33406,-1000,4,2,1,50,0,0
33431,-43.4782608695652,4,2,1,50,0,0
33456,-1000,4,2,1,50,0,0
33481,-111.111111111111,4,2,1,50,0,0
33506,-1000,4,2,1,50,0,0
33531,-43.4782608695652,4,2,1,50,0,0
33556,-1000,4,2,1,50,0,0
33581,-111.111111111111,4,2,1,50,0,0
33606,-1000,4,2,1,50,0,0
33631,-43.4782608695652,4,2,1,50,0,0
33656,-1000,4,2,1,50,0,0
33681,-111.111111111111,4,2,1,50,0,0
33706,-1000,4,2,1,50,0,0
33731,-43.4782608695652,4,2,1,50,0,0
33756,-1000,4,2,1,50,0,0
33781,-111.111111111111,4,2,1,50,0,0
33806,-1000,4,2,1,50,0,0
33831,-100,4,2,1,50,0,0
34631,-45.4545454545455,4,2,1,50,0,0
34664,-250.000000000001,4,2,1,50,0,0
34731,-45.4545454545455,4,2,1,50,0,0
34764,-250.000000000001,4,2,1,50,0,0
34831,-45.4545454545455,4,2,1,50,0,0
34864,-250.000000000001,4,2,1,50,0,0
34931,-45.4545454545455,4,2,1,50,0,0
34964,-250.000000000001,4,2,1,50,0,0
35031,-10,4,2,1,50,0,0
35064,-1000,4,2,1,50,0,0
35097,-40,4,2,1,50,0,0
35131,-1000,4,2,1,50,0,0
35164,-62.5,4,2,1,50,0,0
35197,-1000,4,2,1,50,0,0
35230,-76.9230769230769,4,2,1,50,0,0
35264,-1000,4,2,1,50,0,0
35297,-90.9090909090909,4,2,1,50,0,0
35330,-1000,4,2,1,50,0,0
35363,-111.111111111111,4,2,1,50,0,0
35397,-1000,4,2,1,50,0,0
35431,-100,4,2,1,50,0,0
36631,-62.5,4,2,1,50,0,0
36681,-111.111111111111,4,2,1,50,0,0
36731,-181.818181818182,4,2,1,50,0,0
36781,-105.263157894737,4,2,1,50,0,0
36831,-58.8235294117647,4,2,1,50,0,0
36881,-100,4,2,1,50,0,0
36931,-153.846153846154,4,2,1,50,0,0
37031,-166.666666666667,4,2,1,50,0,0
37081,-153.846153846154,4,2,1,50,0,0
37131,-142.857142857143,4,2,1,50,0,0
37181,-133.333333333333,4,2,1,50,0,0
37231,-125,4,2,1,50,0,0
37281,-117.647058823529,4,2,1,50,0,0
37331,-111.111111111111,4,2,1,50,0,0
37381,-105.263157894737,4,2,1,50,0,0
37431,-100,4,2,1,50,0,0
37481,-95.2380952380952,4,2,1,50,0,0
37531,-90.9090909090909,4,2,1,50,0,0
37581,-86.9565217391304,4,2,1,50,0,0
37631,-83.3333333333333,4,2,1,50,0,0
37681,-80,4,2,1,50,0,0
37731,-76.923076923077,4,2,1,50,0,0
37781,-74.0740740740741,4,2,1,50,0,0
37831,-10,4,2,1,50,0,0
37856,-1000,4,2,1,50,0,0
37897,-31.25,4,2,1,50,0,0
37905,-1000,4,2,1,50,0,0
37964,-27.7777777777778,4,2,1,50,0,0
37972,-1000,4,2,1,50,0,0
38031,-25,4,2,1,50,0,0
38039,-1000,4,2,1,50,0,0
38097,-26.3157894736842,4,2,1,50,0,0
38105,-1000,4,2,1,50,0,0
38164,-28.5714285714286,4,2,1,50,0,0
38172,-1000,4,2,1,50,0,0
38231,-33.3333333333333,4,2,1,50,0,0
38239,-1000,4,2,1,50,0,0
38297,-38.4615384615385,4,2,1,50,0,0
38305,-1000,4,2,1,50,0,0
38364,-43.4782608695652,4,2,1,50,0,0
38372,-1000,4,2,1,50,0,0
38431,-47.6190476190476,4,2,1,50,0,0
38439,-1000,4,2,1,50,0,0
38497,-52.6315789473684,4,2,1,50,0,0
38505,-1000,4,2,1,50,0,0
38564,-55.5555555555556,4,2,1,50,0,0
38572,-1000,4,2,1,50,0,0
38631,-10,4,2,1,50,0,0
38656,-142.857142857143,4,2,1,50,0,0
39031,-62.5,4,2,1,50,0,0
39056,-111.111111111111,4,2,1,50,0,0
39081,-200,4,2,1,50,0,0
39131,-166.666666666667,4,2,1,50,0,0
39181,-142.857142857143,4,2,1,50,0,0
39231,-250.000000000001,4,2,1,50,0,0
39406,-27.7777777777778,4,2,1,50,0,0
39431,-100,4,2,1,50,0,1
40331,-55.5555555555556,4,2,1,50,0,1
40381,-111.111111111111,4,2,1,50,0,1
40431,-200,4,2,1,50,0,1
40531,-100,4,2,1,50,0,1
40631,-55.5555555555556,4,2,1,50,0,1
40681,-111.111111111111,4,2,1,50,0,1
40731,-200,4,2,1,50,0,1
40831,-21.7391304347826,4,2,1,50,0,1
40841,-1000,4,2,1,50,0,1
40881,-21.7391304347826,4,2,1,50,0,1
40891,-1000,4,2,1,50,0,1
40931,-21.7391304347826,4,2,1,50,0,1
40941,-1000,4,2,1,50,0,1
40981,-21.7391304347826,4,2,1,50,0,1
40991,-1000,4,2,1,50,0,1
41031,-100,4,2,1,50,0,1
41131,-55.5555555555556,4,2,1,50,0,1
41181,-111.111111111111,4,2,1,50,0,1
41231,-200,4,2,1,50,0,1
41331,-100,4,2,1,50,0,1
41431,-55.5555555555556,4,2,1,50,0,1
41481,-111.111111111111,4,2,1,50,0,1
41531,-200,4,2,1,50,0,1
41631,-21.7391304347826,4,2,1,50,0,1
41641,-1000,4,2,1,50,0,1
41681,-21.7391304347826,4,2,1,50,0,1
41691,-1000,4,2,1,50,0,1
41731,-21.7391304347826,4,2,1,50,0,1
41741,-1000,4,2,1,50,0,1
41781,-21.7391304347826,4,2,1,50,0,1
41791,-1000,4,2,1,50,0,1
41831,-111.111111111111,4,2,1,50,0,1
42031,-47.6190476190476,4,2,1,50,0,1
42056,-250.000000000001,4,2,1,50,0,1
42131,-47.6190476190476,4,2,1,50,0,1
42156,-250.000000000001,4,2,1,50,0,1
42231,-166.666666666667,4,2,1,50,0,1
42281,-142.857142857143,4,2,1,50,0,1
42331,-125,4,2,1,50,0,1
42381,-111.111111111111,4,2,1,50,0,1
42431,-26.3157894736842,4,2,1,50,0,1
42438,-1000,4,2,1,50,0,1
42481,-23.2558139534884,4,2,1,50,0,1
42488,-1000,4,2,1,50,0,1
42531,-18.867924528302,4,2,1,50,0,1
42538,-1000,4,2,1,50,0,1
42581,-15.1515151515152,4,2,1,50,0,1
42588,-1000,4,2,1,50,0,1
42631,-45.4545454545455,4,2,1,50,0,1
42681,-166.666666666667,4,2,1,50,0,1
42831,-100,4,2,1,50,0,1
43431,-52.6315789473684,4,2,1,50,0,1
43456,-90.9090909090909,4,2,1,50,0,1
43481,-166.666666666667,4,2,1,50,0,1
43556,-142.857142857143,4,2,1,50,0,1
43581,-111.111111111111,4,2,1,50,0,1
43606,-71.4285714285714,4,2,1,50,0,1
43631,-52.6315789473684,4,2,1,50,0,1
43656,-90.9090909090909,4,2,1,50,0,1
43681,-125,4,2,1,50,0,1
43731,-166.666666666667,4,2,1,50,0,1
43831,-100,4,2,1,50,0,1
44631,-45.4545454545455,4,2,1,50,0,1
44656,-76.9230769230769,4,2,1,50,0,1
44681,-111.111111111111,4,2,1,50,0,1
44731,-166.666666666667,4,2,1,50,0,1
44781,-125,4,2,1,50,0,1
44806,-76.9230769230769,4,2,1,50,0,1
44831,-62.5,4,2,1,50,0,1
44856,-111.111111111111,4,2,1,50,0,1
45031,-10,4,2,1,50,0,1
45054,-1000,4,2,1,50,0,1
45097,-41.6666666666667,4,2,1,50,0,1
45110,-1000,4,2,1,50,0,1
45164,-41.6666666666667,4,2,1,50,0,1
45177,-1000,4,2,1,50,0,1
45231,-41.6666666666667,4,2,1,50,0,1
45244,-1000,4,2,1,50,0,1
45297,-41.6666666666667,4,2,1,50,0,1
45310,-1000,4,2,1,50,0,1
45364,-41.6666666666667,4,2,1,50,0,1
45377,-1000,4,2,1,50,0,1
45431,-62.5,4,2,1,50,0,1
45481,-250,4,2,1,50,0,1
45531,-62.5,4,2,1,50,0,1
45581,-250,4,2,1,50,0,1
45631,-62.5,4,2,1,50,0,1
45681,-250,4,2,1,50,0,1
45781,-83.3333333333333,4,2,1,50,0,1
45806,-50,4,2,1,50,0,1
45831,-62.5,4,2,1,50,0,1
45881,-250,4,2,1,50,0,1
45931,-62.5,4,2,1,50,0,1
45981,-250,4,2,1,50,0,1
46031,-62.5,4,2,1,50,0,1
46081,-250,4,2,1,50,0,1
46131,-62.5,4,2,1,50,0,1
46181,-250,4,2,1,50,0,1
46231,-100,4,2,1,50,0,1
46631,-21.7391304347826,4,2,1,50,0,1
46641,-1000,4,2,1,50,0,1
46721,-21.7391304347826,4,2,1,50,0,1
46731,-100,4,2,1,50,0,1
47131,-21.7391304347826,4,2,1,50,0,1
47141,-1000,4,2,1,50,0,1
47221,-21.7391304347826,4,2,1,50,0,1
47231,-100,4,2,1,50,0,1
47431,-40,4,2,1,50,0,1
47456,-200,4,2,1,50,0,1
47531,-33.3333333333333,4,2,1,50,0,1
47556,-1000,4,2,1,50,0,1
47581,-55.5555555555556,4,2,1,50,0,1
47606,-1000,4,2,1,50,0,1
47631,-100,4,2,1,50,0,1
47656,-1000,4,2,1,50,0,1
47681,-250,4,2,1,50,0,1
47731,-33.3333333333333,4,2,1,50,0,1
47756,-1000,4,2,1,50,0,1
47781,-55.5555555555556,4,2,1,50,0,1
47806,-1000,4,2,1,50,0,1
47831,-100,4,2,1,50,0,1
47856,-1000,4,2,1,50,0,1
47881,-250,4,2,1,50,0,1
47931,-43.4782608695652,4,2,1,50,0,1
47956,-1000,4,2,1,50,0,1
47981,-66.6666666666667,4,2,1,50,0,1
48006,-1000,4,2,1,50,0,1
48031,-50,4,2,1,50,0,1
48056,-100,4,2,1,50,0,1
48231,-60.6060606060606,4,2,1,50,0,1
48281,-400,4,2,1,50,0,1
48331,-60.6060606060606,4,2,1,50,0,1
48381,-400,4,2,1,50,0,1
48431,-60.6060606060606,4,2,1,50,0,1
48481,-400,4,2,1,50,0,1
48531,-60.6060606060606,4,2,1,50,0,1
48581,-400,4,2,1,50,0,1
48631,-30.3030303030303,4,2,1,50,0,1
48656,-55.5555555555556,4,2,1,50,0,1
48681,-100,4,2,1,50,0,1
48706,-133.333333333333,4,2,1,50,0,1
48731,-166.666666666667,4,2,1,50,0,1
48831,-111.111111111111,4,2,1,50,0,1
49031,-10,4,2,1,50,0,0
49056,-294.117647058824,4,2,1,50,0,0
49831,-10,4,2,1,50,0,0
49856,-1000,4,2,1,50,0,0
49881,-90.9090909090909,4,2,1,50,0,0
49906,-1000,4,2,1,50,0,0
49931,-90.9090909090909,4,2,1,50,0,0
49956,-1000,4,2,1,50,0,0
49981,-90.9090909090909,4,2,1,50,0,0
50006,-1000,4,2,1,50,0,0
50031,-90.9090909090909,4,2,1,50,0,0
50056,-1000,4,2,1,50,0,0
50081,-90.9090909090909,4,2,1,50,0,0
50106,-1000,4,2,1,50,0,0
50131,-47.6190476190476,4,2,1,50,0,0
50156,-1000,4,2,1,50,0,0
50181,-47.6190476190476,4,2,1,50,0,0
50206,-1000,4,2,1,50,0,0
50231,-41.6666666666667,4,2,1,50,0,0
50256,-1000,4,2,1,50,0,0
50281,-50,4,2,1,50,0,0
50306,-1000,4,2,1,50,0,0
50331,-62.5,4,2,1,50,0,0
50356,-1000,4,2,1,50,0,0
50381,-83.3333333333333,4,2,1,50,0,0
50406,-1000,4,2,1,50,0,0
50431,-83.3333333333333,4,2,1,50,0,0
50456,-1000,4,2,1,50,0,0
50481,-62.5,4,2,1,50,0,0
50506,-1000,4,2,1,50,0,0
50531,-50,4,2,1,50,0,0
50556,-1000,4,2,1,50,0,0
50581,-41.6666666666667,4,2,1,50,0,0
50606,-1000,4,2,1,50,0,0
50631,-40,4,2,1,50,0,0
50656,-166.666666666667,4,2,1,50,0,0
50831,-66.6666666666667,4,2,1,50,0,0
50856,-100,4,2,1,50,0,0
50881,-142.857142857143,4,2,1,50,0,0
51031,-66.6666666666667,4,2,1,50,0,0
51056,-100,4,2,1,50,0,0
51081,-142.857142857143,4,2,1,50,0,0
51231,-66.6666666666667,4,2,1,50,0,0
51256,-100,4,2,1,50,0,0
51281,-142.857142857143,4,2,1,50,0,0
51431,-10,4,2,1,50,0,0
51456,-40,4,2,1,50,0,0
51481,-200,4,2,1,50,0,0
51831,-26.3157894736842,4,2,1,50,0,0
51841,-1000,4,2,1,50,0,0
51881,-25.6410256410257,4,2,1,50,0,0
51891,-1000,4,2,1,50,0,0
51931,-24.9999999999999,4,2,1,50,0,0
51941,-1000,4,2,1,50,0,0
51981,-24.390243902439,4,2,1,50,0,0
51991,-1000,4,2,1,50,0,0
52031,-23.8095238095238,4,2,1,50,0,0
52041,-1000,4,2,1,50,0,0
52081,-23.2558139534884,4,2,1,50,0,0
52091,-1000,4,2,1,50,0,0
52131,-22.7272727272728,4,2,1,50,0,0
52141,-1000,4,2,1,50,0,0
52181,-22.2222222222222,4,2,1,50,0,0
52191,-1000,4,2,1,50,0,0
52231,-10,4,2,1,50,0,0
52256,-40,4,2,1,50,0,0
52281,-200,4,2,1,50,0,0
52631,-26.3157894736842,4,2,1,50,0,0
52641,-1000,4,2,1,50,0,0
52681,-25.6410256410257,4,2,1,50,0,0
52691,-1000,4,2,1,50,0,0
52731,-24.9999999999999,4,2,1,50,0,0
52741,-1000,4,2,1,50,0,0
52781,-24.390243902439,4,2,1,50,0,0
52791,-1000,4,2,1,50,0,0
52831,-23.8095238095238,4,2,1,50,0,0
52841,-1000,4,2,1,50,0,0
52881,-23.2558139534884,4,2,1,50,0,0
52891,-1000,4,2,1,50,0,0
52931,-22.7272727272728,4,2,1,50,0,0
52941,-1000,4,2,1,50,0,0
52981,-22.2222222222222,4,2,1,50,0,0
52991,-1000,4,2,1,50,0,0
53031,-10,4,2,1,50,0,0
53056,-40,4,2,1,50,0,0
53081,-200,4,2,1,50,0,0
53431,-19.6078431372549,4,2,1,50,0,0
53441,-1000,4,2,1,50,0,0
53481,-21.7391304347826,4,2,1,50,0,0
53491,-1000,4,2,1,50,0,0
53531,-24.390243902439,4,2,1,50,0,0
53541,-1000,4,2,1,50,0,0
53581,-27.7777777777778,4,2,1,50,0,0
53591,-1000,4,2,1,50,0,0
53631,-200,4,2,1,50,0,0
53756,-153.846153846154,4,2,1,50,0,0
53781,-111.111111111111,4,2,1,50,0,0
53806,-25,4,2,1,50,0,0
53831,-13.3333333333333,4,2,1,50,0,0
53842,-500,4,2,1,50,0,0
53897,-28.5714285714286,4,2,1,50,0,0
53908,-500,4,2,1,50,0,0
53964,-28.5714285714286,4,2,1,50,0,0
53975,-500,4,2,1,50,0,0
54031,-22.2222222222222,4,2,1,50,0,0
54042,-500,4,2,1,50,0,0
54097,-22.7272727272727,4,2,1,50,0,0
54108,-500,4,2,1,50,0,0
54164,-23.5294117647059,4,2,1,50,0,0
54175,-500,4,2,1,50,0,0
54231,-24.6913580246914,4,2,1,50,0,0
54242,-500,4,2,1,50,0,0
54298,-26.3157894736842,4,2,1,50,0,0
54309,-500,4,2,1,50,0,0
54364,-28.5714285714286,4,2,1,50,0,0
54375,-500,4,2,1,50,0,0
54431,-31.7460317460317,4,2,1,50,0,0
54442,-500,4,2,1,50,0,0
54498,-36.3636363636364,4,2,1,50,0,0
54509,-500,4,2,1,50,0,0
54564,-43.4782608695652,4,2,1,50,0,0
54575,-500,4,2,1,50,0,0
54631,-10,4,2,1,50,0,0
54656,-40,4,2,1,50,0,0
54681,-200,4,2,1,50,0,0
55031,-26.3157894736842,4,2,1,50,0,0
55041,-1000,4,2,1,50,0,0
55081,-25.6410256410257,4,2,1,50,0,0
55091,-1000,4,2,1,50,0,0
55131,-24.9999999999999,4,2,1,50,0,0
55141,-1000,4,2,1,50,0,0
55181,-24.390243902439,4,2,1,50,0,0
55191,-1000,4,2,1,50,0,0
55231,-23.8095238095238,4,2,1,50,0,0
55241,-1000,4,2,1,50,0,0
55281,-23.2558139534884,4,2,1,50,0,0
55291,-1000,4,2,1,50,0,0
55331,-22.7272727272728,4,2,1,50,0,0
55341,-1000,4,2,1,50,0,0
55381,-22.2222222222222,4,2,1,50,0,0
55391,-1000,4,2,1,50,0,0
55431,-10,4,2,1,50,0,0
55456,-40,4,2,1,50,0,0
55481,-200,4,2,1,50,0,0
55831,-26.3157894736842,4,2,1,50,0,0
55841,-1000,4,2,1,50,0,0
55881,-25.6410256410257,4,2,1,50,0,0
55891,-1000,4,2,1,50,0,0
55931,-24.9999999999999,4,2,1,50,0,0
55941,-1000,4,2,1,50,0,0
55981,-24.390243902439,4,2,1,50,0,0
55991,-1000,4,2,1,50,0,0
56031,-23.8095238095238,4,2,1,50,0,0
56041,-1000,4,2,1,50,0,0
56081,-23.2558139534884,4,2,1,50,0,0
56091,-1000,4,2,1,50,0,0
56131,-22.7272727272728,4,2,1,50,0,0
56141,-1000,4,2,1,50,0,0
56181,-22.2222222222222,4,2,1,50,0,0
56191,-1000,4,2,1,50,0,0
56231,-10,4,2,1,50,0,0
56256,-1000,4,2,1,50,0,0
56281,-58.8235294117647,4,2,1,50,0,0
56306,-1000,4,2,1,50,0,0
56331,-71.4285714285714,4,2,1,50,0,0
56356,-1000,4,2,1,50,0,0
56381,-83.3333333333333,4,2,1,50,0,0
56406,-1000,4,2,1,50,0,0
56431,-90.9090909090909,4,2,1,50,0,0
56456,-1000,4,2,1,50,0,0
56481,-90.9090909090909,4,2,1,50,0,0
56506,-1000,4,2,1,50,0,0
56531,-125,4,2,1,50,0,0
56581,-66.6666666666667,4,2,1,50,0,0
56631,-33.3333333333333,4,2,1,50,0,0
56656,-66.6666666666667,4,2,1,50,0,0
56681,-100,4,2,1,50,0,0
56706,-200,4,2,1,50,0,0
56831,-10,4,2,1,50,0,0
56856,-1000,4,2,1,50,0,0
56881,-58.8235294117647,4,2,1,50,0,0
56906,-1000,4,2,1,50,0,0
56931,-71.4285714285714,4,2,1,50,0,0
56956,-1000,4,2,1,50,0,0
56981,-83.3333333333333,4,2,1,50,0,0
57006,-1000,4,2,1,50,0,0
57031,-90.9090909090909,4,2,1,50,0,0
57056,-1000,4,2,1,50,0,0
57081,-90.9090909090909,4,2,1,50,0,0
57106,-1000,4,2,1,50,0,0
57131,-125,4,2,1,50,0,0
57181,-66.6666666666667,4,2,1,50,0,0
57231,-33.3333333333333,4,2,1,50,0,0
57256,-66.6666666666667,4,2,1,50,0,0
57281,-100,4,2,1,50,0,0
57306,-200,4,2,1,50,0,0
57431,-10,4,2,1,50,0,0
57456,-1000,4,2,1,50,0,0
57481,-58.8235294117647,4,2,1,50,0,0
57506,-1000,4,2,1,50,0,0
57531,-76.9230769230769,4,2,1,50,0,0
57556,-1000,4,2,1,50,0,0
57581,-90.9090909090909,4,2,1,50,0,0
57606,-1000,4,2,1,50,0,0
57631,-83.3333333333333,4,2,1,50,0,0
57656,-1000,4,2,1,50,0,0
57681,-71.4285714285714,4,2,1,50,0,0
57706,-1000,4,2,1,50,0,0
57731,-100,4,2,1,50,0,0
57781,-55.5555555555556,4,2,1,50,0,0
57831,-200,4,2,1,50,0,0
58031,-196.078431372549,4,2,1,50,0,0
58231,-192.307692307692,4,2,1,50,0,0
58431,-188.679245283019,4,2,1,50,0,0
58631,-185.185185185185,4,2,1,50,0,0
58831,-178.571428571429,4,2,1,50,0,0
59031,-172.413793103448,4,2,1,50,0,0
59231,-166.666666666667,4,2,1,50,0,0
59431,-161.290322580645,4,2,1,50,0,0
59631,-153.846153846154,4,2,1,50,0,0
59831,-147.058823529412,4,2,1,50,0,0
60031,-138.888888888889,4,2,1,50,0,0
60231,-131.578947368421,4,2,1,50,0,0
60432,-123.456790123457,4,2,1,50,0,0
60531,-117.647058823529,4,2,1,50,0,0
60631,-111.111111111111,4,2,1,50,0,0
60731,-104.166666666667,4,2,1,50,0,0
60831,-97.0873786407767,4,2,1,50,0,0
60881,-92.5925925925926,4,2,1,50,0,0
60931,-87.719298245614,4,2,1,50,0,0
60981,-83.3333333333333,4,2,1,50,0,0
61031,-133.333333333333,4,2,1,50,0,0
61230,-131.578947368421,4,2,1,50,0,0
61430,-128.205128205128,4,2,1,50,0,0
61630,-123.456790123457,4,2,1,50,0,0
61831,-119.047619047619,4,2,1,50,0,0
62030,-114.942528735632,4,2,1,50,0,0
62230,-111.111111111111,4,2,1,50,0,0
62431,-109.89010989011,4,2,1,50,0,0
62531,-107.52688172043,4,2,1,50,0,0
62631,-106.382978723404,4,2,1,50,0,0
62731,-104.166666666667,4,2,1,50,0,0
62831,-103.092783505155,4,2,1,50,0,0
62931,-101.010101010101,4,2,1,50,0,0
63031,-100,4,2,1,50,0,0
63131,-98.0392156862745,4,2,1,50,0,0
63231,-97.0873786407767,4,2,1,50,0,0
63331,-95.2380952380952,4,2,1,50,0,0
63431,-10,4,2,1,50,0,0
63435,-66.6666666666667,4,2,1,50,0,0
63481,-90.9090909090909,4,2,1,50,0,0
63531,-111.111111111111,4,2,1,50,0,0
63581,-125,4,2,1,50,0,0
63631,-133.333333333333,4,2,1,50,0,0
63681,-125,4,2,1,50,0,0
63731,-111.111111111111,4,2,1,50,0,0
63781,-100,4,2,1,50,0,0
63831,-90.9090909090909,4,2,1,50,0,0
63881,-83.3333333333333,4,2,1,50,0,0
64231,-142.857142857143,4,2,1,50,0,0
65031,-142.857142857143,4,2,1,20,0,0
77031,-117.647058823529,4,2,1,30,0,0
85031,-111.111111111111,4,2,1,30,0,0
85056,-125,4,2,1,30,0,0
85131,-100,4,2,1,30,0,0
85156,-130.548302872063,4,2,1,30,0,0
85231,-90.9090909090909,4,2,1,30,0,0
85256,-136.364256201165,4,2,1,30,0,0
85331,-83.3333333333333,4,2,1,30,0,0
85356,-142.857142857143,4,2,1,30,0,0
85431,-76.9230769230769,4,2,1,30,0,0
85456,-149.253731343284,4,2,1,30,0,0
85531,-75.7575757575758,4,2,1,30,0,0
85556,-149.253731343284,4,2,1,30,0,0
85631,-75.187969924812,4,2,1,30,0,0
85656,-148.148148148148,4,2,1,30,0,0
85731,-74.0740740740741,4,2,1,30,0,0
85756,-148.148148148148,4,2,1,30,0,0
85831,-71.4285714285714,4,2,1,40,0,0
85856,-153.846153846154,4,2,1,40,0,0
85931,-68.9655172413793,4,2,1,40,0,0
85956,-153.846153846154,4,2,1,40,0,0
86031,-66.6666666666667,4,2,1,40,0,0
86056,-153.846153846154,4,2,1,40,0,0
86131,-64.5161290322581,4,2,1,40,0,0
86156,-153.846153846154,4,2,1,40,0,0
86231,-62.5,4,2,1,40,0,0
86256,-160,4,2,1,40,0,0
86331,-60.6060606060606,4,2,1,40,0,0
86356,-160,4,2,1,40,0,0
86431,-60.6060606060606,4,2,1,40,0,0
86456,-160,4,2,1,40,0,0
86531,-60.6060606060606,4,2,1,40,0,0
86556,-160,4,2,1,40,0,0
86631,-47.6190476190476,4,2,1,43,0,0
86656,-200,4,2,1,43,0,0
86731,-46.5116279069767,4,2,1,43,0,0
86756,-200,4,2,1,43,0,0
86831,-45.4545454545455,4,2,1,43,0,0
86856,-200,4,2,1,43,0,0
86931,-44.4444444444445,4,2,1,43,0,0
86956,-200,4,2,1,43,0,0
87031,-43.4782608695652,4,2,1,43,0,0
87056,-200,4,2,1,43,0,0
87131,-42.5531914893617,4,2,1,43,0,0
87156,-200,4,2,1,43,0,0
87231,-41.6666666666667,4,2,1,43,0,0
87256,-200,4,2,1,43,0,0
87331,-40.8163265306122,4,2,1,43,0,0
87356,-200,4,2,1,43,0,0
87431,-40,4,2,1,46,0,0
87456,-200,4,2,1,46,0,0
87531,-39.2156862745098,4,2,1,46,0,0
87556,-200,4,2,1,46,0,0
87631,-38.4615384615385,4,2,1,46,0,0
87656,-200,4,2,1,46,0,0
87731,-37.7358490566038,4,2,1,46,0,0
87756,-200,4,2,1,46,0,0
87831,-37.037037037037,4,2,1,46,0,0
87856,-200,4,2,1,46,0,0
87931,-35.7142857142857,4,2,1,46,0,0
87956,-200,4,2,1,46,0,0
88031,-34.4827586206897,4,2,1,46,0,0
88056,-200,4,2,1,46,0,0
88131,-33.3333333333333,4,2,1,46,0,0
88156,-200,4,2,1,46,0,0
88231,-10,4,2,1,50,0,0
88256,-50,4,2,1,50,0,0
88281,-100,4,2,1,50,0,0
88331,-250,4,2,1,50,0,0
88956,-227.272727272727,4,2,1,50,0,0
89006,-204.081632653061,4,2,1,50,0,0
89056,-181.818181818182,4,2,1,50,0,0
89106,-161.290322580645,4,2,1,50,0,0
89156,-142.857142857143,4,2,1,50,0,0
89231,-125,4,2,1,50,0,0
89281,-108.695652173913,4,2,1,50,0,0
89331,-94.3396226415094,4,2,1,50,0,0
89381,-83.3333333333333,4,2,1,50,0,0
89431,-10,4,2,1,50,0,0
89471,-86.9565217391304,4,2,1,50,0,0
89631,-90.9090909090909,4,2,1,50,0,0
89664,-95.2380952380952,4,2,1,50,0,0
89698,-100,4,2,1,50,0,0
89731,-105.263157894737,4,2,1,50,0,0
89764,-111.111111111111,4,2,1,50,0,0
89798,-117.64705882353,4,2,1,50,0,0
89831,-25,4,2,1,50,0,0
89856,-1000,4,2,1,50,0,0
89881,-111.111111111111,4,2,1,50,0,0
89931,-166.666666666667,4,2,1,50,0,0
89981,-142.857142857143,4,2,1,50,0,0
90031,-125,4,2,1,50,0,0
90081,-105.263157894737,4,2,1,50,0,0
90131,-25,4,2,1,50,0,0
90156,-1000,4,2,1,50,0,0
90181,-111.111111111111,4,2,1,50,0,0
90231,-166.666666666667,4,2,1,50,0,0
90281,-142.857142857143,4,2,1,50,0,0
90331,-125,4,2,1,50,0,0
90381,-105.263157894737,4,2,1,50,0,0
90431,-10,4,2,1,50,0,0
90456,-166.666666666667,4,2,1,50,0,0
90881,-142.857142857143,4,2,1,50,0,0
90931,-117.647058823529,4,2,1,50,0,0
90981,-86.9565217391304,4,2,1,50,0,0
91031,-25,4,2,1,50,0,0
91056,-1000,4,2,1,50,0,0
91081,-111.111111111111,4,2,1,50,0,0
91131,-166.666666666667,4,2,1,50,0,0
91181,-142.857142857143,4,2,1,50,0,0
91231,-125,4,2,1,50,0,0
91281,-105.263157894737,4,2,1,50,0,0
91331,-25,4,2,1,50,0,0
91356,-1000,4,2,1,50,0,0
91381,-111.111111111111,4,2,1,50,0,0
91431,-166.666666666667,4,2,1,50,0,0
91481,-142.857142857143,4,2,1,50,0,0
91531,-125,4,2,1,50,0,0
91581,-105.263157894737,4,2,1,50,0,0
91631,-33.3333333333333,4,2,1,50,0,0
91656,-1000,4,2,1,50,0,0
91681,-66.6666666666667,4,2,1,50,0,0
91706,-1000,4,2,1,50,0,0
91731,-166.666666666667,4,2,1,50,0,0
91831,-66.6666666666667,4,2,1,50,0,0
91856,-83.3333333333333,4,2,1,50,0,0
91881,-125,4,2,1,50,0,0
91906,-200,4,2,1,50,0,0
91931,-66.6666666666667,4,2,1,50,0,0
91956,-83.3333333333333,4,2,1,50,0,0
91981,-125,4,2,1,50,0,0
92006,-200,4,2,1,50,0,0
92031,-55.5555555555556,4,2,1,50,0,0
92056,-90.9090909090909,4,2,1,50,0,0
92081,-142.857142857143,4,2,1,50,0,0
92106,-250,4,2,1,50,0,0
92206,-35.7142857142857,4,2,1,50,0,0
92231,-33.3333333333333,4,2,1,50,0,0
92256,-133.333333333333,4,2,1,50,0,0
92431,-111.111111111111,4,2,1,50,0,0
92481,-105.263157894737,4,2,1,50,0,0
92531,-100,4,2,1,50,0,0
92581,-95.2380952380952,4,2,1,50,0,0
92631,-20,4,2,1,50,0,0
92641,-1000,4,2,1,50,0,0
92681,-20,4,2,1,50,0,0
92691,-1000,4,2,1,50,0,0
92731,-20,4,2,1,50,0,0
92741,-1000,4,2,1,50,0,0
92781,-20,4,2,1,50,0,0
92791,-1000,4,2,1,50,0,0
92831,-20,4,2,1,50,0,0
92841,-1000,4,2,1,50,0,0
92881,-20,4,2,1,50,0,0
92891,-1000,4,2,1,50,0,0
92931,-20,4,2,1,50,0,0
92941,-1000,4,2,1,50,0,0
92981,-20,4,2,1,50,0,0
92991,-1000,4,2,1,50,0,0
93031,-117.647058823529,4,2,1,50,0,0
93631,-10,4,2,1,50,0,0
93635,-125,4,2,1,50,0,0
93831,-29.4117647058824,4,2,1,50,0,0
93856,-1000,4,2,1,50,0,0
93931,-29.4117647058824,4,2,1,50,0,0
93956,-1000,4,2,1,50,0,0
94031,-29.4117647058824,4,2,1,50,0,0
94056,-1000,4,2,1,50,0,0
94131,-29.4117647058824,4,2,1,50,0,0
94156,-1000,4,2,1,50,0,0
94231,-29.4117647058824,4,2,1,50,0,0
94256,-1000,4,2,1,50,0,0
94331,-29.4117647058824,4,2,1,50,0,0
94356,-1000,4,2,1,50,0,0
94431,-29.4117647058824,4,2,1,50,0,0
94456,-1000,4,2,1,50,0,0
94531,-29.4117647058824,4,2,1,50,0,0
94556,-1000,4,2,1,50,0,0
94631,-62.5,4,2,1,50,0,0
94656,-105.263157894737,4,2,1,50,0,0
94681,-125,4,2,1,50,0,0
94731,-142.857142857143,4,2,1,50,0,0
94831,-111.111111111111,4,2,1,50,0,0
95031,-62.5,4,2,1,50,0,0
95056,-105.263157894737,4,2,1,50,0,0
95081,-125,4,2,1,50,0,0
95131,-142.857142857143,4,2,1,50,0,0
95231,-43.4782608695652,4,2,1,50,0,0
95256,-83.3333333333333,4,2,1,50,0,0
95281,-125,4,2,1,50,0,0
95306,-181.818181818182,4,2,1,50,0,0
95431,-10,4,2,1,50,0,0
95441,-1000,4,2,1,50,0,0
95481,-33.3333333333333,4,2,1,50,0,0
95491,-1000,4,2,1,50,0,0
95531,-33.3333333333333,4,2,1,50,0,0
95541,-1000,4,2,1,50,0,0
95581,-33.3333333333333,4,2,1,50,0,0
95591,-1000,4,2,1,50,0,0
95631,-100,4,2,1,50,0,0
96231,-25,4,2,1,50,0,0
96264,-142.857142857143,4,2,1,50,0,0
96631,-25,4,2,1,50,0,0
96664,-142.857142857143,4,2,1,50,0,0
97031,-55.2486187845304,4,2,1,50,0,0
97056,-1000,4,2,1,50,0,0
97081,-53.763440860215,4,2,1,50,0,0
97106,-1000,4,2,1,50,0,0
97131,-52.3560209424084,4,2,1,50,0,0
97156,-1000,4,2,1,50,0,0
97181,-50.761421319797,4,2,1,50,0,0
97206,-1000,4,2,1,50,0,0
97231,-49.0196078431373,4,2,1,50,0,0
97256,-1000,4,2,1,50,0,0
97281,-47.6190476190476,4,2,1,50,0,0
97306,-1000,4,2,1,50,0,0
97331,-47.1698113207547,4,2,1,50,0,0
97356,-1000,4,2,1,50,0,0
97381,-47.1698113207547,4,2,1,50,0,0
97406,-1000,4,2,1,50,0,0
97431,-47.8468899521531,4,2,1,50,0,0
97456,-1000,4,2,1,50,0,0
97481,-49.0196078431373,4,2,1,50,0,0
97506,-1000,4,2,1,50,0,0
97531,-50.761421319797,4,2,1,50,0,0
97556,-1000,4,2,1,50,0,0
97581,-52.6315789473684,4,2,1,50,0,0
97606,-1000,4,2,1,50,0,0
97631,-54.054054054054,4,2,1,50,0,0
97656,-1000,4,2,1,50,0,0
97681,-55.5555555555556,4,2,1,50,0,0
97706,-1000,4,2,1,50,0,0
97731,-57.1428571428571,4,2,1,50,0,0
97756,-1000,4,2,1,50,0,0
97781,-58.4795321637427,4,2,1,50,0,0
97806,-1000,4,2,1,50,0,0
97831,-125,4,2,1,50,0,0
98431,-100,4,2,1,50,0,0
98631,-41.6666666666667,4,2,1,50,0,0
98656,-125,4,2,1,50,0,0
98681,-250,4,2,1,50,0,0
98731,-41.6666666666667,4,2,1,50,0,0
98756,-125,4,2,1,50,0,0
98781,-250,4,2,1,50,0,0
98831,-41.6666666666667,4,2,1,50,0,0
98856,-125,4,2,1,50,0,0
98881,-250,4,2,1,50,0,0
98931,-41.6666666666667,4,2,1,50,0,0
98956,-125,4,2,1,50,0,0
98981,-250,4,2,1,50,0,0
99031,-41.6666666666667,4,2,1,50,0,0
99056,-100,4,2,1,50,0,0
99081,-142.857142857143,4,2,1,50,0,0
99231,-41.6666666666667,4,2,1,50,0,0
99256,-100,4,2,1,50,0,0
99281,-142.857142857143,4,2,1,50,0,0
99431,-14.2857142857143,4,2,1,50,0,0
99464,-142.857142857143,4,2,1,50,0,0
99831,-14.2857142857143,4,2,1,50,0,0
99864,-142.857142857143,4,2,1,50,0,0
100231,-10,4,2,1,50,0,0
100264,-294.117647058824,4,2,1,50,0,0
101031,-105.263157894737,4,2,1,50,0,0
101831,-22.2222222222222,4,2,1,50,0,0
101841,-1000,4,2,1,50,0,0
101881,-105.263157894737,4,2,1,50,0,0
102631,-100,4,2,1,50,0,1
103031,-20.8333333333333,4,2,1,50,0,1
103044,-1000,4,2,1,50,0,1
103098,-30.3030303030303,4,2,1,50,0,1
103111,-1000,4,2,1,50,0,1
103165,-41.6666666666667,4,2,1,50,0,1
103178,-1000,4,2,1,50,0,1
103231,-100,4,2,1,50,0,1
103831,-29.4117647058824,4,2,1,50,0,1
103856,-1000,4,2,1,50,0,1
103931,-29.4117647058824,4,2,1,50,0,1
103956,-1000,4,2,1,50,0,1
104031,-29.4117647058824,4,2,1,50,0,1
104056,-1000,4,2,1,50,0,1
104131,-29.4117647058824,4,2,1,50,0,1
104156,-1000,4,2,1,50,0,1
104231,-100,4,2,1,50,0,1
105031,-55.5555555555556,4,2,1,50,0,1
105081,-100,4,2,1,50,0,1
105131,-142.857142857143,4,2,1,50,0,1
105181,-200,4,2,1,50,0,1
105231,-10.989010989011,4,2,1,50,0,1
105236,-1000,4,2,1,50,0,1
105281,-10.989010989011,4,2,1,50,0,1
105286,-1000,4,2,1,50,0,1
105331,-10.989010989011,4,2,1,50,0,1
105336,-1000,4,2,1,50,0,1
105381,-10.989010989011,4,2,1,50,0,1
105386,-1000,4,2,1,50,0,1
105431,-10.989010989011,4,2,1,50,0,1
105436,-1000,4,2,1,50,0,1
105481,-10.989010989011,4,2,1,50,0,1
105486,-1000,4,2,1,50,0,1
105531,-10.989010989011,4,2,1,50,0,1
105536,-1000,4,2,1,50,0,1
105581,-10.989010989011,4,2,1,50,0,1
105586,-1000,4,2,1,50,0,1
105631,-20,4,2,1,50,0,1
105656,-166.666666666667,4,2,1,50,0,1
105831,-100,4,2,1,50,0,1
106231,-21.7391304347826,4,2,1,50,0,1
106241,-1000,4,2,1,50,0,1
106281,-21.7391304347826,4,2,1,50,0,1
106291,-1000,4,2,1,50,0,1
106331,-21.7391304347826,4,2,1,50,0,1
106341,-1000,4,2,1,50,0,1
106381,-21.7391304347826,4,2,1,50,0,1
106391,-1000,4,2,1,50,0,1
106431,-45.4545454545455,4,2,1,50,0,1
106456,-100,4,2,1,50,0,1
106481,-250,4,2,1,50,0,1
106531,-45.4545454545455,4,2,1,50,0,1
106556,-100,4,2,1,50,0,1
106581,-250,4,2,1,50,0,1
106631,-50,4,2,1,50,0,1
106656,-83.3333333333333,4,2,1,50,0,1
106681,-125,4,2,1,50,0,1
106831,-50,4,2,1,50,0,1
106856,-83.3333333333333,4,2,1,50,0,1
106881,-125,4,2,1,50,0,1
107031,-21.7391304347826,4,2,1,50,0,1
107041,-1000,4,2,1,50,0,1
107081,-21.7391304347826,4,2,1,50,0,1
107091,-1000,4,2,1,50,0,1
107131,-21.7391304347826,4,2,1,50,0,1
107141,-1000,4,2,1,50,0,1
107181,-21.7391304347826,4,2,1,50,0,1
107191,-1000,4,2,1,50,0,1
107231,-55.5555555555556,4,2,1,50,0,1
107281,-100,4,2,1,50,0,1
107331,-166.666666666667,4,2,1,50,0,1
107431,-100,4,2,1,50,0,1
107631,-41.6666666666667,4,2,1,50,0,1
107656,-125,4,2,1,50,0,1
107681,-250,4,2,1,50,0,1
107731,-41.6666666666667,4,2,1,50,0,1
107756,-125,4,2,1,50,0,1
107781,-250,4,2,1,50,0,1
107831,-41.6666666666667,4,2,1,50,0,1
107856,-125,4,2,1,50,0,1
107881,-250,4,2,1,50,0,1
107931,-100,4,2,1,50,0,1
108131,-41.6666666666667,4,2,1,50,0,1
108156,-125,4,2,1,50,0,1
108181,-250,4,2,1,50,0,1
108231,-100,4,2,1,50,0,1
108331,-142.857142857143,4,2,1,50,0,1
108381,-100,4,2,1,50,0,1
108406,-62.5,4,2,1,50,0,1
108431,-52.6315789473684,4,2,1,50,0,1
108456,-111.111111111111,4,2,1,50,0,1
108481,-166.666666666667,4,2,1,50,0,1
108506,-250.000000000001,4,2,1,50,0,1
108531,-333.333333333333,4,2,1,50,0,1
108581,-142.857142857143,4,2,1,50,0,1
108606,-37.037037037037,4,2,1,50,0,1
108631,-41.6666666666667,4,2,1,50,0,1
108656,-100,4,2,1,50,0,1
108681,-166.666666666667,4,2,1,50,0,1
108781,-111.111111111111,4,2,1,50,0,1
108806,-71.4285714285714,4,2,1,50,0,1
108831,-100,4,2,1,50,0,1
109431,-21.7391304347826,4,2,1,50,0,1
109441,-1000,4,2,1,50,0,1
109481,-21.7391304347826,4,2,1,50,0,1
109491,-1000,4,2,1,50,0,1
109531,-100,4,2,1,50,0,1
109831,-28.5714285714286,4,2,1,50,0,1
109856,-66.6666666666667,4,2,1,50,0,1
109881,-117.647058823529,4,2,1,50,0,1
110231,-21.7391304347826,4,2,1,50,0,1
110241,-1000,4,2,1,50,0,1
110281,-21.7391304347826,4,2,1,50,0,1
110291,-1000,4,2,1,50,0,1
110331,-21.7391304347826,4,2,1,50,0,1
110341,-1000,4,2,1,50,0,1
110381,-21.7391304347826,4,2,1,50,0,1
110391,-1000,4,2,1,50,0,1
110431,-29.4117647058824,4,2,1,50,0,1
110444,-1000,4,2,1,50,0,1
110498,-29.4117647058824,4,2,1,50,0,1
110511,-1000,4,2,1,50,0,1
110565,-29.4117647058824,4,2,1,50,0,1
110578,-1000,4,2,1,50,0,1
110631,-100,4,2,1,50,0,1
110831,-29.4117647058824,4,2,1,50,0,1
110856,-500,4,2,1,50,0,1
110931,-29.4117647058824,4,2,1,50,0,1
110956,-500,4,2,1,50,0,1
111031,-100,4,2,1,50,0,1
111231,-29.4117647058824,4,2,1,50,0,1
111243,-500,4,2,1,50,0,1
111281,-29.4117647058824,4,2,1,50,0,1
111293,-500,4,2,1,50,0,1
111331,-29.4117647058824,4,2,1,50,0,1
111343,-500,4,2,1,50,0,1
111381,-29.4117647058824,4,2,1,50,0,1
111393,-500,4,2,1,50,0,1
111431,-100,4,2,1,50,0,1
111831,-35.7142857142857,4,2,1,50,0,1
111856,-250,4,2,1,50,0,1
111931,-35.7142857142857,4,2,1,50,0,1
111956,-250,4,2,1,50,0,1
112031,-35.7142857142857,4,2,1,50,0,1
112056,-250,4,2,1,50,0,1
112131,-35.7142857142857,4,2,1,50,0,1
112156,-250,4,2,1,50,0,1
112231,-100,4,2,1,50,0,1
112631,-50,4,2,1,50,0,1
112656,-125,4,2,1,50,0,1
112731,-35.7142857142857,4,2,1,50,0,1
112756,-250,4,2,1,50,0,1
112831,-22.2222222222222,4,2,1,50,0,1
112844,-1000,4,2,1,50,0,1
112881,-33.3333333333333,4,2,1,50,0,1
112894,-1000,4,2,1,50,0,1
112931,-33.3333333333333,4,2,1,50,0,1
112944,-1000,4,2,1,50,0,1
112981,-33.3333333333333,4,2,1,50,0,1
112994,-1000,4,2,1,50,0,1
113031,-35.7142857142857,4,2,1,50,0,1
113056,-250,4,2,1,50,0,1
113131,-35.7142857142857,4,2,1,50,0,1
113156,-250,4,2,1,50,0,1
113231,-35.7142857142857,4,2,1,50,0,1
113256,-250,4,2,1,50,0,1
113331,-35.7142857142857,4,2,1,50,0,1
113356,-250,4,2,1,50,0,1
113431,-35.7142857142857,4,2,1,50,0,1
113456,-250,4,2,1,50,0,1
113531,-35.7142857142857,4,2,1,50,0,1
113556,-250,4,2,1,50,0,1
113631,-35.7142857142857,4,2,1,50,0,1
113656,-250,4,2,1,50,0,1
113731,-35.7142857142857,4,2,1,50,0,1
113756,-250,4,2,1,50,0,1
113831,-100,4,2,1,50,0,1
114031,-35.7142857142857,4,2,1,50,0,1
114056,-250,4,2,1,50,0,1
114131,-35.7142857142857,4,2,1,50,0,1
114156,-250,4,2,1,50,0,1
114231,-25.6410256410256,4,2,1,50,0,1
114256,-1000,4,2,1,50,0,1
114331,-25.6410256410256,4,2,1,50,0,1
114356,-1000,4,2,1,50,0,1
114431,-25.6410256410256,4,2,1,50,0,1
114456,-1000,4,2,1,50,0,1
114531,-25.6410256410256,4,2,1,50,0,1
114556,-1000,4,2,1,50,0,1
114631,-25.6410256410256,4,2,1,50,0,1
114656,-1000,4,2,1,50,0,1
114731,-25.6410256410256,4,2,1,50,0,1
114756,-1000,4,2,1,50,0,1
114831,-10,4,2,1,50,0,1
114842,-1000,4,2,1,50,0,1
114897,-35.7142857142857,4,2,1,50,0,1
114908,-1000,4,2,1,50,0,1
114964,-35.7142857142857,4,2,1,50,0,1
114975,-1000,4,2,1,50,0,1
115030,-35.7142857142857,4,2,1,50,0,1
115041,-1000,4,2,1,50,0,1
115097,-35.7142857142857,4,2,1,50,0,1
115108,-1000,4,2,1,50,0,1
115163,-35.7142857142857,4,2,1,50,0,1
115174,-1000,4,2,1,50,0,1
115231,-35.7142857142857,4,2,1,50,0,1
115242,-1000,4,2,1,50,0,1
115297,-35.7142857142857,4,2,1,50,0,1
115308,-1000,4,2,1,50,0,1
115364,-35.7142857142857,4,2,1,50,0,1
115375,-1000,4,2,1,50,0,1
115431,-100,4,2,1,50,0,1
115831,-20.8333333333333,4,2,1,50,0,1
115844,-1000,4,2,1,50,0,1
115898,-30.3030303030303,4,2,1,50,0,1
115911,-1000,4,2,1,50,0,1
115965,-41.6666666666667,4,2,1,50,0,1
115978,-1000,4,2,1,50,0,1
116031,-100,4,2,1,50,0,1
116631,-29.4117647058824,4,2,1,50,0,1
116656,-1000,4,2,1,50,0,1
116731,-29.4117647058824,4,2,1,50,0,1
116756,-1000,4,2,1,50,0,1
116831,-29.4117647058824,4,2,1,50,0,1
116856,-1000,4,2,1,50,0,1
116931,-29.4117647058824,4,2,1,50,0,1
116956,-1000,4,2,1,50,0,1
117031,-100,4,2,1,50,0,1
117831,-55.5555555555556,4,2,1,50,0,1
117881,-100,4,2,1,50,0,1
117931,-142.857142857143,4,2,1,50,0,1
117981,-200,4,2,1,50,0,1
118031,-55.5555555555556,4,2,1,50,0,1
118081,-100,4,2,1,50,0,1
118131,-142.857142857143,4,2,1,50,0,1
118181,-200,4,2,1,50,0,1
118231,-10.989010989011,4,2,1,50,0,1
118236,-1000,4,2,1,50,0,1
118281,-10.989010989011,4,2,1,50,0,1
118286,-1000,4,2,1,50,0,1
118331,-10.989010989011,4,2,1,50,0,1
118336,-1000,4,2,1,50,0,1
118381,-10.989010989011,4,2,1,50,0,1
118386,-1000,4,2,1,50,0,1
118431,-20,4,2,1,50,0,1
118456,-166.666666666667,4,2,1,50,0,1
118631,-100,4,2,1,50,0,1
119031,-21.7391304347826,4,2,1,50,0,1
119041,-1000,4,2,1,50,0,1
119081,-21.7391304347826,4,2,1,50,0,1
119091,-1000,4,2,1,50,0,1
119131,-21.7391304347826,4,2,1,50,0,1
119141,-1000,4,2,1,50,0,1
119181,-21.7391304347826,4,2,1,50,0,1
119191,-1000,4,2,1,50,0,1
119231,-45.4545454545455,4,2,1,50,0,1
119256,-100,4,2,1,50,0,1
119281,-250,4,2,1,50,0,1
119331,-45.4545454545455,4,2,1,50,0,1
119356,-100,4,2,1,50,0,1
119381,-250,4,2,1,50,0,1
119431,-50,4,2,1,50,0,1
119456,-83.3333333333333,4,2,1,50,0,1
119481,-125,4,2,1,50,0,1
119631,-50,4,2,1,50,0,1
119656,-83.3333333333333,4,2,1,50,0,1
119681,-125,4,2,1,50,0,1
119831,-21.7391304347826,4,2,1,50,0,1
119841,-1000,4,2,1,50,0,1
119881,-21.7391304347826,4,2,1,50,0,1
119891,-1000,4,2,1,50,0,1
119931,-21.7391304347826,4,2,1,50,0,1
119941,-1000,4,2,1,50,0,1
119981,-21.7391304347826,4,2,1,50,0,1
119991,-1000,4,2,1,50,0,1
120031,-55.5555555555556,4,2,1,50,0,1
120081,-100,4,2,1,50,0,1
120131,-166.666666666667,4,2,1,50,0,1
120231,-100,4,2,1,50,0,1
120431,-41.6666666666667,4,2,1,50,0,1
120456,-125,4,2,1,50,0,1
120481,-250,4,2,1,50,0,1
120531,-41.6666666666667,4,2,1,50,0,1
120556,-125,4,2,1,50,0,1
120581,-250,4,2,1,50,0,1
120631,-41.6666666666667,4,2,1,50,0,1
120656,-125,4,2,1,50,0,1
120681,-250,4,2,1,50,0,1
120731,-100,4,2,1,50,0,1
120931,-41.6666666666667,4,2,1,50,0,1
120956,-125,4,2,1,50,0,1
120981,-250,4,2,1,50,0,1
121031,-100,4,2,1,50,0,1
121131,-142.857142857143,4,2,1,50,0,1
121181,-100,4,2,1,50,0,1
121206,-62.5,4,2,1,50,0,1
121231,-52.6315789473684,4,2,1,50,0,1
121256,-111.111111111111,4,2,1,50,0,1
121281,-166.666666666667,4,2,1,50,0,1
121306,-250.000000000001,4,2,1,50,0,1
121331,-333.333333333333,4,2,1,50,0,1
121381,-142.857142857143,4,2,1,50,0,1
121406,-37.037037037037,4,2,1,50,0,1
121431,-41.6666666666667,4,2,1,50,0,1
121456,-100,4,2,1,50,0,1
121481,-166.666666666667,4,2,1,50,0,1
121581,-111.111111111111,4,2,1,50,0,1
121606,-71.4285714285714,4,2,1,50,0,1
121631,-100,4,2,1,50,0,1
122231,-21.7391304347826,4,2,1,50,0,1
122241,-1000,4,2,1,50,0,1
122281,-21.7391304347826,4,2,1,50,0,1
122291,-1000,4,2,1,50,0,1
122331,-100,4,2,1,50,0,1
122631,-28.5714285714286,4,2,1,50,0,1
122656,-66.6666666666667,4,2,1,50,0,1
122681,-117.647058823529,4,2,1,50,0,1
123031,-21.7391304347826,4,2,1,50,0,1
123041,-1000,4,2,1,50,0,1
123081,-21.7391304347826,4,2,1,50,0,1
123091,-1000,4,2,1,50,0,1
123131,-21.7391304347826,4,2,1,50,0,1
123141,-1000,4,2,1,50,0,1
123181,-21.7391304347826,4,2,1,50,0,1
123191,-1000,4,2,1,50,0,1
123231,-29.4117647058824,4,2,1,50,0,1
123244,-1000,4,2,1,50,0,1
123298,-29.4117647058824,4,2,1,50,0,1
123311,-1000,4,2,1,50,0,1
123365,-29.4117647058824,4,2,1,50,0,1
123378,-1000,4,2,1,50,0,1
123431,-100,4,2,1,50,0,1
123631,-29.4117647058824,4,2,1,50,0,1
123656,-500,4,2,1,50,0,1
123731,-29.4117647058824,4,2,1,50,0,1
123756,-500,4,2,1,50,0,1
123831,-100,4,2,1,50,0,1
124031,-29.4117647058824,4,2,1,50,0,1
124043,-500,4,2,1,50,0,1
124081,-29.4117647058824,4,2,1,50,0,1
124093,-500,4,2,1,50,0,1
124131,-29.4117647058824,4,2,1,50,0,1
124143,-500,4,2,1,50,0,1
124181,-29.4117647058824,4,2,1,50,0,1
124193,-500,4,2,1,50,0,1
124231,-100,4,2,1,50,0,1
124631,-35.7142857142857,4,2,1,50,0,1
124656,-250,4,2,1,50,0,1
124731,-35.7142857142857,4,2,1,50,0,1
124756,-250,4,2,1,50,0,1
124831,-35.7142857142857,4,2,1,50,0,1
124856,-250,4,2,1,50,0,1
124931,-35.7142857142857,4,2,1,50,0,1
124956,-250,4,2,1,50,0,1
125031,-100,4,2,1,50,0,1
125431,-50,4,2,1,50,0,1
125456,-125,4,2,1,50,0,1
125531,-35.7142857142857,4,2,1,50,0,1
125556,-250,4,2,1,50,0,1
125631,-22.2222222222222,4,2,1,50,0,1
125644,-1000,4,2,1,50,0,1
125681,-33.3333333333333,4,2,1,50,0,1
125694,-1000,4,2,1,50,0,1
125731,-33.3333333333333,4,2,1,50,0,1
125744,-1000,4,2,1,50,0,1
125781,-33.3333333333333,4,2,1,50,0,1
125794,-1000,4,2,1,50,0,1
125831,-35.7142857142857,4,2,1,50,0,1
125856,-250,4,2,1,50,0,1
125931,-35.7142857142857,4,2,1,50,0,1
125956,-250,4,2,1,50,0,1
126031,-35.7142857142857,4,2,1,50,0,1
126056,-250,4,2,1,50,0,1
126131,-35.7142857142857,4,2,1,50,0,1
126156,-250,4,2,1,50,0,1
126231,-35.7142857142857,4,2,1,50,0,1
126256,-250,4,2,1,50,0,1
126331,-35.7142857142857,4,2,1,50,0,1
126356,-250,4,2,1,50,0,1
126431,-35.7142857142857,4,2,1,50,0,1
126456,-250,4,2,1,50,0,1
126531,-35.7142857142857,4,2,1,50,0,1
126556,-250,4,2,1,50,0,1
126631,-100,4,2,1,50,0,1
126831,-35.7142857142857,4,2,1,50,0,1
126856,-250,4,2,1,50,0,1
126931,-35.7142857142857,4,2,1,50,0,1
126956,-250,4,2,1,50,0,1
127031,-25.6410256410256,4,2,1,50,0,1
127056,-1000,4,2,1,50,0,1
127131,-25.6410256410256,4,2,1,50,0,1
127156,-1000,4,2,1,50,0,1
127231,-25.6410256410256,4,2,1,50,0,1
127256,-1000,4,2,1,50,0,1
127331,-25.6410256410256,4,2,1,50,0,1
127356,-1000,4,2,1,50,0,1
127431,-25.6410256410256,4,2,1,50,0,1
127456,-1000,4,2,1,50,0,1
127531,-25.6410256410256,4,2,1,50,0,1
127556,-1000,4,2,1,50,0,1
127631,-10,4,2,1,50,0,1
127642,-1000,4,2,1,50,0,1
127697,-35.7142857142857,4,2,1,50,0,1
127708,-1000,4,2,1,50,0,1
127764,-35.7142857142857,4,2,1,50,0,1
127775,-1000,4,2,1,50,0,1
127830,-35.7142857142857,4,2,1,50,0,1
127841,-1000,4,2,1,50,0,1
127897,-35.7142857142857,4,2,1,50,0,1
127908,-1000,4,2,1,50,0,1
127963,-35.7142857142857,4,2,1,50,0,1
127974,-1000,4,2,1,50,0,1
128031,-35.7142857142857,4,2,1,50,0,1
128042,-1000,4,2,1,50,0,1
128097,-35.7142857142857,4,2,1,50,0,1
128108,-500,4,2,1,50,0,1
128181,-83.3333333333333,4,2,1,50,0,1
128206,-50,4,2,1,50,0,1
128231,-14.0845070422535,4,2,1,50,0,0
128236,-1000,4,2,1,50,0,0
128281,-125,4,2,1,50,0,0
128331,-125,4,2,3,50,0,0
139431,-131.578947368421,4,2,3,50,0,0
139831,-136.986301369863,4,2,3,50,0,0
140231,-142.857142857143,4,2,3,50,0,0
140631,-147.058823529412,4,2,3,50,0,0
140731,-151.515151515152,4,2,3,50,0,0
140831,-156.25,4,2,3,50,0,0
140881,-166.666666666667,4,2,3,50,0,0
140931,-181.818181818182,4,2,3,50,0,0
140982,-200,4,2,3,50,0,0
141031,-222.222222222222,4,2,3,50,0,0

[HitObjects]
448,192,231,5,0,0:0:0:0:
448,192,431,1,0,0:0:0:0:
448,192,631,1,0,0:0:0:0:
448,192,831,1,0,0:0:0:0:
448,192,1031,1,0,0:0:0:0:
448,192,1231,1,0,0:0:0:0:
448,192,1431,1,0,0:0:0:0:
448,192,1631,1,0,0:0:0:0:
192,192,1831,1,0,0:0:0:0:
192,192,2031,1,0,0:0:0:0:
192,192,2231,1,0,0:0:0:0:
192,192,2431,1,0,0:0:0:0:
192,192,2631,1,0,0:0:0:0:
192,192,2831,1,0,0:0:0:0:
192,192,3031,1,0,0:0:0:0:
192,192,3231,1,0,0:0:0:0:
64,192,3431,1,0,0:0:0:0:
64,192,3631,1,0,0:0:0:0:
64,192,3831,1,0,0:0:0:0:
64,192,4031,1,0,0:0:0:0:
64,192,4231,1,0,0:0:0:0:
64,192,4431,1,0,0:0:0:0:
64,192,4631,1,0,0:0:0:0:
64,192,4831,1,0,0:0:0:0:
320,192,5031,1,0,0:0:0:0:
320,192,5231,1,0,0:0:0:0:
320,192,5431,1,0,0:0:0:0:
320,192,5631,1,0,0:0:0:0:
320,192,5831,1,0,0:0:0:0:
192,192,6031,1,0,0:0:0:0:
192,192,6231,1,0,0:0:0:0:
448,192,6231,128,0,6631:0:0:0:0:
64,192,6631,1,0,0:0:0:0:
64,192,6831,1,0,0:0:0:0:
64,192,7031,1,0,0:0:0:0:
64,192,7231,1,0,0:0:0:0:
64,192,7431,1,0,0:0:0:0:
64,192,7631,1,0,0:0:0:0:
64,192,7831,1,0,0:0:0:0:
64,192,8031,1,0,0:0:0:0:
192,192,8231,1,0,0:0:0:0:
192,192,8431,1,0,0:0:0:0:
192,192,8631,1,0,0:0:0:0:
192,192,8831,1,0,0:0:0:0:
448,192,9031,1,0,0:0:0:0:
448,192,9231,1,0,0:0:0:0:
448,192,9431,1,0,0:0:0:0:
448,192,9631,1,0,0:0:0:0:
320,192,9831,1,0,0:0:0:0:
320,192,10031,1,0,0:0:0:0:
320,192,10231,1,0,0:0:0:0:
320,192,10431,1,0,0:0:0:0:
320,192,10631,1,0,0:0:0:0:
320,192,10831,1,0,0:0:0:0:
320,192,11031,1,0,0:0:0:0:
320,192,11231,1,0,0:0:0:0:
64,192,11431,1,0,0:0:0:0:
64,192,11631,1,0,0:0:0:0:
64,192,11831,1,0,0:0:0:0:
64,192,12031,1,0,0:0:0:0:
64,192,12231,1,0,0:0:0:0:
320,192,12231,1,0,0:0:0:0:
64,192,12431,1,0,0:0:0:0:
448,192,12431,1,0,0:0:0:0:
64,192,12631,1,0,0:0:0:0:
448,192,12631,1,0,0:0:0:0:
64,192,12831,1,0,0:0:0:0:
320,192,12831,1,0,0:0:0:0:
64,192,13031,128,2,13131:0:0:0:0:
320,192,13031,1,4,0:0:0:0:
448,192,13031,1,0,0:0:0:0:
192,192,13131,128,0,13331:0:0:0:0:
64,192,13231,128,0,13331:0:0:0:0:
448,192,13231,1,0,0:0:0:0:
320,192,13331,128,0,13431:0:0:0:0:
192,192,13431,1,0,0:0:0:0:
448,192,13431,128,0,13831:0:0:0:0:
192,192,13631,1,0,0:0:0:0:
320,192,13631,128,0,13831:0:0:0:0:
64,192,13831,1,0,0:0:0:0:
192,192,13831,128,0,14231:0:0:0:0:
64,192,14031,128,0,14231:0:0:0:0:
448,192,14031,1,0,0:0:0:0:
320,192,14231,128,0,14431:0:0:0:0:
448,192,14231,1,0,0:0:0:0:
64,192,14431,1,0,0:0:0:0:
192,192,14431,128,0,15031:0:0:0:0:
64,192,14631,1,8,0:0:0:0:
320,192,14631,1,0,0:0:0:0:
448,192,14631,1,0,0:0:0:0:
448,192,14831,1,0,0:0:0:0:
64,192,15031,1,0,0:0:0:0:
448,192,15031,128,0,15431:0:0:0:0:
192,192,15231,128,0,15431:0:0:0:0:
320,192,15231,1,0,0:0:0:0:
64,192,15431,1,0,0:0:0:0:
320,192,15431,128,0,15631:0:0:0:0:
64,192,15631,128,0,16031:0:0:0:0:
192,192,15631,1,0,0:0:0:0:
320,192,15831,1,0,0:0:0:0:
448,192,15831,128,0,16031:0:0:0:0:
192,192,16031,1,0,0:0:0:0:
320,192,16031,128,0,16231:0:0:0:0:
64,192,16231,128,2,17031:0:0:0:0:
192,192,16231,1,0,0:0:0:0:
448,192,16231,1,0,0:0:0:0:
448,192,16431,1,0,0:0:0:0:
192,192,16631,128,0,17031:0:0:0:0:
320,192,16631,1,0,0:0:0:0:
320,192,16831,1,0,0:0:0:0:
320,192,17031,1,0,0:0:0:0:
448,192,17031,128,0,17431:0:0:0:0:
64,192,17231,1,0,0:0:0:0:
64,192,17431,1,0,0:0:0:0:
320,192,17431,128,0,17831:0:0:0:0:
192,192,17631,1,0,0:0:0:0:
448,192,17631,128,0,18031:0:0:0:0:
64,192,17831,1,8,0:0:0:0:
192,192,17831,1,0,0:0:0:0:
64,192,18031,128,0,18131:0:0:0:0:
192,192,18031,1,0,0:0:0:0:
320,192,18131,128,0,18331:0:0:0:0:
64,192,18231,1,0,0:0:0:0:
448,192,18231,128,0,18331:0:0:0:0:
192,192,18331,128,0,18531:0:0:0:0:
64,192,18431,128,0,18531:0:0:0:0:
448,192,18431,1,0,0:0:0:0:
320,192,18531,128,0,18631:0:0:0:0:
192,192,18631,1,0,0:0:0:0:
448,192,18631,128,0,19231:0:0:0:0:
64,192,18831,1,0,0:0:0:0:
320,192,18831,128,0,19031:0:0:0:0:
64,192,19031,128,0,19631:0:0:0:0:
192,192,19031,1,0,0:0:0:0:
192,192,19231,128,0,19431:0:0:0:0:
320,192,19231,1,0,0:0:0:0:
320,192,19431,1,2,0:0:0:0:
448,192,19431,1,0,0:0:0:0:
448,192,19631,1,0,0:0:0:0:
64,192,19831,1,0,0:0:0:0:
448,192,19831,128,0,20031:0:0:0:0:
320,192,19931,128,0,20031:0:0:0:0:
64,192,20031,1,0,0:0:0:0:
192,192,20031,128,0,20231:0:0:0:0:
64,192,20231,128,0,20631:0:0:0:0:
448,192,20231,1,0,0:0:0:0:
320,192,20431,128,0,20631:0:0:0:0:
448,192,20431,1,0,0:0:0:0:
192,192,20631,1,0,0:0:0:0:
448,192,20631,128,0,20831:0:0:0:0:
64,192,20831,1,0,0:0:0:0:
192,192,20831,128,0,21231:0:0:0:0:
64,192,21031,1,8,0:0:0:0:
320,192,21031,1,0,0:0:0:0:
448,192,21031,1,0,0:0:0:0:
64,192,21231,128,0,21331:0:0:0:0:
448,192,21231,1,0,0:0:0:0:
320,192,21331,128,0,21531:0:0:0:0:
64,192,21431,1,0,0:0:0:0:
448,192,21431,128,0,21531:0:0:0:0:
192,192,21531,128,0,21731:0:0:0:0:
320,192,21631,128,0,21731:0:0:0:0:
448,192,21631,1,0,0:0:0:0:
64,192,21731,128,0,21831:0:0:0:0:
192,192,21831,1,0,0:0:0:0:
448,192,21831,128,0,22231:0:0:0:0:
192,192,22031,1,0,0:0:0:0:
64,192,22231,1,0,0:0:0:0:
320,192,22231,128,0,22631:0:0:0:0:
64,192,22431,1,0,0:0:0:0:
64,192,22631,1,2,0:0:0:0:
192,192,22631,128,0,23031:0:0:0:0:
448,192,22631,1,0,0:0:0:0:
448,192,22831,1,0,0:0:0:0:
64,192,23031,128,0,23431:0:0:0:0:
320,192,23031,1,0,0:0:0:0:
320,192,23231,1,0,0:0:0:0:
192,192,23431,1,0,0:0:0:0:
448,192,23431,128,0,23631:0:0:0:0:
192,192,23631,1,0,0:0:0:0:
320,192,23631,128,0,23831:0:0:0:0:
64,192,23831,128,0,24031:0:0:0:0:
448,192,23831,1,0,0:0:0:0:
192,192,24031,128,0,24231:0:0:0:0:
448,192,24031,1,0,0:0:0:0:
64,192,24231,1,8,0:0:0:0:
320,192,24231,128,0,24331:0:0:0:0:
448,192,24231,1,0,0:0:0:0:
192,192,24331,128,0,24531:0:0:0:0:
64,192,24431,128,0,24531:0:0:0:0:
448,192,24531,128,0,24631:0:0:0:0:
64,192,24631,1,2,0:0:0:0:
192,192,24631,128,0,24731:0:0:0:0:
320,192,24631,1,0,0:0:0:0:
448,192,24731,128,0,24931:0:0:0:0:
320,192,24831,128,0,24931:0:0:0:0:
192,192,24931,128,0,25031:0:0:0:0:
64,192,25031,1,2,0:0:0:0:
320,192,25031,1,0,0:0:0:0:
448,192,25031,1,0,0:0:0:0:
64,192,25231,1,2,0:0:0:0:
320,192,25231,1,0,0:0:0:0:
448,192,25231,1,0,0:0:0:0:
64,192,25431,1,8,0:0:0:0:
192,192,25431,1,0,0:0:0:0:
320,192,25431,1,0,0:0:0:0:
448,192,25481,1,8,0:0:0:0:
64,192,25531,1,8,0:0:0:0:
192,192,25531,1,0,0:0:0:0:
448,192,25581,1,8,0:0:0:0:
192,192,25631,1,8,0:0:0:0:
320,192,25631,1,0,0:0:0:0:
64,192,25731,1,8,0:0:0:0:
320,192,25731,1,0,0:0:0:0:
64,192,25831,1,8,0:0:0:0:
192,192,25831,1,0,0:0:0:70:LR_Clap Reverb.wav
448,192,25831,1,0,0:0:0:0:
448,192,26031,1,0,0:0:0:0:
64,192,26231,1,8,0:0:0:0:
192,192,26231,1,0,0:0:0:70:LR_Clap Reverb.wav
320,192,26231,1,0,0:0:0:0:
320,192,26431,1,0,0:0:0:0:
64,192,26631,1,8,0:0:0:0:
192,192,26631,1,0,0:0:0:70:LR_Clap Reverb.wav
448,192,26631,1,0,0:0:0:0:
320,192,26831,1,0,0:0:0:0:
64,192,26931,1,0,0:0:0:70:LR_Clap Reverb.wav
320,192,26931,1,0,0:0:0:0:
64,192,27031,1,8,0:0:0:0:
192,192,27031,1,0,0:0:0:0:
448,192,27031,1,0,0:0:0:0:
64,192,27231,1,0,0:0:0:70:LR_Clap Reverb.wav
320,192,27231,1,0,0:0:0:0:
448,192,27231,1,0,0:0:0:0:
64,192,27431,1,8,0:0:0:0:
192,192,27431,1,0,0:0:0:70:LR_Clap Reverb.wav
448,192,27431,1,0,0:0:0:0:
64,192,27631,1,0,0:0:0:0:
192,192,27831,1,8,0:0:0:0:
320,192,27831,1,0,0:0:0:70:LR_Clap Reverb.wav
448,192,27831,1,0,0:0:0:0:
192,192,28031,1,0,0:0:0:0:
64,192,28231,1,8,0:0:0:0:
320,192,28231,1,0,0:0:0:70:LR_Clap Reverb.wav
448,192,28231,1,0,0:0:0:0:
192,192,28431,1,0,0:0:0:0:
192,192,28531,1,0,0:0:0:70:LR_Clap Reverb.wav
448,192,28531,1,0,0:0:0:0:
64,192,28631,1,8,0:0:0:0:
320,192,28631,1,0,0:0:0:0:
448,192,28631,1,0,0:0:0:0:
192,192,28731,1,0,0:0:0:70:LR_Clap Reverb.wav
448,192,28731,1,0,0:0:0:0:
64,192,28831,1,8,0:0:0:0:
192,192,28831,1,0,0:0:0:0:
320,192,28831,1,0,0:0:0:0:
64,192,29031,1,8,0:0:0:0:
192,192,29031,1,0,0:0:0:70:LR_Clap Reverb.wav
448,192,29031,1,0,0:0:0:0:
64,192,29231,1,0,0:0:0:0:
192,192,29431,1,8,0:0:0:0:
320,192,29431,1,0,0:0:0:70:LR_Clap Reverb.wav
448,192,29431,1,0,0:0:0:0:
192,192,29631,1,0,0:0:0:0:
64,192,29831,1,8,0:0:0:0:
320,192,29831,1,0,0:0:0:70:LR_Clap Reverb.wav
448,192,29831,1,0,0:0:0:0:
192,192,30031,1,0,0:0:0:0:
192,192,30131,1,0,0:0:0:70:LR_Clap Reverb.wav
448,192,30131,1,0,0:0:0:0:
64,192,30231,1,8,0:0:0:0:
320,192,30231,1,0,0:0:0:0:
448,192,30231,1,0,0:0:0:0:
64,192,30431,1,0,0:0:0:70:LR_Clap Reverb.wav
192,192,30431,1,0,0:0:0:0:
448,192,30431,1,0,0:0:0:0:
64,192,30631,1,8,0:0:0:0:
320,192,30631,1,0,0:0:0:70:LR_Clap Reverb.wav
448,192,30631,1,0,0:0:0:0:
192,192,30831,1,0,0:0:0:0:
64,192,31031,1,8,0:0:0:0:
192,192,31031,1,0,0:0:0:70:LR_Clap Reverb.wav
448,192,31031,1,0,0:0:0:0:
64,192,31231,1,8,0:0:0:0:
448,192,31231,1,0,0:0:0:0:
64,192,31431,1,8,0:0:0:0:
192,192,31431,1,0,0:0:0:70:LR_Clap Reverb.wav
448,192,31431,1,0,0:0:0:0:
64,192,31531,1,8,0:0:0:0:
320,192,31531,1,0,0:0:0:0:
64,192,31731,1,8,0:0:0:0:
320,192,31731,1,0,0:0:0:0:
64,192,31831,1,8,0:0:0:0:
192,192,31831,1,0,0:0:0:55:LR3_Snare FCSRL.wav
320,192,31831,1,0,0:0:0:0:
448,192,31831,1,0,0:0:0:0:
64,192,32231,1,8,0:0:0:0:
192,192,32231,1,4,0:0:0:0:
448,192,32231,1,0,0:0:0:70:LR_Clap Reverb.wav
64,192,32431,1,8,0:0:0:0:
192,192,32431,1,0,0:0:0:0:
64,192,32631,1,8,0:0:0:0:
192,192,32631,1,0,0:0:0:70:LR_Clap Reverb.wav
448,192,32631,1,0,0:0:0:0:
64,192,32831,1,8,0:0:0:0:
192,192,32831,1,0,0:0:0:0:
64,192,33031,1,8,0:0:0:0:
192,192,33031,1,0,0:0:0:70:LR_Clap Reverb.wav
448,192,33031,1,0,0:0:0:0:
64,192,33231,1,2,0:0:0:0:
192,192,33231,1,4,0:0:0:0:
64,192,33331,128,0,33431:0:0:0:0:
192,192,33331,128,0,33431:0:0:0:0:
320,192,33431,1,0,0:0:0:0:
448,192,33431,1,0,0:0:0:0:
192,192,33531,128,0,33631:0:0:0:0:
448,192,33531,128,0,33631:0:0:0:0:
64,192,33631,1,0,0:0:0:0:
320,192,33631,1,0,0:0:0:0:
64,192,33731,128,0,33831:0:0:0:0:
320,192,33731,128,0,33831:0:0:0:0:
192,192,33831,1,12,0:0:0:0:
448,192,33831,1,0,0:0:0:70:LR_Clap Reverb.wav
320,192,34031,1,8,0:0:0:0:
448,192,34031,1,0,0:0:0:0:
192,192,34231,1,8,0:0:0:0:
320,192,34231,1,0,0:0:0:70:LR_Clap Reverb.wav
448,192,34231,1,0,0:0:0:0:
320,192,34431,1,8,0:0:0:0:
448,192,34431,1,0,0:0:0:0:
192,192,34631,1,8,0:0:0:0:
320,192,34631,1,0,0:0:0:70:LR_Clap Reverb.wav
448,192,34631,1,0,0:0:0:0:
320,192,34731,1,8,0:0:0:0:
448,192,34731,1,0,0:0:0:0:
64,192,34831,1,8,0:0:0:0:
192,192,34831,1,0,0:0:0:0:
192,192,34931,1,8,0:0:0:0:
320,192,34931,1,0,0:0:0:70:LR_Clap Reverb.wav
64,192,35031,1,4,0:0:0:0:
320,192,35031,128,2,35431:0:0:0:0:
448,192,35031,128,0,35431:0:0:0:0:
64,192,35431,1,12,0:0:0:0:
192,192,35431,1,0,0:0:0:70:LR_Clap Reverb.wav
64,192,35531,1,8,0:0:0:0:
448,192,35531,1,0,0:0:0:0:
192,192,35631,1,8,0:0:0:0:
320,192,35631,1,0,0:0:0:0:
320,192,35731,1,8,0:0:0:0:
448,192,35731,1,0,0:0:0:0:
64,192,35831,1,8,0:0:0:0:
192,192,35831,1,0,0:0:0:70:LR_Clap Reverb.wav
192,192,35931,1,8,0:0:0:0:
320,192,35931,1,0,0:0:0:0:
64,192,36031,1,8,0:0:0:0:
448,192,36031,1,0,0:0:0:0:
320,192,36131,1,8,0:0:0:0:
448,192,36131,1,0,0:0:0:0:
64,192,36231,1,8,0:0:0:0:
192,192,36231,1,0,0:0:0:70:LR_Clap Reverb.wav
320,192,36231,1,0,0:0:0:0:
64,192,36331,1,8,0:0:0:0:
192,192,36331,1,0,0:0:0:0:
320,192,36431,1,8,0:0:0:0:
448,192,36431,1,0,0:0:0:0:
192,192,36531,1,8,0:0:0:0:
320,192,36531,1,0,0:0:0:70:LR_Clap Reverb.wav
64,192,36631,1,4,0:0:0:0:
192,192,36631,128,2,36731:0:0:0:0:
448,192,36631,128,0,36731:0:0:0:0:
192,192,36831,128,0,37031:0:0:0:0:
448,192,36831,128,0,37031:0:0:0:0:
64,192,37031,128,0,37131:0:0:0:0:
64,192,37231,128,0,37381:0:0:0:0:
192,192,37231,128,0,37381:0:0:0:0:
64,192,37431,128,0,37581:0:0:0:0:
320,192,37431,128,0,37581:0:0:0:0:
192,192,37631,128,0,37781:0:0:0:0:
448,192,37631,128,0,37781:0:0:0:0:
64,192,37831,128,0,38631:0:0:0:0:
320,192,37831,1,0,0:0:0:0:
448,192,37831,128,0,38631:0:0:0:0:
192,192,38631,1,0,0:0:0:100:Wobble1.wav
320,192,38631,1,0,0:0:0:0:
64,192,39031,1,0,0:0:0:70:LR_Clap Reverb.wav
448,192,39031,1,0,0:0:0:0:
64,192,39231,1,2,0:0:0:0:
192,192,39231,1,0,0:0:0:0:
320,192,39231,1,0,0:0:0:0:
64,192,39431,128,8,39731:0:0:0:0:
192,192,39431,128,0,39731:0:0:0:0:
320,192,39431,1,0,0:0:0:0:
448,192,39431,1,0,0:0:0:0:
320,192,39631,128,0,39731:0:0:0:0:
448,192,39731,128,0,39931:0:0:0:0:
64,192,39831,128,0,40131:0:0:0:0:
192,192,39831,128,0,40131:0:0:0:0:
448,192,40031,128,0,40231:0:0:0:0:
320,192,40131,128,0,40231:0:0:0:0:
64,192,40231,1,2,0:0:0:0:
192,192,40231,1,4,0:0:0:0:
64,192,40331,128,0,40631:0:0:0:0:
192,192,40331,128,0,40631:0:0:0:0:
320,192,40531,1,0,0:0:0:0:
448,192,40531,1,0,0:0:0:0:
320,192,40631,128,0,40931:0:0:0:0:
448,192,40631,128,0,40931:0:0:0:0:
64,192,40831,128,0,41031:0:0:0:0:
192,192,40831,128,0,40931:0:0:0:0:
192,192,41031,1,8,0:0:0:0:
320,192,41031,1,0,0:0:0:0:
448,192,41031,1,0,0:0:0:0:
320,192,41131,128,0,41431:0:0:0:0:
448,192,41131,128,0,41431:0:0:0:0:
64,192,41331,1,0,0:0:0:0:
192,192,41331,1,0,0:0:0:0:
64,192,41431,128,0,41731:0:0:0:0:
192,192,41431,128,0,41731:0:0:0:0:
320,192,41631,128,0,41731:0:0:0:0:
448,192,41631,128,0,41831:0:0:0:0:
64,192,41831,1,2,0:0:0:0:
192,192,41831,1,0,0:0:0:0:
320,192,41831,1,0,0:0:0:0:
192,192,42031,1,2,0:0:0:0:
448,192,42031,1,0,0:0:0:0:
192,192,42131,1,0,0:0:0:0:
448,192,42131,1,0,0:0:0:0:
64,192,42231,1,0,0:0:0:0:
320,192,42231,1,0,0:0:0:0:
192,192,42431,128,0,42631:0:0:0:0:
64,192,42631,128,8,43031:0:0:0:0:
320,192,42631,1,0,0:0:0:0:
448,192,42631,128,0,42831:0:0:0:0:
192,192,42831,1,0,0:0:0:0:
448,192,42881,1,0,0:0:0:0:
192,192,42931,1,0,0:0:0:0:
320,192,42981,1,0,0:0:0:0:
448,192,43031,1,0,0:0:0:0:
448,192,43131,1,0,0:0:0:0:
448,192,43231,1,0,0:0:0:0:
448,192,43331,1,0,0:0:0:0:
64,192,43431,128,2,43531:0:0:0:0:
192,192,43431,128,4,43531:0:0:0:0:
448,192,43431,1,0,0:0:0:0:
64,192,43631,128,0,43831:0:0:0:0:
192,192,43631,128,0,43831:0:0:0:0:
448,192,43831,1,0,0:0:0:0:
320,192,43881,1,0,0:0:0:0:
64,192,43931,1,0,0:0:0:0:
320,192,43981,1,0,0:0:0:0:
64,192,44031,1,2,0:0:0:0:
448,192,44031,1,0,0:0:0:0:
192,192,44131,1,0,0:0:0:0:
320,192,44131,1,0,0:0:0:0:
64,192,44231,1,8,0:0:0:0:
192,192,44231,1,0,0:0:0:0:
448,192,44231,1,0,0:0:0:0:
64,192,44331,1,0,0:0:0:0:
192,192,44331,1,0,0:0:0:0:
320,192,44431,1,0,0:0:0:0:
448,192,44431,1,0,0:0:0:0:
320,192,44531,1,0,0:0:0:0:
448,192,44531,1,0,0:0:0:0:
320,192,44631,128,0,44831:0:0:0:0:
448,192,44631,128,0,44831:0:0:0:0:
64,192,44831,128,2,44931:0:0:0:0:
192,192,44831,128,0,44931:0:0:0:0:
64,192,45031,128,2,45431:0:0:0:0:
192,192,45031,1,0,0:0:0:0:
448,192,45031,1,0,0:0:0:0:
320,192,45431,1,0,0:0:0:0:
448,192,45431,1,0,0:0:0:0:
320,192,45531,1,0,0:0:0:0:
448,192,45531,1,0,0:0:0:0:
64,192,45631,1,0,0:0:0:0:
192,192,45631,1,0,0:0:0:0:
64,192,45831,1,8,0:0:0:0:
192,192,45831,1,0,0:0:0:0:
320,192,45831,1,0,0:0:0:0:
448,192,45831,1,0,0:0:0:0:
320,192,45931,1,0,0:0:0:0:
448,192,45931,1,0,0:0:0:0:
64,192,46031,1,0,0:0:0:0:
192,192,46031,1,0,0:0:0:0:
192,192,46131,1,0,0:0:0:0:
320,192,46131,1,0,0:0:0:0:
320,192,46231,1,0,0:0:0:0:
448,192,46231,1,0,0:0:0:0:
192,192,46431,1,0,0:0:0:0:
448,192,46431,1,0,0:0:0:0:
64,192,46531,1,0,0:0:0:0:
320,192,46531,1,0,0:0:0:0:
64,192,46631,128,2,46681:0:0:0:0:
192,192,46631,1,0,0:0:0:0:
448,192,46631,128,0,46681:0:0:0:0:
320,192,46731,128,0,46781:0:0:0:0:
448,192,46731,128,0,46781:0:0:0:0:
64,192,46831,128,0,46881:0:0:0:0:
192,192,46831,128,0,46881:0:0:0:0:
64,192,46931,128,0,46981:0:0:0:0:
192,192,46931,128,0,46981:0:0:0:0:
320,192,47031,128,0,47081:0:0:0:0:
448,192,47031,128,0,47081:0:0:0:0:
64,192,47131,128,2,47181:0:0:0:0:
320,192,47131,1,0,0:0:0:0:
448,192,47131,128,0,47181:0:0:0:0:
64,192,47231,128,0,47281:0:0:0:0:
192,192,47231,128,0,47281:0:0:0:0:
320,192,47331,128,0,47381:0:0:0:0:
448,192,47331,128,0,47381:0:0:0:0:
64,192,47431,1,8,0:0:0:0:
320,192,47431,1,0,0:0:0:0:
448,192,47431,1,0,0:0:0:0:
64,192,47531,1,2,0:0:0:0:
192,192,47531,1,0,0:0:0:0:
448,192,47531,1,0,0:0:0:0:
64,192,47731,1,8,0:0:0:0:
192,192,47731,1,0,0:0:0:0:
320,192,47731,1,0,0:0:0:0:
448,192,47731,1,0,0:0:0:0:
64,192,47931,1,2,0:0:0:0:
192,192,47931,1,0,0:0:0:0:
448,192,47931,1,0,0:0:0:0:
64,192,48031,1,8,0:0:0:0:
320,192,48031,1,0,0:0:0:0:
448,192,48031,1,0,0:0:0:0:
64,192,48231,1,2,0:0:0:0:
192,192,48231,1,0,0:0:0:0:
448,192,48231,1,0,0:0:0:0:
64,192,48331,1,0,0:0:0:0:
320,192,48331,1,0,0:0:0:0:
192,192,48431,1,0,0:0:0:0:
320,192,48431,1,0,0:0:0:0:
192,192,48531,1,0,0:0:0:0:
448,192,48531,1,0,0:0:0:0:
320,192,48631,128,0,48831:0:0:0:0:
448,192,48631,128,0,48831:0:0:0:0:
64,192,48831,128,0,48931:0:0:0:0:
192,192,48831,128,0,48931:0:0:0:0:
64,192,49031,1,0,0:0:0:100:Wobble2.wav
448,192,49031,1,0,0:0:0:0:
64,192,49831,1,4,0:0:0:0:
192,192,49831,1,0,0:0:0:55:LR3_Snare FCSRL.wav
320,192,49831,128,0,50231:0:0:0:0:
448,192,49831,128,0,50131:0:0:0:0:
64,192,50131,128,0,50231:0:0:0:0:
192,192,50231,128,0,50431:0:0:0:0:
448,192,50231,128,0,50631:0:0:0:0:
320,192,50431,128,0,50631:0:0:0:0:
64,192,50631,1,2,0:0:0:0:
192,192,50631,1,4,0:0:0:0:
192,192,50831,128,0,50931:0:0:0:0:
320,192,50831,128,0,50931:0:0:0:0:
64,192,51031,1,8,0:0:0:0:
320,192,51031,128,0,51131:0:0:0:0:
448,192,51031,128,0,51131:0:0:0:0:
64,192,51231,1,8,0:0:0:0:
192,192,51231,1,0,0:0:0:0:
64,192,51431,1,2,0:0:0:0:
192,192,51431,1,4,0:0:0:0:
320,192,51431,1,0,0:0:0:0:
448,192,51431,1,0,0:0:0:0:
64,192,51831,1,0,0:0:0:70:LR_Clap Reverb.wav
320,192,51881,1,0,0:0:0:0:
64,192,51931,1,0,0:0:0:0:
192,192,51981,1,0,0:0:0:0:
448,192,52031,1,0,0:0:0:0:
320,192,52081,1,0,0:0:0:0:
64,192,52131,1,0,0:0:0:0:
320,192,52181,1,0,0:0:0:0:
64,192,52231,1,2,0:0:0:0:
192,192,52231,1,4,0:0:0:0:
448,192,52231,1,0,0:0:0:0:
448,192,52631,1,0,0:0:0:70:LR_Clap Reverb.wav
192,192,52681,1,0,0:0:0:0:
448,192,52731,1,0,0:0:0:0:
320,192,52781,1,0,0:0:0:0:
64,192,52831,1,0,0:0:0:0:
192,192,52881,1,0,0:0:0:0:
448,192,52931,1,0,0:0:0:0:
192,192,52981,1,0,0:0:0:0:
64,192,53031,1,2,0:0:0:0:
320,192,53031,1,4,0:0:0:0:
448,192,53031,1,0,0:0:0:0:
64,192,53431,128,0,53531:0:0:0:70:LR_Clap Reverb.wav
448,192,53431,128,0,53531:0:0:0:0:
64,192,53631,1,0,0:0:0:0:
448,192,53631,1,0,0:0:0:0:
64,192,53831,1,2,0:0:0:0:
192,192,53831,128,4,54631:0:0:0:0:
448,192,53831,1,0,0:0:0:0:
320,192,54031,1,0,0:0:0:0:
64,192,54231,1,8,0:0:0:0:
320,192,54231,1,0,0:0:0:0:
448,192,54231,1,0,0:0:0:0:
64,192,54631,1,4,0:0:0:0:
320,192,54631,1,2,0:0:0:0:
448,192,54631,1,0,0:0:0:0:
64,192,55031,1,0,0:0:0:70:LR_Clap Reverb.wav
320,192,55081,1,0,0:0:0:0:
64,192,55131,1,0,0:0:0:0:
448,192,55181,1,0,0:0:0:0:
192,192,55231,1,0,0:0:0:0:
448,192,55281,1,0,0:0:0:0:
64,192,55331,1,0,0:0:0:0:
320,192,55381,1,0,0:0:0:0:
64,192,55431,1,2,0:0:0:0:
192,192,55431,1,4,0:0:0:0:
448,192,55431,1,0,0:0:0:0:
448,192,55831,1,0,0:0:0:70:LR_Clap Reverb.wav
192,192,55881,1,0,0:0:0:0:
448,192,55931,1,0,0:0:0:0:
64,192,55981,1,0,0:0:0:0:
320,192,56031,1,0,0:0:0:0:
64,192,56081,1,0,0:0:0:0:
448,192,56131,1,0,0:0:0:0:
192,192,56181,1,0,0:0:0:0:
64,192,56231,1,0,0:0:0:100:Kick_HardStyle_000.wav
320,192,56231,1,0,0:0:0:0:
448,192,56231,1,0,0:0:0:0:
64,192,56631,1,8,0:0:0:0:
448,192,56631,1,0,0:0:0:0:
64,192,56831,1,0,0:0:0:100:Kick_HardStyle_001.wav
192,192,56831,1,0,0:0:0:0:
448,192,56831,1,0,0:0:0:0:
64,192,57231,1,8,0:0:0:0:
448,192,57231,1,0,0:0:0:0:
64,192,57431,1,0,0:0:0:100:Kick_HardStyle_000.wav
320,192,57431,1,0,0:0:0:0:
448,192,57431,1,0,0:0:0:0:
64,192,57831,1,2,0:0:0:0:
320,192,57831,1,4,0:0:0:20:
448,192,57831,1,0,0:0:0:0:
320,192,58031,1,0,0:0:0:0:
320,192,58231,1,0,0:0:0:0:
320,192,58431,1,0,0:0:0:0:
320,192,58631,1,0,0:0:0:0:
320,192,58831,1,0,0:0:0:0:
320,192,59031,1,0,0:0:0:0:
320,192,59231,1,0,0:0:0:0:
192,192,59431,1,0,0:0:0:0:
448,192,59431,1,0,0:0:0:0:
192,192,59631,1,0,0:0:0:0:
192,192,59831,1,0,0:0:0:0:
192,192,60031,1,0,0:0:0:0:
64,192,60231,128,0,61031:0:0:0:0:
448,192,60231,128,0,61031:0:0:0:0:
320,192,60431,1,0,0:0:0:0:
320,192,60531,1,0,0:0:0:0:
192,192,60631,1,0,0:0:0:0:
192,192,60731,1,0,0:0:0:0:
320,192,60831,1,0,0:0:0:0:
320,192,60931,1,0,0:0:0:0:
192,192,61031,1,0,0:0:0:0:
192,192,61231,1,0,0:0:0:0:
192,192,61431,1,0,0:0:0:0:
192,192,61631,1,0,0:0:0:0:
192,192,61831,1,0,0:0:0:0:
192,192,62031,1,0,0:0:0:0:
192,192,62231,1,0,0:0:0:0:
192,192,62431,1,8,0:0:0:23:
320,192,62431,1,0,0:0:0:0:
320,192,62531,1,8,0:0:0:24:
64,192,62631,1,8,0:0:0:26:
448,192,62631,1,0,0:0:0:0:
64,192,62731,1,8,0:0:0:29:
192,192,62831,1,8,0:0:0:30:
448,192,62831,1,0,0:0:0:0:
448,192,62931,1,8,0:0:0:32:
64,192,63031,1,8,0:0:0:34:
320,192,63031,1,0,0:0:0:0:
64,192,63131,1,8,0:0:0:36:
192,192,63231,1,8,0:0:0:38:
448,192,63231,1,0,0:0:0:0:
448,192,63331,1,8,0:0:0:40:
64,192,63431,1,2,0:0:0:0:
192,192,63431,1,4,0:0:0:0:
320,192,63431,1,0,0:0:0:0:
64,192,63631,128,0,64231:0:0:0:0:
320,192,63731,128,0,64231:0:0:0:0:
192,192,64231,1,6,0:0:0:0:
448,192,64231,1,0,0:0:0:100:Piano_Chord_082.wav
448,192,65031,1,0,0:0:0:100:Piano_Chord_171.wav
64,192,65231,1,0,0:0:0:100:Piano_Chord_167.wav
320,192,65431,1,0,0:0:0:100:Piano_Chord_158.wav
448,192,65631,1,0,0:0:0:100:Piano_Chord_161.wav
192,192,65831,1,0,0:0:0:100:Piano_Chord_046.wav
448,192,65831,1,0,0:0:0:100:Piano_Chord_099.wav
64,192,66031,1,0,0:0:0:100:Piano_Chord_141.wav
320,192,66431,1,0,0:0:0:100:Piano_Chord_157.wav
64,192,66831,1,0,0:0:0:100:Piano_Chord_143.wav
192,192,67231,1,0,0:0:0:100:Piano_Chord_136.wav
320,192,67297,1,0,0:0:0:100:Piano_Chord_145.wav
448,192,67331,1,0,0:0:0:100:Piano_Chord_151.wav
192,192,67431,1,0,0:0:0:100:Piano_Chord_058.wav
64,192,67631,1,0,0:0:0:100:Piano_Chord_128.wav
320,192,67831,1,0,0:0:0:100:Piano_Chord_118.wav
448,192,68031,1,0,0:0:0:100:Piano_Chord_174.wav
448,192,68231,1,0,0:0:0:100:Piano_Chord_173.wav
192,192,68431,1,0,0:0:0:100:Piano_Chord_160.wav
64,192,68831,1,0,0:0:0:100:Piano_Chord_141.wav
64,192,69031,1,0,0:0:0:100:Piano_Chord_022.wav
320,192,69031,1,0,0:0:0:100:Piano_Chord_074.wav
448,192,69431,1,0,0:0:0:100:Piano_Chord_130.wav
64,192,69597,1,0,0:0:0:100:Piano_Chord_163.wav
192,192,69631,1,0,0:0:0:100:Piano_Chord_164.wav
192,192,70031,1,0,0:0:0:100:Piano_Chord_016.wav
448,192,70031,1,0,0:0:0:100:Piano_Chord_087.wav
320,192,70231,1,0,0:0:0:100:Piano_Chord_170.wav
64,192,70631,1,0,0:0:0:100:Piano_Chord_026.wav
320,192,70631,1,0,0:0:0:100:Piano_Chord_058.wav
64,192,71231,1,0,0:0:0:100:Piano_Chord_145.wav
448,192,71331,1,0,0:0:0:100:Piano_Chord_162.wav
192,192,71431,1,0,0:0:0:100:Piano_Chord_169.wav
448,192,72031,1,0,0:0:0:100:Piano_Chord_145.wav
64,192,72131,1,0,0:0:0:100:Piano_Chord_162.wav
192,192,72231,1,0,0:0:0:100:Piano_Chord_005.wav
448,192,72231,1,0,0:0:0:100:Piano_Chord_164.wav
192,192,72831,1,0,0:0:0:100:Piano_Chord_145.wav
64,192,73031,1,0,0:0:0:100:Piano_Chord_085.wav
448,192,73431,1,0,0:0:0:100:Piano_Chord_165.wav
64,192,73831,1,0,0:0:0:100:Piano_Chord_020.wav
192,192,73831,1,0,0:0:0:100:Piano_Chord_066.wav
320,192,74031,1,0,0:0:0:100:Piano_Chord_154.wav
320,192,74431,1,0,0:0:0:100:Piano_Chord_154.wav
192,192,75031,1,0,0:0:0:100:Piano_Chord_103.wav
320,192,75131,1,0,0:0:0:0:
64,192,75431,1,0,0:0:0:100:Piano_Chord_010.wav
192,192,75831,1,0,0:0:0:0:
448,192,76031,1,0,0:0:0:100:Piano_Chord_128.wav
64,192,76431,1,0,0:0:0:100:Piano_Chord_012.wav
192,192,76464,1,0,0:0:0:100:Piano_Chord_150.wav
320,192,76631,1,0,0:0:0:100:Piano_Chord_154.wav
64,192,77031,1,0,0:0:0:70:LR_Clap Reverb.wav
448,192,77031,1,0,0:0:0:100:Piano_Chord_057.wav
64,192,77131,1,0,0:0:0:0:
320,192,77231,1,0,0:0:0:0:
448,192,77331,1,0,0:0:0:0:
64,192,77431,1,0,0:0:0:70:LR_Clap Reverb.wav
320,192,77431,1,0,0:0:0:0:
64,192,77531,1,0,0:0:0:0:
192,192,77631,1,0,0:0:0:0:
448,192,77731,1,0,0:0:0:0:
64,192,77831,1,0,0:0:0:70:LR_Clap Reverb.wav
320,192,77831,1,0,0:0:0:0:
64,192,77931,1,0,0:0:0:0:
192,192,78031,1,0,0:0:0:0:
320,192,78131,1,0,0:0:0:0:
64,192,78231,1,0,0:0:0:70:LR_Clap Reverb.wav
448,192,78231,1,0,0:0:0:0:
64,192,78331,1,0,0:0:0:0:
192,192,78431,1,0,0:0:0:0:
448,192,78531,1,0,0:0:0:0:
64,192,78631,1,0,0:0:0:70:LR_Clap Reverb.wav
320,192,78631,1,0,0:0:0:100:Piano_Chord_070.wav
64,192,78731,1,0,0:0:0:0:
320,192,78831,1,0,0:0:0:0:
64,192,78931,1,0,0:0:0:0:
192,192,79031,1,0,0:0:0:70:LR_Clap Reverb.wav
448,192,79031,1,0,0:0:0:0:
192,192,79131,1,0,0:0:0:0:
448,192,79231,1,0,0:0:0:0:
192,192,79331,1,0,0:0:0:0:
64,192,79431,1,0,0:0:0:70:LR_Clap Reverb.wav
448,192,79431,1,0,0:0:0:100:Piano_Chord_114.wav
448,192,79531,1,0,0:0:0:0:
192,192,79631,1,0,0:0:0:0:
448,192,79731,1,0,0:0:0:0:
192,192,79831,1,0,0:0:0:70:LR_Clap Reverb.wav
320,192,79831,1,0,0:0:0:0:
320,192,79931,1,0,0:0:0:0:
64,192,80031,1,0,0:0:0:0:
320,192,80131,1,0,0:0:0:0:
64,192,80231,1,0,0:0:0:70:LR_Clap Reverb.wav
448,192,80231,1,0,0:0:0:100:Piano_Chord_122.wav
448,192,80331,1,0,0:0:0:0:
320,192,80431,1,0,0:0:0:0:
64,192,80531,1,0,0:0:0:0:
192,192,80631,1,0,0:0:0:70:LR_Clap Reverb.wav
448,192,80631,1,0,0:0:0:0:
448,192,80731,1,0,0:0:0:0:
192,192,80831,1,0,0:0:0:0:
64,192,80931,1,0,0:0:0:0:
192,192,81031,1,0,0:0:0:70:LR_Clap Reverb.wav
448,192,81031,1,0,0:0:0:0:
448,192,81131,1,0,0:0:0:0:
320,192,81231,1,0,0:0:0:0:
192,192,81331,1,0,0:0:0:0:
64,192,81431,1,0,0:0:0:70:LR_Clap Reverb.wav
448,192,81431,1,0,0:0:0:0:
448,192,81531,1,0,0:0:0:0:
320,192,81631,1,0,0:0:0:0:
64,192,81731,1,0,0:0:0:0:
192,192,81831,1,0,0:0:0:70:LR_Clap Reverb.wav
320,192,81831,1,0,0:0:0:100:Piano_Chord_073.wav
320,192,81931,1,0,0:0:0:0:
448,192,82031,1,0,0:0:0:0:
192,192,82131,1,0,0:0:0:0:
64,192,82231,1,0,0:0:0:70:LR_Clap Reverb.wav
320,192,82231,1,0,0:0:0:0:
320,192,82331,1,0,0:0:0:0:
448,192,82431,1,0,0:0:0:0:
64,192,82531,1,0,0:0:0:0:
320,192,82631,1,0,0:0:0:70:LR_Clap Reverb.wav
448,192,82631,1,0,0:0:0:0:
64,192,82731,1,0,0:0:0:0:
64,192,82831,1,0,0:0:0:100:Piano_Chord_127.wav
320,192,82831,1,0,0:0:0:100:Piano_Chord_061.wav
448,192,82931,1,0,0:0:0:0:
64,192,83031,1,0,0:0:0:70:LR_Clap Reverb.wav
320,192,83031,1,0,0:0:0:0:
64,192,83131,1,0,0:0:0:0:
192,192,83231,1,0,0:0:0:0:
448,192,83331,1,0,0:0:0:0:
64,192,83431,1,0,0:0:0:70:LR_Clap Reverb.wav
320,192,83431,1,0,0:0:0:100:Piano_Chord_137.wav
320,192,83531,1,0,0:0:0:0:
448,192,83631,1,0,0:0:0:0:
64,192,83731,1,0,0:0:0:0:
192,192,83831,1,0,0:0:0:70:LR_Clap Reverb.wav
448,192,83831,1,0,0:0:0:0:
192,192,83931,1,0,0:0:0:0:
64,192,84031,1,0,0:0:0:0:
448,192,84131,1,0,0:0:0:0:
64,192,84231,1,0,0:0:0:70:LR_Clap Reverb.wav
320,192,84231,1,0,0:0:0:0:
320,192,84331,1,0,0:0:0:0:
448,192,84431,1,0,0:0:0:0:
64,192,84531,1,0,0:0:0:0:
192,192,84631,1,0,0:0:0:70:LR_Clap Reverb.wav
448,192,84631,1,0,0:0:0:0:
192,192,84731,1,0,0:0:0:0:
64,192,84831,1,0,0:0:0:0:
448,192,84931,1,0,0:0:0:0:
64,192,85031,1,0,0:0:0:70:LR_Clap Reverb.wav
320,192,85031,1,0,0:0:0:100:Piano_Chord_125.wav
64,192,85131,1,0,0:0:0:0:
192,192,85231,1,0,0:0:0:0:
320,192,85231,1,0,0:0:0:0:
448,192,85331,1,0,0:0:0:0:
64,192,85431,1,0,0:0:0:70:LR_Clap Reverb.wav
448,192,85431,1,0,0:0:0:0:
64,192,85531,1,0,0:0:0:0:
192,192,85631,1,0,0:0:0:0:
320,192,85631,1,0,0:0:0:0:
448,192,85731,1,0,0:0:0:0:
64,192,85831,1,8,0:0:0:17:
448,192,85831,1,0,0:0:0:70:LR_Clap Reverb.wav
64,192,85931,1,8,0:0:0:18:
192,192,86031,1,8,0:0:0:19:
448,192,86031,1,0,0:0:0:0:
320,192,86131,1,8,0:0:0:20:
64,192,86231,1,8,0:0:0:21:
320,192,86231,1,0,0:0:0:70:LR_Clap Reverb.wav
64,192,86331,1,8,0:0:0:22:
192,192,86431,1,8,0:0:0:23:
448,192,86431,1,0,0:0:0:0:
320,192,86531,1,8,0:0:0:24:
64,192,86631,1,8,0:0:0:25:
192,192,86631,1,0,0:0:0:70:LR_Clap Reverb.wav
320,192,86631,1,0,0:0:0:100:Piano_Chord_137.wav
192,192,86731,1,8,0:0:0:26:
64,192,86831,1,8,0:0:0:27:
320,192,86831,1,0,0:0:0:0:
448,192,86831,1,0,0:0:0:0:
320,192,86931,1,8,0:0:0:28:
64,192,87031,1,8,0:0:0:29:
192,192,87031,1,0,0:0:0:70:LR_Clap Reverb.wav
448,192,87031,1,0,0:0:0:0:
192,192,87131,1,8,0:0:0:30:
64,192,87231,1,8,0:0:0:31:
320,192,87231,1,0,0:0:0:0:
448,192,87231,1,0,0:0:0:0:
320,192,87331,1,8,0:0:0:32:
448,192,87331,1,0,0:0:0:0:
64,192,87431,1,8,0:0:0:33:
192,192,87431,1,0,0:0:0:70:LR_Clap Reverb.wav
64,192,87531,1,8,0:0:0:34:
192,192,87531,1,0,0:0:0:0:
320,192,87631,1,8,0:0:0:35:
448,192,87631,1,0,0:0:0:0:
320,192,87731,1,8,0:0:0:36:
448,192,87731,1,0,0:0:0:0:
64,192,87831,1,8,0:0:0:37:
192,192,87831,1,0,0:0:0:70:LR_Clap Reverb.wav
64,192,87931,1,8,0:0:0:38:
192,192,87931,1,0,0:0:0:0:
320,192,88031,1,8,0:0:0:39:
448,192,88031,1,0,0:0:0:0:
320,192,88131,1,8,0:0:0:40:
448,192,88131,1,0,0:0:0:0:
64,192,88231,128,2,89431:0:0:0:0:
192,192,88231,1,4,0:0:0:0:
320,192,88231,1,0,0:0:0:55:LR3_Snare FCSRL.wav
448,192,88231,1,0,0:0:0:0:
320,192,89231,128,2,89431:0:0:0:0:
192,192,89431,1,0,0:0:0:70:LR_Clap Reverb.wav
448,192,89431,1,0,0:0:0:0:
448,192,89631,1,0,0:0:0:70:tom01.wav
448,192,89731,1,0,0:0:0:70:tom02.wav
64,192,89831,128,2,90031:0:0:0:0:
192,192,89831,128,4,90031:0:0:0:0:
320,192,89831,128,0,90031:0:0:0:100:Lead_01.wav
64,192,90131,128,2,90331:0:0:0:0:
192,192,90131,128,4,90331:0:0:0:0:
320,192,90131,128,0,90331:0:0:0:100:Lead_01.wav
64,192,90431,1,2,0:0:0:0:
192,192,90431,1,4,0:0:0:0:
320,192,90431,1,0,0:0:0:100:Lead_02.wav
192,192,91031,128,2,91231:0:0:0:0:
320,192,91031,128,4,91231:0:0:0:0:
448,192,91031,128,0,91231:0:0:0:100:Lead_03.wav
192,192,91331,128,2,91531:0:0:0:0:
320,192,91331,128,4,91531:0:0:0:0:
448,192,91331,128,0,91531:0:0:0:100:Lead_03.wav
192,192,91631,1,2,0:0:0:0:
320,192,91631,1,4,0:0:0:0:
448,192,91631,1,0,0:0:0:100:Lead_04.wav
64,192,91831,1,0,0:0:0:0:
448,192,91831,1,0,0:0:0:0:
192,192,91931,1,0,0:0:0:0:
448,192,91931,1,0,0:0:0:0:
64,192,92031,128,0,92131:0:0:0:0:
320,192,92031,128,0,92131:0:0:0:0:
64,192,92231,1,8,0:0:0:0:
320,192,92231,1,0,0:0:0:0:
448,192,92231,128,0,92831:0:0:0:0:
192,192,92431,128,0,92531:0:0:0:0:
320,192,92531,128,0,92631:0:0:0:0:
64,192,92631,128,2,92731:0:0:0:0:
192,192,92631,128,4,92931:0:0:0:0:
320,192,92731,128,0,92831:0:0:0:0:
64,192,92831,128,0,92931:0:0:0:0:
448,192,92931,128,0,93031:0:0:0:0:
64,192,93031,1,2,0:0:0:0:
192,192,93031,1,0,0:0:0:0:
320,192,93031,128,0,93431:0:0:0:0:
64,192,93231,1,0,0:0:0:0:
64,192,93431,1,0,0:0:0:0:
64,192,93631,1,2,0:0:0:0:
192,192,93631,1,0,0:0:0:0:
320,192,93631,1,0,0:0:0:0:
64,192,93831,1,8,0:0:0:0:
320,192,93831,1,0,0:0:0:0:
448,192,93831,1,0,0:0:0:0:
448,192,93931,1,0,0:0:0:0:
448,192,94031,1,0,0:0:0:0:
448,192,94131,1,0,0:0:0:0:
448,192,94231,1,0,0:0:0:0:
448,192,94331,1,0,0:0:0:0:
448,192,94431,1,0,0:0:0:0:
448,192,94531,1,0,0:0:0:0:
64,192,94631,128,2,94831:0:0:0:0:
192,192,94631,1,0,0:0:0:0:
320,192,94631,1,0,0:0:0:0:
320,192,94831,1,0,0:0:0:0:
64,192,95031,1,0,0:0:0:0:
320,192,95031,1,0,0:0:0:0:
64,192,95231,1,2,0:0:0:0:
192,192,95231,1,0,0:0:0:0:
448,192,95231,1,0,0:0:0:0:
64,192,95431,128,8,95697:0:0:0:0:
192,192,95431,128,0,95697:0:0:0:0:
448,192,95431,128,0,95697:0:0:0:0:
320,192,95631,128,0,95697:0:0:0:0:
64,192,95831,128,0,96097:0:0:0:0:
320,192,95831,128,0,96097:0:0:0:0:
192,192,96031,128,0,96097:0:0:0:0:
448,192,96031,128,0,96097:0:0:0:0:
64,192,96231,1,2,0:0:0:0:
192,192,96231,128,0,96531:0:0:0:0:
320,192,96231,1,0,0:0:0:0:
448,192,96231,128,0,96531:0:0:0:0:
64,192,96631,1,2,0:0:0:0:
192,192,96631,128,0,96931:0:0:0:0:
320,192,96631,1,0,0:0:0:0:
448,192,96631,128,0,96931:0:0:0:0:
192,192,97031,1,8,0:0:0:0:
448,192,97031,1,0,0:0:0:0:
64,192,97081,1,0,0:0:0:0:
320,192,97131,1,0,0:0:0:0:
192,192,97181,1,0,0:0:0:0:
320,192,97231,1,0,0:0:0:0:
448,192,97281,1,0,0:0:0:0:
192,192,97331,1,0,0:0:0:0:
320,192,97381,1,0,0:0:0:0:
192,192,97431,1,0,0:0:0:0:
64,192,97481,1,0,0:0:0:0:
320,192,97531,1,0,0:0:0:0:
192,192,97581,1,0,0:0:0:0:
448,192,97631,1,0,0:0:0:0:
320,192,97681,1,0,0:0:0:0:
64,192,97731,1,0,0:0:0:0:
320,192,97781,1,0,0:0:0:0:
64,192,97831,1,2,0:0:0:0:
192,192,97831,1,0,0:0:0:0:
448,192,97831,128,0,98431:0:0:0:0:
192,192,98031,1,0,0:0:0:0:
192,192,98231,1,0,0:0:0:0:
192,192,98431,1,0,0:0:0:0:
320,192,98431,1,0,0:0:0:0:
64,192,98481,1,0,0:0:0:0:
320,192,98531,1,0,0:0:0:0:
448,192,98581,1,0,0:0:0:0:
64,192,98631,1,8,0:0:0:0:
192,192,98631,1,0,0:0:0:0:
64,192,98731,1,0,0:0:0:0:
192,192,98731,1,0,0:0:0:0:
320,192,98831,1,0,0:0:0:0:
448,192,98831,1,0,0:0:0:0:
320,192,98931,1,0,0:0:0:0:
448,192,98931,1,0,0:0:0:0:
64,192,99031,128,0,99131:0:0:0:0:
192,192,99031,128,0,99131:0:0:0:0:
64,192,99231,128,0,99331:0:0:0:0:
192,192,99231,128,0,99331:0:0:0:0:
64,192,99431,128,2,99731:0:0:0:0:
192,192,99431,1,0,0:0:0:0:
320,192,99431,128,0,99731:0:0:0:0:
448,192,99431,1,0,0:0:0:0:
64,192,99831,128,2,100231:0:0:0:0:
192,192,99831,1,0,0:0:0:0:
320,192,99831,128,0,100231:0:0:0:0:
448,192,99831,1,0,0:0:0:0:
64,192,101031,1,0,0:0:0:70:LR_Clap Reverb.wav
448,192,101031,1,0,0:0:0:0:
192,192,101081,1,0,0:0:0:0:
320,192,101131,1,0,0:0:0:0:
64,192,101181,1,0,0:0:0:0:
192,192,101231,1,0,0:0:0:0:
448,192,101281,1,0,0:0:0:0:
192,192,101331,1,0,0:0:0:0:
448,192,101381,1,0,0:0:0:0:
64,192,101431,1,0,0:0:0:70:LR_Clap Reverb.wav
320,192,101481,1,0,0:0:0:0:
64,192,101531,1,0,0:0:0:0:
192,192,101581,1,0,0:0:0:0:
320,192,101631,1,0,0:0:0:0:
448,192,101681,1,0,0:0:0:0:
64,192,101731,1,0,0:0:0:0:
320,192,101781,1,0,0:0:0:0:
64,192,101831,1,8,0:0:0:55:LR3_Snare FCSRL.wav
448,192,101831,1,0,0:0:0:0:
192,192,101881,1,0,0:0:0:0:
448,192,101931,1,0,0:0:0:0:
320,192,101981,1,0,0:0:0:0:
192,192,102031,1,0,0:0:0:70:LR_Clap Reverb.wav
448,192,102081,1,0,0:0:0:0:
320,192,102131,1,0,0:0:0:0:
64,192,102181,1,0,0:0:0:0:
320,192,102231,1,0,0:0:0:70:LR_Clap Reverb.wav
64,192,102281,1,0,0:0:0:0:
448,192,102331,1,0,0:0:0:0:
192,192,102381,1,0,0:0:0:0:
448,192,102431,1,0,0:0:0:70:LR_Clap Reverb.wav
320,192,102481,1,0,0:0:0:0:
192,192,102531,1,0,0:0:0:0:
448,192,102581,1,0,0:0:0:0:
64,192,102631,1,2,0:0:0:0:
192,192,102631,1,4,0:0:0:0:
320,192,102631,1,0,0:0:0:0:
64,192,102831,1,0,0:0:0:0:
192,192,102831,1,0,0:0:0:0:
64,192,102931,1,0,0:0:0:0:
192,192,102931,1,0,0:0:0:0:
64,192,103031,1,8,0:0:0:0:
320,192,103031,128,0,103231:0:0:0:0:
448,192,103031,128,0,103231:0:0:0:0:
64,192,103231,1,0,0:0:0:0:
192,192,103231,1,0,0:0:0:0:
64,192,103431,1,2,0:0:0:0:
320,192,103431,1,0,0:0:0:0:
448,192,103431,1,0,0:0:0:0:
448,192,103564,1,0,0:0:0:0:
320,192,103597,1,0,0:0:0:0:
192,192,103631,1,0,0:0:0:0:
192,192,103731,1,0,0:0:0:0:
64,192,103831,1,8,0:0:0:0:
192,192,103831,1,0,0:0:0:0:
448,192,103831,1,0,0:0:0:0:
448,192,103931,1,0,0:0:0:0:
448,192,104031,1,0,0:0:0:0:
448,192,104131,1,0,0:0:0:0:
64,192,104231,1,2,0:0:0:0:
192,192,104231,1,0,0:0:0:0:
320,192,104231,1,0,0:0:0:0:
64,192,104431,1,0,0:0:0:0:
448,192,104431,1,0,0:0:0:0:
192,192,104531,1,0,0:0:0:0:
320,192,104531,1,0,0:0:0:0:
64,192,104631,1,8,0:0:0:0:
320,192,104631,1,0,0:0:0:0:
448,192,104631,1,0,0:0:0:0:
64,192,104731,1,0,0:0:0:0:
192,192,104831,1,0,0:0:0:0:
448,192,104831,1,0,0:0:0:0:
320,192,104931,1,0,0:0:0:0:
448,192,104931,1,0,0:0:0:0:
64,192,105031,1,2,0:0:0:0:
320,192,105031,128,0,105231:0:0:0:0:
448,192,105031,128,0,105231:0:0:0:0:
64,192,105231,1,0,0:0:0:0:
192,192,105231,1,0,0:0:0:0:
64,192,105331,1,0,0:0:0:0:
192,192,105331,1,0,0:0:0:0:
64,192,105431,128,8,105631:0:0:0:0:
192,192,105431,1,0,0:0:0:0:
448,192,105431,128,0,105631:0:0:0:0:
320,192,105631,1,0,0:0:0:0:
64,192,105831,1,2,0:0:0:0:
320,192,105831,1,0,0:0:0:0:
448,192,105831,1,0,0:0:0:0:
320,192,106031,128,0,106081:0:0:0:0:
448,192,106031,128,0,106081:0:0:0:0:
320,192,106131,128,0,106181:0:0:0:0:
448,192,106131,128,0,106181:0:0:0:0:
64,192,106231,1,8,0:0:0:0:
192,192,106231,1,0,0:0:0:0:
448,192,106231,1,0,0:0:0:0:
320,192,106281,1,0,0:0:0:0:
64,192,106331,1,0,0:0:0:0:
320,192,106381,1,0,0:0:0:0:
192,192,106431,1,0,0:0:0:0:
448,192,106431,1,0,0:0:0:0:
192,192,106531,1,0,0:0:0:0:
64,192,106631,1,2,0:0:0:0:
320,192,106631,128,0,106731:0:0:0:0:
448,192,106631,128,0,106731:0:0:0:0:
320,192,106831,128,0,106931:0:0:0:0:
448,192,106831,128,0,106931:0:0:0:0:
64,192,107031,128,8,107231:0:0:0:0:
448,192,107031,1,0,0:0:0:0:
320,192,107081,1,0,0:0:0:0:
192,192,107131,1,0,0:0:0:0:
320,192,107181,1,0,0:0:0:0:
448,192,107231,128,0,107431:0:0:0:0:
64,192,107431,1,2,0:0:0:0:
192,192,107431,1,0,0:0:0:0:
320,192,107431,1,0,0:0:0:0:
64,192,107631,1,0,0:0:0:0:
192,192,107631,1,0,0:0:0:0:
320,192,107731,1,0,0:0:0:0:
448,192,107731,1,0,0:0:0:0:
64,192,107831,1,8,0:0:0:0:
192,192,107831,1,0,0:0:0:0:
320,192,107831,1,0,0:0:0:0:
64,192,107931,128,0,108031:0:0:0:0:
448,192,107931,128,0,108031:0:0:0:0:
320,192,108131,1,0,0:0:0:0:
448,192,108131,1,0,0:0:0:0:
64,192,108231,1,2,0:0:0:0:
192,192,108231,1,0,0:0:0:0:
448,192,108231,1,0,0:0:0:0:
192,192,108331,128,0,108431:0:0:0:0:
320,192,108331,128,0,108431:0:0:0:0:
64,192,108431,1,0,0:0:0:0:
320,192,108531,1,0,0:0:0:0:
64,192,108631,1,8,0:0:0:0:
320,192,108631,1,0,0:0:0:0:
448,192,108631,1,0,0:0:0:0:
64,192,108831,128,0,108931:0:0:0:0:
448,192,108831,128,0,108931:0:0:0:0:
64,192,109031,1,2,0:0:0:0:
192,192,109031,1,0,0:0:0:0:
448,192,109031,1,0,0:0:0:0:
192,192,109231,1,0,0:0:0:0:
192,192,109331,1,0,0:0:0:0:
64,192,109431,1,8,0:0:0:0:
320,192,109431,1,0,0:0:0:0:
448,192,109431,1,0,0:0:0:0:
192,192,109481,1,0,0:0:0:0:
448,192,109556,1,0,0:0:0:0:
64,192,109631,1,0,0:0:0:0:
192,192,109631,1,0,0:0:0:0:
320,192,109731,1,0,0:0:0:0:
448,192,109731,1,0,0:0:0:0:
64,192,109831,1,2,0:0:0:0:
320,192,109831,128,0,110031:0:0:0:0:
448,192,109831,128,0,110031:0:0:0:0:
64,192,110231,1,8,0:0:0:0:
320,192,110231,1,0,0:0:0:0:
448,192,110231,1,0,0:0:0:0:
192,192,110281,1,0,0:0:0:0:
448,192,110331,1,0,0:0:0:0:
192,192,110381,1,0,0:0:0:0:
64,192,110431,1,0,0:0:0:0:
320,192,110431,128,0,110631:0:0:0:0:
64,192,110631,1,2,0:0:0:0:
192,192,110631,1,0,0:0:0:0:
448,192,110631,1,0,0:0:0:0:
320,192,110831,1,0,0:0:0:0:
64,192,110931,1,0,0:0:0:0:
320,192,110931,1,0,0:0:0:0:
64,192,111031,1,8,0:0:0:0:
192,192,111031,1,0,0:0:0:0:
448,192,111031,1,0,0:0:0:0:
448,192,111231,1,0,0:0:0:0:
192,192,111281,1,0,0:0:0:0:
448,192,111331,1,0,0:0:0:0:
192,192,111381,1,0,0:0:0:0:
64,192,111431,1,2,0:0:0:0:
320,192,111431,1,0,0:0:0:0:
448,192,111431,1,0,0:0:0:0:
64,192,111531,128,0,111581:0:0:0:0:
192,192,111531,128,0,111581:0:0:0:0:
64,192,111631,128,0,111681:0:0:0:0:
192,192,111631,128,0,111681:0:0:0:0:
320,192,111731,128,0,111781:0:0:0:0:
448,192,111731,128,0,111781:0:0:0:0:
64,192,111831,1,8,0:0:0:0:
320,192,111831,1,0,0:0:0:0:
448,192,111831,1,0,0:0:0:0:
64,192,111931,1,0,0:0:0:0:
320,192,111931,1,0,0:0:0:0:
192,192,112031,1,0,0:0:0:0:
448,192,112031,1,0,0:0:0:0:
192,192,112131,1,0,0:0:0:0:
320,192,112131,1,0,0:0:0:0:
64,192,112231,1,2,0:0:0:0:
320,192,112231,1,0,0:0:0:0:
448,192,112231,1,0,0:0:0:0:
192,192,112431,1,0,0:0:0:0:
448,192,112481,1,0,0:0:0:0:
320,192,112531,1,0,0:0:0:0:
64,192,112631,1,8,0:0:0:0:
320,192,112631,1,0,0:0:0:0:
448,192,112631,1,0,0:0:0:0:
192,192,112731,1,0,0:0:0:0:
192,192,112831,128,0,113031:0:0:0:0:
64,192,113031,1,2,0:0:0:0:
320,192,113031,1,0,0:0:0:0:
448,192,113031,1,0,0:0:0:0:
192,192,113131,1,0,0:0:0:0:
448,192,113131,1,0,0:0:0:0:
64,192,113231,1,0,0:0:0:0:
320,192,113231,1,0,0:0:0:0:
64,192,113331,1,0,0:0:0:0:
192,192,113431,1,8,0:0:0:0:
320,192,113431,1,0,0:0:0:0:
448,192,113431,1,0,0:0:0:0:
64,192,113531,1,0,0:0:0:0:
320,192,113531,1,0,0:0:0:0:
192,192,113631,1,0,0:0:0:0:
448,192,113631,1,0,0:0:0:0:
192,192,113731,1,0,0:0:0:0:
64,192,113831,1,2,0:0:0:0:
320,192,113831,1,0,0:0:0:0:
448,192,113831,1,0,0:0:0:0:
448,192,114031,1,0,0:0:0:0:
448,192,114131,1,0,0:0:0:0:
64,192,114231,1,8,0:0:0:0:
192,192,114231,1,0,0:0:0:0:
320,192,114231,1,0,0:0:0:0:
64,192,114331,1,0,0:0:0:0:
64,192,114431,1,0,0:0:0:0:
64,192,114531,1,0,0:0:0:0:
64,192,114631,1,2,0:0:0:0:
320,192,114631,1,0,0:0:0:0:
448,192,114631,1,0,0:0:0:0:
64,192,114731,1,0,0:0:0:0:
192,192,114831,1,8,0:0:0:0:
320,192,114831,128,0,115431:0:0:0:0:
448,192,114831,128,0,115431:0:0:0:0:
64,192,115431,1,2,0:0:0:0:
192,192,115431,1,0,0:0:0:0:
320,192,115631,1,0,0:0:0:0:
448,192,115631,1,0,0:0:0:0:
320,192,115731,1,0,0:0:0:0:
448,192,115731,1,0,0:0:0:0:
64,192,115831,128,8,116031:0:0:0:0:
192,192,115831,128,0,116031:0:0:0:0:
448,192,115831,1,0,0:0:0:0:
320,192,116031,1,0,0:0:0:0:
448,192,116031,1,0,0:0:0:0:
64,192,116231,1,2,0:0:0:0:
192,192,116231,1,0,0:0:0:0:
448,192,116231,1,0,0:0:0:0:
64,192,116364,1,0,0:0:0:0:
192,192,116397,1,0,0:0:0:0:
320,192,116431,1,0,0:0:0:0:
320,192,116531,1,0,0:0:0:0:
64,192,116631,1,8,0:0:0:0:
320,192,116631,1,0,0:0:0:0:
448,192,116631,1,0,0:0:0:0:
64,192,116731,1,0,0:0:0:0:
64,192,116831,1,0,0:0:0:0:
64,192,116931,1,0,0:0:0:0:
192,192,117031,1,2,0:0:0:0:
320,192,117031,1,0,0:0:0:0:
448,192,117031,1,0,0:0:0:0:
64,192,117231,1,0,0:0:0:0:
448,192,117231,1,0,0:0:0:0:
192,192,117331,1,0,0:0:0:0:
320,192,117331,1,0,0:0:0:0:
64,192,117431,1,8,0:0:0:0:
192,192,117431,1,0,0:0:0:0:
448,192,117431,1,0,0:0:0:0:
448,192,117531,1,0,0:0:0:0:
64,192,117631,1,0,0:0:0:0:
320,192,117631,1,0,0:0:0:0:
64,192,117731,1,0,0:0:0:0:
192,192,117731,1,0,0:0:0:0:
64,192,117831,128,2,118031:0:0:0:0:
192,192,117831,128,0,118031:0:0:0:0:
448,192,117831,1,0,0:0:0:0:
320,192,118031,128,0,118231:0:0:0:0:
448,192,118031,128,0,118431:0:0:0:0:
64,192,118231,128,8,118431:0:0:0:0:
192,192,118231,1,0,0:0:0:0:
320,192,118431,1,0,0:0:0:0:
64,192,118631,1,2,0:0:0:0:
320,192,118631,1,0,0:0:0:0:
448,192,118631,1,0,0:0:0:0:
64,192,118831,128,0,118881:0:0:0:0:
192,192,118831,128,0,118881:0:0:0:0:
64,192,118931,128,0,118981:0:0:0:0:
192,192,118931,128,0,118981:0:0:0:0:
64,192,119031,1,8,0:0:0:0:
320,192,119031,1,0,0:0:0:0:
448,192,119031,1,0,0:0:0:0:
192,192,119081,1,0,0:0:0:0:
448,192,119131,1,0,0:0:0:0:
192,192,119181,1,0,0:0:0:0:
64,192,119231,1,0,0:0:0:0:
320,192,119231,1,0,0:0:0:0:
320,192,119331,1,0,0:0:0:0:
64,192,119431,128,2,119531:0:0:0:0:
192,192,119431,128,0,119531:0:0:0:0:
448,192,119431,1,0,0:0:0:0:
64,192,119631,128,0,119731:0:0:0:0:
192,192,119631,128,0,119731:0:0:0:0:
64,192,119831,1,8,0:0:0:0:
448,192,119831,1,0,0:0:0:0:
192,192,119881,1,0,0:0:0:0:
320,192,119931,1,0,0:0:0:0:
192,192,119981,1,0,0:0:0:0:
64,192,120031,1,0,0:0:0:0:
448,192,120031,128,0,120231:0:0:0:0:
64,192,120231,1,2,0:0:0:0:
192,192,120231,1,0,0:0:0:0:
320,192,120431,1,0,0:0:0:0:
448,192,120431,1,0,0:0:0:0:
64,192,120531,1,0,0:0:0:0:
192,192,120531,1,0,0:0:0:0:
192,192,120631,1,8,0:0:0:0:
320,192,120631,1,0,0:0:0:0:
448,192,120631,1,0,0:0:0:0:
64,192,120731,128,0,120831:0:0:0:0:
448,192,120731,128,0,120831:0:0:0:0:
64,192,120931,1,0,0:0:0:0:
192,192,120931,1,0,0:0:0:0:
64,192,121031,1,2,0:0:0:0:
320,192,121031,1,0,0:0:0:0:
448,192,121031,1,0,0:0:0:0:
192,192,121131,128,0,121231:0:0:0:0:
320,192,121131,128,0,121231:0:0:0:0:
448,192,121231,1,0,0:0:0:0:
192,192,121331,1,0,0:0:0:0:
64,192,121431,1,8,0:0:0:0:
192,192,121431,1,0,0:0:0:0:
448,192,121431,1,0,0:0:0:0:
64,192,121631,128,0,121731:0:0:0:0:
448,192,121631,128,0,121731:0:0:0:0:
64,192,121831,1,2,0:0:0:0:
320,192,121831,1,0,0:0:0:0:
448,192,121831,1,0,0:0:0:0:
320,192,122031,1,0,0:0:0:0:
320,192,122131,1,0,0:0:0:0:
64,192,122231,1,8,0:0:0:0:
192,192,122231,1,0,0:0:0:0:
448,192,122231,1,0,0:0:0:0:
320,192,122281,1,0,0:0:0:0:
64,192,122356,1,0,0:0:0:0:
320,192,122431,1,0,0:0:0:0:
448,192,122431,1,0,0:0:0:0:
64,192,122531,1,0,0:0:0:0:
192,192,122531,1,0,0:0:0:0:
64,192,122631,128,2,122831:0:0:0:0:
192,192,122631,128,0,122831:0:0:0:0:
448,192,122631,1,0,0:0:0:0:
64,192,123031,1,8,0:0:0:0:
192,192,123031,1,0,0:0:0:0:
448,192,123031,1,0,0:0:0:0:
320,192,123081,1,0,0:0:0:0:
64,192,123131,1,0,0:0:0:0:
320,192,123181,1,0,0:0:0:0:
192,192,123231,128,0,123431:0:0:0:0:
448,192,123231,1,0,0:0:0:0:
64,192,123431,1,2,0:0:0:0:
320,192,123431,1,0,0:0:0:0:
448,192,123431,1,0,0:0:0:0:
192,192,123631,1,0,0:0:0:0:
192,192,123731,1,0,0:0:0:0:
448,192,123731,1,0,0:0:0:0:
64,192,123831,1,8,0:0:0:0:
320,192,123831,1,0,0:0:0:0:
448,192,123831,1,0,0:0:0:0:
64,192,124031,1,0,0:0:0:0:
320,192,124081,1,0,0:0:0:0:
64,192,124131,1,0,0:0:0:0:
320,192,124181,1,0,0:0:0:0:
64,192,124231,1,2,0:0:0:0:
192,192,124231,1,0,0:0:0:0:
448,192,124231,1,0,0:0:0:0:
320,192,124331,128,0,124381:0:0:0:0:
448,192,124331,128,0,124381:0:0:0:0:
320,192,124431,128,0,124481:0:0:0:0:
448,192,124431,128,0,124481:0:0:0:0:
64,192,124531,128,0,124581:0:0:0:0:
192,192,124531,128,0,124581:0:0:0:0:
64,192,124631,1,8,0:0:0:0:
192,192,124631,1,0,0:0:0:0:
448,192,124631,1,0,0:0:0:0:
192,192,124731,1,0,0:0:0:0:
448,192,124731,1,0,0:0:0:0:
64,192,124831,1,0,0:0:0:0:
320,192,124831,1,0,0:0:0:0:
192,192,124931,1,0,0:0:0:0:
320,192,124931,1,0,0:0:0:0:
64,192,125031,1,2,0:0:0:0:
192,192,125031,1,0,0:0:0:0:
448,192,125031,1,0,0:0:0:0:
320,192,125231,1,0,0:0:0:0:
64,192,125281,1,0,0:0:0:0:
192,192,125331,1,0,0:0:0:0:
64,192,125431,1,8,0:0:0:0:
192,192,125431,1,0,0:0:0:0:
448,192,125431,1,0,0:0:0:0:
320,192,125531,1,0,0:0:0:0:
320,192,125631,128,0,125831:0:0:0:0:
64,192,125831,1,2,0:0:0:0:
192,192,125831,1,0,0:0:0:0:
448,192,125831,1,0,0:0:0:0:
64,192,125931,1,0,0:0:0:0:
320,192,125931,1,0,0:0:0:0:
192,192,126031,1,0,0:0:0:0:
448,192,126031,1,0,0:0:0:0:
448,192,126131,1,0,0:0:0:0:
64,192,126231,1,8,0:0:0:0:
192,192,126231,1,0,0:0:0:0:
320,192,126231,1,0,0:0:0:0:
192,192,126331,1,0,0:0:0:0:
448,192,126331,1,0,0:0:0:0:
64,192,126431,1,0,0:0:0:0:
320,192,126431,1,0,0:0:0:0:
320,192,126531,1,0,0:0:0:0:
64,192,126631,1,2,0:0:0:0:
192,192,126631,1,0,0:0:0:0:
448,192,126631,1,0,0:0:0:0:
64,192,126831,1,0,0:0:0:0:
64,192,126931,1,0,0:0:0:0:
192,192,127031,1,8,0:0:0:0:
320,192,127031,1,0,0:0:0:0:
448,192,127031,1,0,0:0:0:0:
448,192,127131,1,0,0:0:0:0:
448,192,127231,1,0,0:0:0:0:
448,192,127331,1,0,0:0:0:0:
64,192,127431,1,2,0:0:0:0:
192,192,127431,1,0,0:0:0:0:
448,192,127431,1,0,0:0:0:0:
448,192,127531,1,0,0:0:0:0:
64,192,127631,128,8,128131:0:0:0:0:
192,192,127631,128,0,128131:0:0:0:0:
320,192,127631,1,0,0:0:0:0:
64,192,128231,1,2,0:0:0:0:
192,192,128231,1,4,0:0:0:0:
320,192,128231,1,0,0:0:0:100:Piano_Chord_043.wav
448,192,128231,1,0,0:0:0:100:Piano_Chord_017.wav
192,192,128431,1,0,0:0:0:0:
192,192,128631,1,0,0:0:0:0:
192,192,128831,1,0,0:0:0:0:
192,192,129031,1,0,0:0:0:0:
192,192,129231,1,0,0:0:0:0:
192,192,129431,1,0,0:0:0:0:
192,192,129631,1,0,0:0:0:0:
192,192,129831,1,0,0:0:0:100:Piano_Chord_152.wav
448,192,129831,1,0,0:0:0:100:Piano_Chord_013.wav
448,192,130031,1,0,0:0:0:0:
448,192,130231,1,0,0:0:0:0:
448,192,130431,1,0,0:0:0:0:
64,192,130631,1,0,0:0:0:100:Piano_Chord_135.wav
448,192,130631,1,0,0:0:0:0:
448,192,130831,1,0,0:0:0:0:
448,192,131031,1,0,0:0:0:0:
448,192,131231,1,0,0:0:0:0:
64,192,131431,1,0,0:0:0:100:Piano_Chord_007.wav
448,192,131431,1,0,0:0:0:100:Piano_Chord_132.wav
64,192,131631,1,0,0:0:0:0:
64,192,131831,1,0,0:0:0:0:
64,192,132031,1,0,0:0:0:0:
64,192,132231,1,0,0:0:0:0:
64,192,132431,1,0,0:0:0:0:
64,192,132631,1,0,0:0:0:0:
64,192,132831,1,0,0:0:0:0:
64,192,133031,1,0,0:0:0:100:Piano_Chord_018.wav
320,192,133031,1,0,0:0:0:100:Piano_Chord_134.wav
320,192,133231,1,0,0:0:0:0:
320,192,133431,1,0,0:0:0:0:
320,192,133631,1,0,0:0:0:0:
320,192,133831,1,0,0:0:0:0:
320,192,134031,1,0,0:0:0:100:Piano_Chord_023.wav
448,192,134031,1,0,0:0:0:100:Piano_Chord_142.wav
448,192,134231,1,0,0:0:0:0:
448,192,134431,1,0,0:0:0:0:
192,192,134631,1,0,0:0:0:100:Piano_Chord_017.wav
448,192,134631,1,0,0:0:0:100:Piano_Chord_152.wav
192,192,134831,1,0,0:0:0:0:
192,192,135031,1,0,0:0:0:0:
192,192,135231,1,0,0:0:0:0:
192,192,135431,1,0,0:0:0:0:
192,192,135631,1,0,0:0:0:0:
192,192,135831,1,0,0:0:0:0:
192,192,136031,1,0,0:0:0:0:
192,192,136231,1,0,0:0:0:100:Piano_Chord_147.wav
448,192,136231,1,0,0:0:0:100:Piano_Chord_014.wav
448,192,136431,1,0,0:0:0:0:
448,192,136631,1,0,0:0:0:0:
448,192,136831,1,0,0:0:0:0:
320,192,137031,1,0,0:0:0:100:Piano_Chord_003.wav
448,192,137031,1,0,0:0:0:100:Piano_Chord_156.wav
320,192,137231,1,0,0:0:0:0:
320,192,137431,1,0,0:0:0:0:
320,192,137631,1,0,0:0:0:0:
64,192,137831,1,0,0:0:0:100:Piano_Chord_029.wav
320,192,137831,1,0,0:0:0:100:Piano_Chord_133.wav
64,192,138031,1,0,0:0:0:0:
64,192,138231,1,0,0:0:0:0:
64,192,138431,1,0,0:0:0:0:
64,192,138631,1,0,0:0:0:0:
64,192,138831,1,0,0:0:0:0:
64,192,139031,1,0,0:0:0:0:
64,192,139231,1,0,0:0:0:0:
64,192,139431,1,0,0:0:0:100:Piano_Chord_008.wav
320,192,139431,1,0,0:0:0:100:Piano_Chord_153.wav
320,192,139631,1,0,0:0:0:0:
320,192,139831,1,0,0:0:0:0:
320,192,140031,1,0,0:0:0:0:
320,192,140231,1,0,0:0:0:0:
320,192,140431,1,0,0:0:0:0:
320,192,140631,1,0,0:0:0:0:
192,192,140831,1,0,0:0:0:0:
64,192,141031,128,0,141081:0:0:0:100:Piano_Chord_000.wav
320,192,141031,128,0,141081:0:0:0:100:Piano_Chord_042.wav
448,192,141031,128,0,141081:0:0:0:100:Piano_Chord_063.wav
